#TITLE:Do It Right;
#ARTIST:AFD feat. Ashley;
#BANNER:Do It Right.png;
#BACKGROUND:Do It Right-bg.png;
#CDTITLE:./CDTITLES/DanceDanceRevolution UNIVERSE2.png;
#MUSIC:Do It Right.ogg;
#SAMPLESTART:24.762;
#SAMPLELENGTH:15;
#BPMS:0=126;

//---------------dance-single - ----------------
#NOTES:
     dance-single:
     :
     Beginner:
     1:
     :
0000
0000
0000
0000
,
0000
0000
0000
0000
,
0000
0000
0000
0000
,
0000
0000
0000
0000
,
0000
0000
0000
0000
,
0001
0000
1000
0000
,
0010
0000
0100
0000
,
0001
0000
0000
0000
,
1000
0000
0000
0000
,
0010
0000
0100
0000
,
1000
0000
0000
0000
,
0010
0000
0100
0000
,
0001
0000
0000
0000
,
1000
0000
0001
0000
,
0010
0000
0100
0000
,
1001
0000
0000
0000
,
1001
0000
0000
0000
,
0010
0000
0000
0000
,
1000
0000
0000
0000
,
0001
0000
0000
0000
,
0100
0000
0100
0000
,
0010
0000
0000
0000
,
0000
0000
0000
0000
,
1001
0000
0000
0000
,
1001
0000
0000
0000
,
0010
0000
0100
0000
,
1000
0000
0000
0000
,
0001
0000
0001
0000
,
1000
0000
0000
0000
,
0010
0000
0100
0000
,
0001
0000
0010
0000
,
0100
0000
1000
0000
,
0001
0000
0000
0000
,
1001
0000
0000
0000
,
0110
0000
0000
0000
,
0110
0000
0000
0000
,
0000
0000
0000
0000
,
0001
0000
1000
0000
,
0010
0000
0100
0000
,
0100
0000
0000
0000
,
0100
0000
0100
0000
,
1000
0000
0001
0000
,
0010
0000
0100
0000
,
0110
0000
0000
0000
,
1001
0000
0000
0000
,
1000
0000
0001
0000
,
0010
0000
0100
0000
,
1000
0000
0000
0000
,
0100
0000
0100
0000
;

//---------------dance-single - ----------------
#NOTES:
     dance-single:
     :
     Easy:
     3:
     :
0000
0000
0000
0000
,
0000
0000
0000
0000
,
0000
0000
0000
0000
,
0000
0000
0000
0000
,
0000
0000
0000
0000
,
0010
1000
1000
0000
,
0001
0000
1000
0000
,
0001
0001
0100
0000
,
1000
1000
0010
0000
,
1001
0000
0100
0000
,
0010
0000
1000
0000
,
0100
0100
0001
0000
,
1000
0001
1000
0000
,
0010
0000
0001
0000
,
0100
0000
1000
0000
,
0100
0000
0010
0000
,
0001
0000
1000
0000
,
1000
0000
0100
0000
,
0010
0000
0001
0000
,
0100
0100
0100
0100
,
0010
0000
1001
0000
,
0110
0000
1000
0000
,
0001
0000
0000
0000
,
1001
0000
0010
0000
,
0100
0000
1000
0000
,
1001
0000
0010
0000
,
0100
0000
0001
0000
,
0110
0000
1000
0000
,
0100
1000
1000
0000
,
0001
0000
0010
0000
,
1000
0000
0100
0100
,
1000
0000
0010
0000
,
0100
0000
0001
0000
,
0110
0000
0000
0000
,
1001
0000
0000
0000
,
1000
0000
0010
0000
,
0001
0000
0000
0000
,
0110
0000
1000
0000
,
0001
0001
0001
0000
,
0010
0000
0100
0000
,
1000
0000
0100
0000
,
0010
0000
0001
0000
,
1000
0000
0010
0000
,
0100
0000
0001
0000
,
0010
0000
1000
0000
,
0010
0010
0100
0000
,
0001
0001
1000
0000
,
0100
0100
0100
0100
,
1001
0000
0110
0000
,
1001
0000
0000
0000
;

//---------------dance-single - ----------------
#NOTES:
     dance-single:
     :
     Medium:
     5:
     :
0000
0000
0000
0000
,
0000
0000
0000
0000
,
0000
0000
0000
0000
,
0000
0000
0000
0000
,
0000
0000
0000
0000
,
1000
0000
0001
0000
,
0010
0100
1000
0000
,
0010
0100
0001
0000
1000
0000
0000
0000
,
0010
0100
1000
0001
,
0010
0000
1000
0000
,
0001
0100
0010
0000
,
1000
0010
0100
0000
0001
0000
1000
0000
,
0010
0100
0110
1001
,
0011
0100
1000
0100
,
1010
0100
0001
1000
,
0101
1100
1010
0011
,
0001
0100
1000
0010
,
1010
0001
0011
0001
,
1100
1000
0101
1000
,
1010
0011
0101
1100
,
0100
0100
0100
0100
,
0001
0000
1000
0000
,
0100
0010
0001
0000
,
0100
0010
1000
0000
0001
0000
0000
0000
,
0100
0010
0001
1000
,
0100
0000
0001
0000
,
1000
0010
0100
0000
,
0001
0100
0010
0000
1000
0000
0001
0000
,
0100
0010
1100
0011
,
1001
0000
0010
0000
0100
0000
1000
0001
,
0011
0000
0100
0000
1000
0000
0010
0100
,
1100
0010
0100
0001
,
0010
0100
1000
1000
,
0020
0100
0000
0130
,
2000
0001
0000
3001
,
0200
0010
0000
0310
,
0000
0000
0000
0000
,
0001
0000
0010
0000
0100
1000
0100
0000
,
1000
0000
0010
0000
0100
0001
0100
0000
,
1001
0000
0010
0000
1000
0100
1000
0000
,
0001
0100
0001
0000
1000
0000
0110
0000
,
1000
0000
0100
0000
0010
0001
0010
0001
,
1000
0000
0100
0000
0010
1000
0010
1000
,
0001
0000
0100
0000
0001
0010
0001
0010
,
1000
0010
1000
0000
0001
0000
0110
0000
,
0100
1000
0010
0000
0100
0001
0010
0000
,
0100
1000
0001
1000
0010
0000
0101
0000
,
0010
0001
0100
0000
0010
1000
0100
0000
,
0110
1001
0110
1010
,
0101
0000
0000
0000
;

//---------------dance-single - ----------------
#NOTES:
     dance-single:
     :
     Hard:
     7:
     :
0000
0000
0000
0000
,
0000
0000
0000
0000
,
0000
0000
0000
0000
,
0000
0000
0000
0000
,
0000
0000
0000
0000
,
1000
0100
0010
0001
0100
0001
0100
1000
,
0100
0010
0001
0010
1000
0100
0001
0000
,
0100
1000
0010
0100
0001
0010
1000
0001
,
0100
0010
0001
1000
0100
0001
0100
0000
,
1000
0001
0010
1000
0010
0100
1000
0001
,
0100
0010
1000
0001
1000
0010
0100
0000
,
1000
0000
0010
0000
0100
0000
0001
0000
2000
0000
0000
3000
0100
0000
0010
0000
,
0001
1000
0200
0000
1000
0000
0001
0300
,
0010
0001
1000
0100
0010
0000
0101
0000
,
0010
1000
0001
0100
0010
0000
1100
1000
,
0002
0023
0230
2300
,
0001
0010
3100
0020
,
1030
0010
0100
0001
0010
0000
0011
0010
,
0001
0100
1000
0100
0001
0010
1000
0010
,
0002
2003
3002
0203
,
0320
0100
1000
0031
,
0000
1000
0010
1000
0100
0000
0000
0010
,
0001
0010
0200
0000
0000
0000
1300
0001
,
0010
0001
0100
0010
1000
0100
0001
1000
,
0010
0100
1000
0001
0010
1000
0010
0000
,
0001
1000
0100
0001
0100
0010
0001
1000
,
0010
0100
0001
1000
0001
0100
0010
0000
,
0001
0000
0100
0000
0010
0000
1000
0000
0002
0000
0000
0003
0010
0000
0100
0000
,
1000
0001
0020
0000
0001
0000
1000
0030
,
0001
0000
0000
1000
0000
0000
0100
0000
0010
0000
0010
0000
0001
0000
0100
0000
,
0010
0000
0000
1000
0000
0000
0001
0000
0100
0000
0100
0000
0010
0000
1000
0000
,
2020
0000
3030
0202
0000
0303
0022
0000
,
0033
2200
0000
0000
0000
0000
3300
0000
,
0010
0001
1000
0100
0010
0000
0101
0000
,
0010
1000
0001
0100
0010
1000
0100
0001
,
0100
1000
0010
0001
,
0000
0000
0000
2000
,
3001
0010
0100
1000
0010
1000
1010
0100
,
0001
0100
1000
0100
0001
0100
0101
0001
,
0020
0230
2300
3020
,
0230
0310
0001
0020
,
1030
0010
0100
0001
0010
0000
0011
0010
,
0001
0010
0100
1000
0010
1000
1100
0010
,
0002
2003
3002
0203
,
0320
1000
0130
0002
,
1003
0010
0100
0001
0100
1000
0100
0001
,
0010
1000
0010
0001
0100
1000
0100
0001
,
0010
0010
0100
0100
1000
1000
0001
0001
,
0101
1010
0011
1100
,
1001
0000
0000
0000
;

//---------------dance-double - ----------------
#NOTES:
     dance-double:
     :
     Beginner:
     1:
     :
00000000
00000000
00000000
00000000
,
00000000
00000000
00000000
00000000
,
00000000
00000000
00000000
00000000
,
00000000
00000000
00000000
00000000
,
00000000
00000000
00000000
00000000
,
10000000
00000000
00000000
00000000
,
00100000
00000000
00000000
00000000
,
00010000
00000000
00000000
00000000
,
00001000
00000000
00000000
00000000
,
00000100
00000000
00000000
00000000
,
00000010
00000000
00000000
00000000
,
00000001
00000000
00000000
00000000
,
00000100
00000000
00000000
00000000
,
00001000
00000000
00000000
00000000
,
00010000
00000000
00000000
00000000
,
00100000
00000000
00000000
00000000
,
10000000
00000000
00000000
00000000
,
00100000
00000000
00000000
00000000
,
00010000
00000000
00000000
00000000
,
00001000
00000000
00000000
00000000
,
00000100
00000000
00000100
00000000
,
00000001
00000000
00000000
00000000
,
00001000
00000000
00000000
00000000
,
00000010
00000000
00000000
00000000
,
00000001
00000000
00000000
00000000
,
00000100
00000000
00000000
00000000
,
00001000
00000000
00000000
00000000
,
00010000
00000000
00000000
00000000
,
01000000
00000000
00000000
00000000
,
10000000
00000000
00000000
00000000
,
01000000
00000000
00010000
00000000
,
00001000
00000000
00000000
00000000
,
00000010
00000000
00000000
00000000
,
00000001
00000000
00000000
00000000
,
00000010
00000000
00000000
00000000
,
00001000
00000000
00000000
00000000
,
00010000
00000000
00000000
00000000
,
00100000
00000000
10000000
00000000
,
00100000
00000000
00010000
00000000
,
00010000
00000000
00000000
00000000
,
00001000
00000000
00001000
00000000
,
00000100
00000000
00000001
00000000
,
00000010
00000000
00000000
00000000
,
00000100
00000000
00000000
00000000
,
00001000
00000000
00000000
00000000
,
00010000
00000000
00000000
00000000
,
00100000
00000000
00000000
00000000
,
10000000
00000000
00000000
00000000
,
01000000
00000000
00010000
00000000
,
00011000
00000000
00000000
00000000
;

//---------------dance-double - ----------------
#NOTES:
     dance-double:
     :
     Easy:
     3:
     :
00000000
00000000
00000000
00000000
,
00000000
00000000
00000000
00000000
,
00000000
00000000
00000000
00000000
,
00000000
00000000
00000000
00000000
,
00000000
00000000
00000000
00000000
,
00000010
00000000
00000001
00000000
,
00001000
00000000
00000010
00000000
,
00010000
00000000
00001000
00000000
,
00100000
00000000
00010000
10000000
,
01000000
00000000
10000000
00000000
,
00100000
00000000
01000000
00000000
,
00001000
00000000
00010000
00000000
,
00000010
00001000
00000001
00000100
,
00000110
00001000
00001000
00000000
,
00011000
00000000
00010000
00001000
,
00100000
00000000
10000000
00000000
,
01000000
00000000
00100000
00000000
,
01100000
00010000
00010000
00000000
,
00011000
00000000
00001000
00010000
,
00000100
00000000
00000001
00000000
,
00000010
00000000
00000100
00000000
,
00001000
00000000
00010000
00000000
,
00100000
01000000
00000000
00000000
,
10010000
00000000
01000000
00000000
,
00100000
00000000
00010000
00000000
,
00001000
00000000
00010000
00000000
,
00000010
00000000
00001000
00000000
,
00000001
00000000
00000010
00000000
,
00001000
00000000
00010000
00000000
,
00100000
00100000
01000000
00000000
,
10000000
10000000
01000000
00000000
,
00010000
00010000
00011000
00000000
,
00001000
00000000
00001001
00000000
,
00000010
00000000
00000100
00000000
,
00001000
00000000
00010000
00000000
,
00100000
00000000
01000000
00000000
,
10000000
00000000
01000000
00000000
,
01100000
00000000
00010000
00000000
,
00100000
00000000
00010000
00000000
,
00001000
00000000
00000100
00000000
,
00001000
00001000
00001000
00000000
,
00001001
00000000
00000010
00000000
,
00000100
00000000
00000010
00000000
,
00001000
00000000
00000100
00000000
,
00001000
00000000
00010000
00000000
,
00001000
00000000
00010000
00000000
,
01000000
00000000
00100000
00000000
,
10000000
01000000
00100000
00010000
,
00001000
00000100
00000010
00000001
,
00000110
00000000
00000000
00000000
;

//---------------dance-double - ----------------
#NOTES:
     dance-double:
     :
     Medium:
     6:
     :
00000000
00000000
00000000
00000000
,
00000000
00000000
00000000
00000000
,
00000000
00000000
00000000
00000000
,
00000000
00000000
00000000
00000000
,
00000000
00000000
00000000
00000000
,
10000000
00000000
00100000
00000000
01000000
00100000
00010000
00000000
,
00010000
00001000
00000010
00000001
,
00000001
00001000
00000010
00000000
00000100
00000001
00001000
00000000
,
00000010
00000100
00001000
00010000
,
00100000
00000000
10000000
00000000
01000000
00100000
00010000
00000000
,
01000000
00000000
00001000
00000000
00100000
00001000
00010000
00000000
,
00001000
00010000
00000100
00000000
00001000
00000000
00000010
00000000
,
00000100
00000001
00000010
00000000
00001010
00000000
00000101
00000000
,
00000010
00000100
00001000
00000000
00000010
00000000
00010000
00000000
,
00001000
00010000
01000000
00000000
10000000
00000000
00100000
00000000
,
10000000
01000000
00010000
00001000
,
00000010
00000001
00000010
00000100
,
00010000
00001000
00010000
00000000
00001000
00000000
00100000
00000000
,
00010000
01000000
00010000
00000000
00100000
00000000
11000000
00000000
,
10000000
00100000
00010000
00001000
,
00000100
00000001
00000001
00000001
,
00000020
00000031
00000200
00001300
,
00020000
00000000
00031000
00000000
00100000
00010000
01000000
00000000
,
10000000
00010000
01000000
00000000
00100000
10000000
00010000
00000000
,
01000000
00100000
00010000
00001000
,
00000100
00000000
00000001
00000000
00000010
00000100
00001000
00000000
,
00000010
00000000
00010000
00000000
00000100
00010000
00001000
00000000
,
00010000
00001000
00100000
00000000
00010000
00000000
01000000
00000000
,
00100000
10000000
01000000
00000000
01010000
00000000
10100000
00000000
,
02000000
00000000
03100000
00000000
01000000
00001000
00010000
00000000
,
00002000
00000000
00013000
00000000
00000010
00001000
00000100
00000000
,
00000100
00000000
00000000
00000010
00000000
00000000
00001001
00000000
,
00000000
00000200
00000000
00000000
00000010
00000000
00000301
00000000
,
00001000
00010000
00001000
01000000
,
00010000
10000000
00100000
01000000
,
00001000
00010000
00000010
00001000
,
00000000
00000000
00000000
00000001
,
00000001
00000100
00001000
00000000
00000100
00001000
00010000
00000000
,
00001000
00010000
00100000
00000000
10000000
00100000
00010000
00000000
,
10000000
00100000
00010000
00001000
,
00010000
00001000
00000100
00000010
,
00000001
00000010
00001000
00000000
00000010
00001000
00010000
00000000
,
00001000
00010000
01000000
00000000
10000000
01000000
00010000
00000000
,
01000000
00010000
00001000
00010000
,
00000100
00001000
00000010
00000100
,
00000010
00000001
00000100
00000000
00000010
00000000
00010000
00000000
,
00001000
00010000
00100000
00000000
01000000
00000000
00010000
00000000
,
00100000
10000000
01000000
00000000
00100000
00010000
01000000
00000000
,
00001000
00010000
00001100
00000110
,
00000011
00000000
00000000
00000000
;

//---------------dance-double - ----------------
#NOTES:
     dance-double:
     :
     Hard:
     7:
     :
00000000
00000000
00000000
00000000
,
00000000
00000000
00000000
00000000
,
00000000
00000000
00000000
00000000
,
00000000
00000000
00000000
00000000
,
00000000
00000000
00000000
00000000
,
00000000
00100000
10000000
01000000
00200000
00000000
00000000
00301000
,
00010000
00000010
00002000
00000000
00000000
00000000
00003100
00000000
,
00001000
00000100
00000010
00000001
00000100
00000010
00001000
00010000
,
01000000
00100000
10000000
00010000
10000000
01000000
00100000
00001000
,
00010000
01000000
10000000
01000000
00020000
00000000
00000000
00031000
,
00000010
00000001
00000200
00000000
00000000
00000000
00001300
00010000
,
00100000
01000000
10000000
00010000
00200000
00000000
10300000
01000000
,
00100000
00002000
00020000
00000000
00000000
00000000
00033000
00000000
,
00000100
00001000
00000001
00000100
00000010
00001000
00000001
00000100
,
00001000
00010000
00100000
10000000
01000000
00100000
00010000
00000000
,
01010000
01100000
00110000
00202000
,
00000000
00000000
00303000
00000000
,
00000010
00001000
00000001
00000010
00000100
00001000
00000010
00010000
,
00001000
00010000
00000100
00000010
00000100
00001000
00000001
00000100
,
00001000
00010000
01000000
00100000
,
00110000
10100000
11000000
01010000
,
20000000
00100000
30200000
01000000
02300000
00001000
03002000
00010000
,
00023000
00000010
00030020
00000100
00000230
00000001
00000302
00000000
,
00001003
00000010
00000100
00000001
00000010
00000100
00001000
00000001
,
00000100
00000010
00001000
00000100
00010000
00001000
00100000
00000000
,
01000000
10000000
01000000
10000000
00010000
01000000
00010000
01000000
,
00001000
00010000
00001000
00010000
00000010
00001000
00000010
00000000
,
00000100
00000001
00000100
00000001
00001000
00000100
00001000
00000100
,
00010000
00001000
00010000
00001000
01000000
00010000
00010000
00000000
,
20000000
00000000
30200000
00000000
02300000
00000000
03010000
00010000
,
00002000
00000000
00003020
00000000
00000230
00000000
00000301
00000001
,
00000200
00000000
00000000
00020300
00000000
00000000
02030000
00000000
,
00000000
23000000
00000000
00000000
00000000
00000000
30000000
00000000
,
00100000
01000000
00010000
10000000
00100000
00000000
01010000
01000000
,
00100000
00010000
00001000
00010000
00001000
00000100
00000001
00000100
,
00000010
00010000
00001000
00110000
,
00000000
00000000
00000000
10000000
,
00010000
10000000
01000000
00100000
00010000
01000000
00100000
00100000
,
01000000
00001000
00010000
01000000
00010000
00001000
00010000
00010000
,
00001000
00000100
00000001
00000010
00001000
00010000
00001000
00001000
,
00010000
01000000
10000000
00100000
00010000
00000010
00001000
00000000
,
00001000
00000001
00000010
00000100
00001000
00000001
00000010
00000010
,
00000100
00010000
00001000
00000100
00000010
00010000
00001000
00001000
,
00010000
01000000
10000000
00100000
00010000
00001000
00010000
00010000
,
00001000
00000100
00000001
00000010
00001000
00100000
00010000
00000000
,
00001000
00010000
00100000
00010000
00001000
00000100
00001000
00000000
,
00010000
00001000
00000010
00001000
00010000
01000000
00010000
00000000
,
00000200
00020300
00032000
02003000
,
03010000
00001000
00000010
00000001
,
00000110
00000000
00000000
00000000
;
