#TITLE:Contract [Breach Mix];
#ARTIST:Rupesh Cartel;
#BANNER:Contract [Breach Mix].png;
#BACKGROUND:Contract [Breach Mix]-bg.png;
#CDTITLE:./CDTITLES/DanceDanceRevolution UNIVERSE2.png;
#MUSIC:Contract [Breach Mix].ogg;
#SAMPLESTART:30.87;
#SAMPLELENGTH:15;
#BPMS:0=138;

//---------------dance-single - ----------------
#NOTES:
     dance-single:
     :
     Beginner:
     1:
     :
0000
0000
0000
0000
,
0000
0000
0000
0000
,
0000
0000
0000
0000
,
0000
0000
0000
0000
,
0000
0000
0000
0000
,
0010
0000
0000
0000
,
1000
0000
0000
0000
,
0001
0000
0000
0000
,
0100
0000
0000
0000
,
0100
0000
0000
0000
,
0001
0000
0000
0000
,
1000
0000
0000
0000
,
0010
0000
0000
0000
,
1001
0000
0000
0000
,
0010
0000
0000
0000
,
0100
0000
0000
0000
,
0110
0000
0000
0000
,
1000
0000
0000
0000
,
0001
0000
0000
0000
,
0100
0000
0000
0000
,
0010
0000
0000
0000
,
1000
1000
0000
0000
,
0010
0010
0000
0000
,
0100
0100
0000
0000
,
0001
0001
0000
0000
,
0001
0001
0000
0000
,
0010
0010
0000
0000
,
1000
1000
0000
0000
,
0100
0100
0000
0000
,
1001
0000
0000
0000
,
0100
0100
0000
0000
,
0010
0010
0000
0000
,
1000
0000
0001
0000
,
1001
0000
0000
0000
,
0010
0010
0000
0000
,
0100
0100
0000
0000
,
0001
0000
1000
0000
,
0001
0000
0010
0000
,
0100
0000
1000
0000
,
1001
0000
0000
0000
,
1001
0000
0000
0000
,
1000
0000
0000
0000
,
0010
0000
0000
0000
,
0110
0000
0000
0000
,
1001
0000
0000
0000
,
0100
0000
0100
0000
,
0001
0000
0001
0000
,
1000
0000
1000
0000
,
0010
0000
0010
0000
,
0010
0000
0010
0000
,
1000
0000
1000
0000
,
0001
0000
0001
0000
,
0100
0000
0100
0000
,
0110
0000
0000
0000
;

//---------------dance-single - ----------------
#NOTES:
     dance-single:
     :
     Easy:
     4:
     :
0000
0000
0000
0000
,
0000
0000
0000
0000
,
0000
0000
0000
0000
,
0000
0000
0000
0000
,
0000
0000
0000
0000
,
1000
1000
0020
0000
,
0000
0000
0000
0030
,
0100
0000
0000
0000
,
1000
0001
0000
0000
,
0010
0000
0110
0000
,
1000
0001
0100
0000
,
0010
0010
1000
0000
,
0100
0100
0001
0000
,
1000
0000
0110
0000
,
0001
1000
0010
0000
,
0100
0100
0001
0000
,
0010
0010
0100
0000
,
1001
1000
0001
0000
,
0001
0001
0010
0000
,
1000
0000
1000
0000
,
0010
0000
0001
0000
,
0100
0000
0100
0000
,
0001
0001
0010
0000
,
1000
1000
0001
0000
,
0010
0000
0100
0000
,
0001
0000
1000
0000
,
1000
1000
0010
0000
,
0001
0001
1000
0000
,
0100
0000
0010
0000
,
0100
0001
0010
0000
,
1000
0000
1001
0000
,
0100
0010
0001
0000
,
1000
0000
0110
0000
,
0010
1000
0100
0000
,
0001
0000
1001
0000
,
0010
0100
1000
0000
,
0001
0000
0110
0000
,
0010
0000
0010
0000
,
1000
1000
0100
0000
,
0001
0001
1000
0000
,
0100
0000
1000
0000
,
0010
0001
0100
0000
,
1000
0000
1001
0000
,
0010
0100
0001
0000
,
1000
0000
0110
0000
,
1000
0001
0100
0001
,
0010
1000
0100
0001
,
0001
0100
1000
0010
,
1000
0010
1000
0001
,
0001
1000
0010
1000
,
0100
0001
0010
1000
,
1000
0010
0001
0100
,
0001
0100
0001
1000
,
0110
0000
0000
0000
;

//---------------dance-single - ----------------
#NOTES:
     dance-single:
     :
     Medium:
     6:
     :
0000
0000
0000
0000
,
0000
0000
0000
0000
,
0000
0000
0000
0000
,
0000
0000
0000
0000
,
0000
0000
0000
0000
,
0010
0000
1000
0001
,
0010
1000
0100
0000
1000
0000
0001
0000
,
0010
0000
0100
0000
,
1000
0000
0001
0000
0010
1000
0010
0000
,
1000
0000
0001
0000
,
0100
0000
0000
0000
1000
0000
0010
1000
,
0001
0000
0100
0000
,
0001
0010
0100
1000
,
0001
0000
0100
0000
,
1000
0000
0010
0000
1000
0010
1000
0000
,
0001
0100
0010
1000
,
0100
0000
0010
0000
0001
0010
0001
0000
,
1000
0100
1000
0001
,
0010
0001
0100
1100
,
0001
0010
0001
1000
,
0010
0000
0100
0000
1000
1000
1000
0000
,
0010
1000
0001
0000
0010
0001
1000
0000
,
0001
0010
1000
0000
1000
0100
0001
0000
,
0001
0100
1000
0000
0010
1000
0100
0000
,
0010
0100
0001
1001
,
0100
0001
1000
0000
0100
1000
0001
0000
,
1000
0100
0001
0000
0001
0010
1000
0000
,
1000
0010
0001
0000
0100
0001
0010
0000
,
0100
0010
1000
1001
,
0010
0000
0100
1000
0001
0000
0010
0000
,
0100
0000
0001
0010
1000
0000
0010
0000
,
0100
0000
0001
0100
1000
0000
0001
0000
,
0100
0000
1000
0001
0100
0000
0110
0000
,
0100
0000
0010
0001
1000
0000
0100
0000
,
0010
0000
1000
0100
0001
0000
0100
0000
,
0010
0000
1000
0010
0001
0000
1000
0000
,
0010
0000
0001
1000
0010
0000
0110
0000
,
0001
0000
0010
0100
1000
0000
0001
0000
,
0010
0100
0001
0000
1000
0000
0010
0100
,
0001
0000
0010
0000
0100
1000
0010
0000
,
0100
0001
0010
0000
0001
0100
1000
0000
,
1000
0000
0100
0010
0001
0000
1000
0000
,
0100
0010
1000
0000
0001
0000
0100
0010
,
1000
0000
0100
0000
0010
0001
0100
0000
,
0010
1000
0100
0000
1000
0010
0001
0000
,
0011
0000
1000
0100
0010
0000
1100
0000
,
1000
0000
0100
1000
0010
0000
0011
0000
,
0010
0100
1000
0000
0010
1000
0001
0000
,
0010
0100
0001
1000
0010
0000
0110
0000
,
1100
0000
0001
0010
0100
0000
0011
0000
,
0001
0000
0010
0001
0100
0000
1100
0000
,
0100
0010
0001
0000
0100
0001
1000
0000
,
0100
0010
1000
0001
0100
0000
1100
0000
,
0011
0000
0000
0000
;

//---------------dance-single - ----------------
#NOTES:
     dance-single:
     :
     Hard:
     8:
     :
0000
0000
0000
0000
,
0000
0000
0000
0000
,
0000
0000
0000
0000
,
0000
0000
0000
0000
,
0000
0000
0000
0000
,
1000
0100
0010
0000
0001
0100
0010
0000
,
1000
0000
0100
0000
0010
0001
0010
0000
,
0010
0100
1000
0000
0010
0100
0001
0000
,
0100
0010
1000
0100
0010
0000
0011
0000
,
0001
0010
0100
0000
1000
0010
0100
0000
,
0001
0000
0010
0000
0100
1000
0100
0000
,
0100
0010
0001
0000
0100
0010
1000
0000
,
0010
0100
0001
0010
0100
0000
1100
0000
,
0010
0000
0100
0000
1000
0000
0100
0010
,
0001
0000
1000
0000
0010
0100
0001
0000
,
0001
0100
1000
0000
1000
0100
0001
0000
,
1000
0010
0001
0000
0010
0000
0101
0000
,
0100
0000
0010
0000
0001
0000
0010
0100
,
1000
0000
0001
0000
0100
0010
1000
0000
,
1000
0010
0001
0000
0001
0010
1000
0000
,
0001
0100
1000
0000
0100
0000
1010
0000
,
1000
0000
0010
0000
0000
0100
0000
0000
0001
0000
0000
0010
0000
0000
0100
0000
,
0000
0000
0100
0000
0000
1000
0000
0000
1000
0000
0000
0100
0000
0000
0010
0000
,
0000
0000
0100
0000
0000
0001
0000
0000
1000
0000
0000
0100
0000
0000
0010
0000
,
0000
0000
1000
0000
0000
0100
0000
0000
0001
0000
0000
0010
0000
0000
0100
0000
,
0000
0000
0001
0000
0000
0010
0000
0000
1000
0000
0000
0100
0000
0000
0010
0000
,
0000
0000
0010
0000
0000
0001
0000
0000
0001
0000
0000
0010
0000
0000
0100
0000
,
0000
0000
1000
0000
0000
0100
0000
0000
0001
0000
0000
0010
0000
0000
0100
0000
,
0000
0000
0001
0000
0000
0010
0000
0000
0100
0000
0000
1000
0000
0000
0010
0000
,
0000
0000
0001
0000
0000
0010
0000
0000
1000
0000
0000
0100
0000
0000
0010
0001
,
0000
0000
0010
0000
0000
0001
0000
0000
0100
0000
0000
0001
0000
1000
0100
1000
,
0000
0000
0010
0000
0000
1000
0000
0000
0001
0000
0000
0010
0000
0000
0100
0010
,
0000
0000
0001
0000
0000
0010
0000
0000
1000
0000
0000
0100
0000
0010
0100
0010
,
0000
0000
0001
0000
0000
1000
0000
0000
0001
0000
0000
0010
0000
0000
0100
0001
,
0000
0000
0100
0000
0000
1000
0000
0000
1000
0000
0000
0100
0000
0001
0010
0001
,
0000
0000
0001
0000
0000
0010
0000
0000
1000
0000
0000
0100
0000
0000
0001
0010
,
0000
0000
1000
0000
0000
0100
0000
0000
0010
0000
0000
0001
1000
0000
0100
0000
,
0001
0000
0100
0000
0010
1000
0000
0001
0000
0000
0100
0000
0001
0010
0000
0000
,
0100
0000
1000
0000
0010
0100
0000
0001
0000
0000
1000
0000
1100
0000
0000
0000
,
1000
0000
0010
0000
0100
0001
0000
1000
0000
0000
0010
0000
1000
0100
0000
0000
,
0010
0000
0001
0000
0100
0010
0000
1000
0000
0000
0001
0000
0011
0000
0000
0000
,
1000
0000
0010
0000
0100
0001
0000
1000
0000
0000
0010
0000
1000
0100
0000
0010
,
0001
0000
1000
0000
0010
0100
0000
0001
0000
0000
0100
0000
1001
0000
0000
0000
,
0001
0000
0100
0000
0010
1000
0000
0001
0000
0000
0100
0000
0001
0010
0000
0100
,
1000
0000
0001
0000
0100
0010
0000
1000
0000
0000
0010
0000
1001
0000
0000
0000
,
1000
0000
0010
0000
0000
0100
0000
0000
0001
0000
0000
0010
0000
0000
0100
1000
,
0000
0000
0100
0000
0000
1000
0000
0000
0010
0000
0000
1000
0000
0001
0010
0001
,
0010
0000
0100
0000
1000
0001
0000
1000
0000
0000
0010
0000
1000
0100
0000
0000
,
0010
0000
0001
0000
0100
0010
0000
1000
0000
0000
0001
0000
0110
0000
0000
0000
,
0001
0000
0100
0000
0000
0010
0000
0000
1000
0000
0000
0100
0000
0000
0010
0001
,
0000
0000
0010
0000
0000
0001
0000
0000
0100
0000
0000
0001
0000
1000
0100
1000
,
0100
0000
0010
0000
0001
1000
0000
0001
0000
0000
0100
0000
0001
0010
0000
0000
,
0100
0000
1000
0000
0010
0100
0000
0001
0000
0000
1000
0000
0110
0000
0000
0000
,
1001
0000
0000
0000
;

//---------------dance-double - ----------------
#NOTES:
     dance-double:
     :
     Beginner:
     1:
     :
00000000
00000000
00000000
00000000
,
00000000
00000000
00000000
00000000
,
00000000
00000000
00000000
00000000
,
00000000
00000000
00000000
00000000
,
00000000
00000000
00000000
00000000
,
10000000
00000000
00000000
00000000
,
00100000
00000000
00000000
00000000
,
00001000
00000000
00000000
00000000
,
00000010
00000000
00000010
00000000
,
00000001
00000000
00000000
00000000
,
00000100
00000000
00000000
00000000
,
00001000
00000000
00000000
00000000
,
00010000
00000000
00010000
00000000
,
00100000
00000000
00000000
00000000
,
10000000
00000000
10000000
00000000
,
00100000
00000000
00000000
00000000
,
01000000
00000000
01000000
00000000
,
00001000
00000000
00000000
00000000
,
00010000
00000000
00010000
00000000
,
00001000
00000000
00000000
00000000
,
00000100
00000000
00000100
00000000
,
00000001
00000000
00000100
00000000
,
00001000
00000000
00010000
00000000
,
00100000
00000000
10000000
00000000
,
01000000
00000000
00010000
00000000
,
00001000
00000000
00000010
00000000
,
00000100
00000000
00000001
00000000
,
00000001
00000000
00000010
00000000
,
00001000
00000000
00010000
00000000
,
01000000
00000000
10000000
00000000
,
00100000
00000000
00010000
00000000
,
00001000
00000000
00000100
00000000
,
00000010
00000000
00000001
00000000
,
00000001
00000000
00000010
00000000
,
00001000
00000000
00000000
00000000
,
00000100
00000000
00010000
00000000
,
01000000
00000000
00000000
00000000
,
10000000
00000000
01000000
00000000
,
00010000
00000000
00000000
00000000
,
00100000
00000000
00100000
00000000
,
00010000
00000000
00000000
00000000
,
00000100
00000000
00000001
00000000
,
00001000
00000000
00000000
00000000
,
00000100
00000000
00010000
00000000
,
00001000
00000000
00000000
00000000
,
00010000
00000000
01000000
00000000
,
10000000
00000000
00000000
00000000
,
01000000
00000000
00010000
00000000
,
00001000
00000000
00000000
00000000
,
00000100
00000000
00000000
00000000
,
00000001
00000000
00000000
00000000
,
00000010
00000000
00000000
00000000
,
00001000
00000000
00000000
00000000
,
00010000
00000000
00000000
00000000
;

//---------------dance-double - ----------------
#NOTES:
     dance-double:
     :
     Easy:
     4:
     :
00000000
00000000
00000000
00000000
,
00000000
00000000
00000000
00000000
,
00000000
00000000
00000000
00000000
,
00000000
00000000
00000000
00000000
,
00000000
00000000
00000000
00000000
,
10000000
00000000
00010000
00000000
,
00200000
00320000
00032000
00003200
,
00000000
00000000
00000000
00000300
,
00000001
00000000
00000010
00000100
,
00001000
00000000
00010000
00000000
,
00100000
00000000
01000000
00000000
,
10000000
01000000
00100000
00000000
,
10000000
00000000
01000000
00100000
,
00010000
00000000
00001000
00000000
,
00000100
00000000
00000010
00000000
,
00000001
00000010
00000100
00000000
,
00001000
00000000
00010000
00000000
,
00001000
00010000
01000000
00000000
,
10000000
00000000
00100000
00000000
,
01000000
00010000
00001000
00000000
,
00010000
00000000
00001000
00000000
,
00000010
00000001
00000100
00000000
,
00001100
00000000
00010000
00000000
,
00100000
10000000
01000000
00000000
,
00100000
00000000
10010000
00000000
,
01000000
10000000
00100000
00000000
,
00110000
00000000
00001000
00000000
,
00000100
00000001
00000010
00000000
,
00000100
00000000
00001001
00000000
,
00000010
00000001
00000010
00000000
,
00001000
00000000
00010000
00000000
,
00100000
10000000
00100000
00000000
,
01000000
00010000
00001000
00000000
,
00000100
00001000
00000001
00000000
,
00000100
00000000
00010000
00000000
,
01000000
00010000
10000000
00000000
,
01000000
00010000
00001000
00000000
,
00000110
00000000
00000001
00000100
,
00000010
00000000
00001000
00000000
,
00011000
00000000
00100000
00000000
,
00010000
10000000
01000000
00000000
,
10010000
00000000
10000000
00100000
,
01000000
00000000
00010000
00000000
,
00011000
00000000
00000100
00000000
,
00001000
00000001
00000010
00000000
,
00000200
00000000
00010300
00000000
,
00001000
00000000
00100000
00010000
,
20000000
00000000
30100000
00000000
,
00020000
00000000
01030000
00000000
,
00200000
00000000
00301000
00000000
,
00010000
00000000
00000100
00001000
,
00000002
00000000
00000103
00000000
,
00002000
00000000
00003010
00000000
,
00000110
00000000
00000000
00000000
;

//---------------dance-double - ----------------
#NOTES:
     dance-double:
     :
     Medium:
     6:
     :
00000000
00000000
00000000
00000000
,
00000000
00000000
00000000
00000000
,
00000000
00000000
00000000
00000000
,
00000000
00000000
00000000
00000000
,
00000000
00000000
00000000
00000000
,
10000000
00010000
00100000
00000000
10000000
00000000
10010000
00000000
,
00100000
00001000
00010000
00000000
00001000
00000000
00001010
00000000
,
00000001
00000000
00000010
00000000
00000100
00010000
00001000
00000000
,
00100000
00010000
10010000
00000000
,
00010000
00000000
00100000
00000000
10000000
00100000
01000000
00000000
,
00100000
00010000
00001000
00001100
,
00000001
00000000
00000010
00000000
00000100
00010000
00001000
00000000
,
01000000
00010000
10010000
00000000
,
00100000
11000000
01000000
00110000
,
00001000
00010000
00000010
00000000
00000001
00000010
00000100
00000000
,
00000100
00000011
00000010
00001100
,
00010000
00001000
01000000
00000000
10000000
01000000
00100000
00000000
,
10000000
00100000
00010000
00011000
,
00001000
00010000
00001000
00000000
00001010
00000000
00000001
00000000
,
00000001
00000100
00001000
00011000
,
00010000
00001000
00010000
00000000
01010000
00000000
10000000
00000000
,
00100000
00000000
00000000
10000000
00000000
00000000
00010000
00000000
00100000
00000000
00000000
00000000
00001000
00000000
00000000
00000000
,
00010000
00000100
00000010
00001000
,
00000100
00000000
00000000
00000001
00000000
00000000
00001000
00000000
00000100
00000000
00000000
00000000
00010000
00000000
00000000
00000000
,
00001000
00000000
00100000
00000000
00001000
01000000
00010000
00000000
,
01000000
00000000
00000000
00010000
00000000
00000000
10000000
00000000
00100000
00000000
00000000
00000000
01100000
00000000
00000000
00000000
,
00001000
00000000
00000000
00010000
00000000
00000000
00000010
00000000
00000100
00000000
00000000
00000000
00001001
00000000
00000000
00000000
,
00000010
00000000
00000000
00001000
00000000
00000000
00000001
00000000
00000100
00000000
00000000
00000000
00000110
00000000
00000000
00000000
,
00010000
00000000
00000000
00001000
00000000
00000000
01000000
00000000
00100000
00000000
00000000
00000000
10010000
00000000
00000000
00000000
,
00010000
01000000
00001000
00000000
00011000
00000000
00000100
00000000
,
00000010
00000001
00001000
00000000
00000011
00000000
00000100
00000000
,
00001000
00000010
00010000
00000000
00011000
00000000
00100000
00000000
,
01000000
10000000
00010000
00000000
11000000
00000000
00100000
01000000
,
00010000
01000000
00001000
00000000
00011000
00000000
00000100
00000000
,
00000010
00000001
00001000
00000000
00000011
00000000
00000100
00000000
,
00001000
00000010
00010000
00000000
00011000
00000000
00100000
00000000
,
01000000
10000000
00010000
02000000
00000000
00000000
03100000
00000000
,
10000000
00010000
00100000
00000000
00001000
01000000
00001000
00000000
,
00010000
00001000
00000010
00000100
00002000
00000000
00003001
00000000
,
00000001
00001000
00000100
00000000
00010000
00000010
00010000
00000000
,
00001000
00010000
01000000
00100000
00020000
00000000
10030000
00000000
,
01000000
11000000
00100000
00110000
,
00001000
00011000
00000010
00000011
,
00000010
00000011
00000100
00001100
,
00010000
00011000
01000000
11000000
,
10000000
00000000
00100000
00000000
01000000
00001000
00010000
00010000
,
00000000
00010000
00000100
00000000
00000010
00000001
00001000
00000000
,
00000001
00000000
00000100
00000000
00000010
00010000
00001000
00001000
,
00000000
00001000
00100000
00000000
01000000
00000000
10010000
00000000
,
10000000
00000000
00010000
01000000
00000000
00000000
00001000
00000000
00020000
00000000
00000000
00000000
00030000
00000000
00000000
00000000
,
00001000
00000011
00001010
00001001
,
00000001
00000000
00001000
00000010
00000000
00000000
00010000
00000000
00002000
00000000
00000000
00000000
00000000
00000000
00000000
00000000
,
00013000
11000000
01010000
01100000
,
10010000
00000000
00000000
00000000
;

//---------------dance-double - ----------------
#NOTES:
     dance-double:
     :
     Hard:
     8:
     :
00000000
00000000
00000000
00000000
,
00000000
00000000
00000000
00000000
,
00000000
00000000
00000000
00000000
,
00000000
00000000
00000000
00000000
,
00000000
00000000
00000000
00000000
,
10000000
00010000
00100000
01000000
10000000
00000000
01010000
00000000
,
00100000
00001000
00010000
00001000
00010000
00000000
00001010
00000000
,
00000001
00000010
00000100
00001000
00000100
00000000
00011000
00000000
,
00100000
00010000
10000000
02000000
00000000
00000000
03010000
00000000
,
10000000
01000000
00010000
01000000
00010000
00000000
00010000
00001000
,
00010000
00001000
00000020
00000000
00000130
00000000
00001100
00000000
,
00000001
00000010
00000100
00000000
00000100
00010000
00001000
00000000
,
00001000
01000000
00010000
20000000
00000000
00000000
30010000
00000000
,
00100000
00001000
00010000
00000000
00011000
00000000
00000010
00001000
,
00000100
00000000
00000011
00000000
00000100
00000001
00000010
00000000
,
00001100
00000000
00010000
00001000
00100000
00000000
01100000
00000000
,
10000000
01000000
00100000
00002000
00000000
00000000
00013000
00000000
,
00000100
00010000
00001000
00000000
00011000
00000000
01000000
00010000
,
00100000
00000000
11000000
00000000
00100000
10000000
01000000
00000000
,
00110000
00000000
00001000
00010000
00000100
00000000
00000110
00000000
,
00000001
00000010
00000100
00001000
00000100
00000010
00000001
00000000
,
00000100
00000001
00000010
00000000
00000100
00010000
00001000
00000000
,
00100000
00000000
00001000
00000000
01000000
00000000
00000000
00010000
00000000
00000000
10000000
00000000
11000000
00000000
00000000
00000000
,
00100000
00001000
00010000
00000000
00000010
00010000
00001000
00000000
,
00000010
00000000
00001000
00000000
00000001
00000000
00000000
00000100
00000000
00000000
00000010
00000000
00000110
00000000
00000000
00000000
,
00000100
00000000
00000001
00000000
00000010
00000000
00000000
00000100
00000000
00000000
00010000
00000000
00011000
00000000
00000000
00000000
,
00100000
00000000
00001000
00000000
01000000
00000000
00000000
00010000
00000000
00000000
10000000
00000000
11000000
00000000
00000000
00000000
,
00100000
00000000
00001000
00000000
01000000
00000000
00000000
00001000
00000000
00000000
00010000
00000000
00000010
00000000
00000000
00000000
,
00000100
00000000
00001000
00000000
00000010
00000000
00000000
00000001
00000000
00000000
00000010
00000000
00000110
00000000
00000000
00000000
,
00001000
00000000
00000010
00000000
00020000
00000000
00000000
00031000
00000000
00000000
00100000
00000000
00020000
00000000
00000000
10030000
,
00000000
00000000
01000000
00000000
00200000
00000000
00000000
00310000
00000000
00000000
10000000
00000000
01010000
00000000
00000000
00000000
,
00010000
00000000
01000000
00000000
00002000
00000000
00000000
00013000
00000000
00000000
00000100
00000000
00002000
00000000
00000000
00003001
,
00000000
00000000
00000010
00000000
00000200
00000000
00000000
00001300
00000000
00000000
00000001
00000000
00001010
00000000
00000000
00000000
,
00000002
00000000
00000000
00000013
00000000
00000000
00000100
00000000
00010000
00000000
00001000
00000000
00010000
00000000
01000000
00000000
,
20000000
00000000
00000000
30100000
00000000
00000000
01000000
00000000
00010000
00000000
00100000
00000000
10100000
00000000
00000000
00000000
,
20000000
00000000
00000000
31000000
00000000
00000000
00100000
00000000
00001000
00000000
00010000
00000000
00001000
00000000
00000010
00000000
,
00000002
00000000
00000000
00000103
00000000
00000000
00000010
00000000
00001000
00000000
00000100
00000000
00000101
00000000
00000000
00000000
,
00000001
00000000
00001000
00000000
00000100
00010000
00000000
00000010
00000000
00000000
00010000
00000000
00001000
00000000
01000000
00000000
,
00100000
00000000
10000000
00000000
00000000
10000000
00000000
00000000
01000000
00000000
00100000
00000000
00010000
01000000
00000000
00000000
,
10000000
00000000
00010000
00000000
00100000
00001000
00000000
01000000
00000000
00000000
00001000
00000000
00010000
00000000
00000010
00000000
,
00000100
00000000
00000001
00000000
00000000
00000001
00000000
00000000
00000010
00000000
00000100
00000000
00001000
00000010
00000000
00000000
,
00001000
00000000
00000010
00010000
00000000
00000000
00000100
00000000
00010000
00000000
00001000
00000000
01000000
00000000
00010000
00000000
,
00100000
00000000
00010000
10000000
00000000
00000000
10000000
00000000
00100000
00000000
00010000
01000000
00000000
00000000
10000000
00000000
,
00010000
00000000
01000000
00001000
00000000
00000000
00100000
00000000
00001000
00000000
00010000
00000000
00000010
00000000
00001000
00000000
,
00000100
00000000
00001000
00000001
00000000
00000000
00000001
00000000
00000100
00000000
00001000
00000010
00000000
00000000
00000001
00000000
,
00000100
00000000
00000001
00000010
00000000
00000010
00000000
00000000
00000100
00000000
00010000
00000000
00001000
00000000
00100000
00000000
,
00010000
00000000
10000000
01000000
00000000
00000000
00100000
00000000
01000000
00000000
10000000
00010000
00000000
00000000
01000000
00000000
,
00100000
00000000
10000000
01000000
00000000
01000000
00000000
00000000
00100000
00000000
00001000
00000000
00010000
00000000
00000100
00000000
,
00001000
00000000
00000001
00000010
00000000
00000000
00000100
00000000
00000010
00000000
00000001
00001000
00000000
00000000
00000010
00000000
,
00000001
00000000
00001000
00000010
00000000
00000000
00010000
00000000
00001000
00000000
01000000
00010000
00000000
00100000
00000000
00010000
,
00000000
10000000
00000000
00010000
01000000
00000000
00001000
00000000
00010000
00000000
00000010
00001000
00000000
00000000
00000100
00000000
,
00000001
00000000
00001000
00000100
00000000
00000000
00010000
00000000
00001000
00000000
00100000
00010000
00000000
01000000
00000000
00010000
,
00000000
10000000
00000000
00010000
00100000
00000000
00001000
00000000
00010000
00000000
00000100
00001000
00000000
00000000
00000010
00000000
,
00000101
00000000
00000000
00000000
;
