#TITLE:Contra (Medley Mix);
#ARTIST:NEKOJIRA;
#BANNER:Contra (Medley Mix).png;
#BACKGROUND:Contra (Medley Mix)-bg.png;
#CDTITLE:./CDTITLES/DanceDanceRevolution UNIVERSE2.png;
#MUSIC:Contra (Medley Mix).ogg;
#SAMPLESTART:16;
#SAMPLELENGTH:15;
#DISPLAYBPM:150;
#BPMS:0=150,256=128.57,264=114.3;

//---------------dance-single - ----------------
#NOTES:
     dance-single:
     :
     Beginner:
     1:
     :
0000
0000
0000
0000
,
0000
0000
0000
0000
,
0000
0000
0000
0000
,
0000
0000
0000
0000
,
0100
0000
0000
0000
,
0010
0000
0000
0000
,
0001
0000
0000
0000
,
0001
0000
0000
0000
,
0100
0000
0000
0000
,
0010
0000
0000
0000
,
1000
0000
1000
0000
,
0001
0000
0001
0000
,
1000
0000
0001
0000
,
0010
0000
0100
0000
,
1000
0000
0001
0000
,
0010
0000
1000
0000
,
0100
0000
1000
0000
,
0100
0000
0001
0000
,
1000
0000
0010
0000
,
0100
0000
0001
0000
,
0010
0000
0001
0000
,
0100
0000
1000
0000
,
0001
0000
0010
0000
,
1000
0000
0000
0000
,
0001
0000
0000
0000
,
0001
0000
0000
0000
,
1000
0000
0000
0000
,
0010
0000
0000
0000
,
0100
0000
0000
0000
,
0100
0000
0000
0000
,
0010
0000
0110
0000
,
0000
0000
0000
0000
,
0000
0000
0000
0000
,
0000
0000
0000
0000
,
1000
1000
0000
0000
,
0001
0001
0000
0000
,
0100
0100
0000
0000
,
0010
0010
0000
0000
,
0010
0000
0100
0000
,
0100
0000
0010
0000
,
0001
0000
1000
0000
,
1000
0000
0001
0000
,
1001
0000
0010
0000
,
1001
0000
0100
0000
,
0110
0000
0001
0000
,
0110
0000
1000
0000
,
0010
0001
0000
0000
,
0001
0100
0000
0000
,
0100
1000
0000
0000
,
1000
0010
0000
0000
,
0010
0000
0100
0000
,
0001
0000
1000
0000
,
0100
0000
0010
0000
,
0001
0000
1000
0000
,
0100
0000
0100
0000
,
0010
0000
0010
0000
,
0001
0000
1000
0000
,
0001
0000
1000
0000
,
0010
0000
0010
0000
,
0100
0000
0100
0000
,
1000
0000
0001
0000
,
1000
0000
0001
0000
,
1001
0000
0000
0000
,
0000
0000
0000
0000
,
1000
0000
0001
0000
,
1001
0000
0000
0000
;

//---------------dance-single - ----------------
#NOTES:
     dance-single:
     :
     Easy:
     3:
     :
0000
0000
0000
0000
,
0000
0000
0000
0000
,
0000
0000
0000
0000
,
0000
0000
0000
0000
,
0100
0000
0001
1000
,
0010
0000
1000
0001
,
0001
0000
0010
1000
,
0001
0000
0100
1000
,
0100
0000
0001
0010
,
0010
0100
1000
0001
,
1000
0010
1000
0000
,
0001
0100
0001
0000
,
1000
0100
0001
0000
,
0010
1000
0100
1001
,
1000
0100
0010
0001
,
0010
1000
0010
1000
,
0100
0000
0100
0000
,
0100
0001
0100
0001
,
1000
0001
0010
1000
,
0001
0100
0001
0010
,
1000
0100
0001
0010
,
0100
1000
0100
1000
,
0001
1000
0010
1001
,
1000
1000
0000
0010
,
0001
0001
0000
0100
,
0001
1000
0000
0010
,
1000
0001
0000
0100
,
0010
0010
1000
0001
,
0100
0100
0010
0001
,
0010
0100
0010
1000
,
1001
0000
1001
2000
,
0000
0000
0000
0000
,
0000
3002
0000
0000
,
0000
0000
0000
0003
,
1000
1000
0010
0000
,
0001
0001
0010
0000
,
0100
0100
0001
0000
,
0010
0010
1000
0000
,
0010
1000
0100
1000
,
0100
1000
0010
0001
,
0001
0100
1000
0100
,
1000
0100
0010
0001
,
1001
0000
0010
0100
,
1001
0000
0100
0001
,
0110
0000
0001
1000
,
0110
0000
1000
0110
,
0010
0000
0010
0001
,
0100
0000
1000
1000
,
0100
0000
1000
0001
,
1000
0000
0010
0001
,
0010
1000
0100
0000
,
0010
0001
1000
0000
,
0100
0010
0001
0000
,
0100
0010
1000
0000
,
0010
0001
0010
0000
,
0100
1000
0100
0000
,
0001
0000
1000
0000
,
0001
1000
0010
0100
,
0100
0001
0010
1000
,
0001
1000
0001
1000
,
0010
0010
0100
0100
,
1000
0001
1000
0001
,
2002
0000
0000
0000
,
0000
0000
0000
3003
,
1000
0000
0001
0100
,
2002
0000
0000
3003
;

//---------------dance-single - ----------------
#NOTES:
     dance-single:
     :
     Medium:
     6:
     :
0000
0000
0000
0000
,
0000
0000
0000
0000
,
0000
0000
0000
0000
,
0000
0000
0000
0000
,
0200
0000
0301
1000
,
0020
0000
1030
0001
,
2000
0000
3010
1000
,
0002
0000
0103
1000
,
0200
0000
0301
0010
,
0002
0000
1003
0001
,
0001
1000
0010
0000
1000
0001
0000
0100
,
0001
0100
0010
0000
1000
0010
1000
0001
,
1000
0001
0100
0000
0001
1000
0000
0010
,
0010
0010
1000
0000
0110
0000
1001
0000
,
1000
0100
0010
0001
0010
0100
2000
0000
,
3010
0000
1000
0001
0010
0000
0001
1000
,
0100
0000
0001
0000
0100
0000
1000
0010
,
0100
0000
0001
0100
0001
0000
1000
0001
,
0010
0000
0001
0010
0010
0000
1000
0001
,
0001
0100
1000
0000
1000
0010
0001
0010
,
0200
0000
0010
0000
0001
0000
0010
0300
,
0010
0000
0001
0010
0001
0000
1000
0001
,
0100
0000
0001
0100
1001
0000
0110
0000
,
0001
0000
0001
0000
0001
0000
0000
0010
,
1000
0000
1000
0000
1000
0000
0000
0100
,
0001
0000
1000
0000
0001
0000
0000
1000
,
0100
0000
0010
0000
1000
0001
0010
0000
,
0010
0000
0010
0000
0010
0000
0001
1000
,
0100
0000
0100
0000
0100
0000
0010
0001
,
0010
0100
0010
1000
,
2001
0000
0000
3000
1002
0000
2000
0003
,
0000
0000
0000
0000
,
0000
3002
0000
0000
,
0000
0000
0000
0003
,
1000
0001
0010
0000
,
0001
1000
0010
0000
,
0100
0010
0001
0000
,
0010
0100
1000
0001
,
0010
0001
1000
0000
0100
0000
0001
0000
,
0100
0001
1000
0000
0010
0000
0001
0000
,
0100
1000
0001
0000
0010
0000
1000
0000
,
0010
1000
0001
0000
0110
0000
1100
0000
,
1001
0002
0000
0000
1003
0100
0010
0000
,
1001
2000
0000
0000
3100
0010
0001
0000
,
0011
0020
0000
0000
0031
0100
1000
0000
,
1100
0200
0000
0300
1001
0000
0110
0000
,
0010
1000
0100
0000
0010
0100
0010
0000
,
0010
0001
0100
0000
0100
1000
0010
0000
,
0100
0001
0010
0000
0100
0010
0100
0000
,
0100
1000
0010
0000
0010
0001
0100
0000
,
0010
0000
0100
0010
0100
0000
0100
0000
,
0010
0000
0001
0010
0100
0000
0001
0000
,
1000
0000
0001
1000
0010
0000
0100
0000
,
0010
0000
1000
0010
1001
0000
1001
0000
,
0100
0000
1000
0100
0010
0000
1000
0001
,
0100
0000
0010
0100
0001
0000
1000
0100
,
1000
0000
0001
1000
0010
0000
0100
0010
,
0001
0000
1000
0001
0100
0000
0010
0100
,
0100
0010
0001
0100
0010
1000
0010
0000
,
0001
0100
1000
0100
0001
0010
1000
0000
,
0010
0100
1000
0010
0100
0001
0100
0000
,
1001
0110
0011
1100
,
2000
0000
0000
0000
,
3002
0000
0000
0000
,
1003
0000
0000
0001
0000
0100
0000
0000
,
2002
0000
0000
0000
0000
0000
0000
3003
;

//---------------dance-single - ----------------
#NOTES:
     dance-single:
     :
     Hard:
     8:
     :
0000
0000
0000
0000
,
0000
0000
0000
0000
,
0000
0000
0000
0000
,
0000
0000
0000
0000
,
2000
0000
0000
0000
0000
0000
0000
0000
0000
0000
3100
0000
0001
0100
0000
1000
,
0200
0000
0000
0000
1000
0000
0000
0000
0010
0000
0000
0000
1000
0000
0000
0300
,
0002
0000
0000
0000
0000
0000
0000
0000
0000
0000
1003
0000
0100
1000
0000
0001
,
0020
0000
0000
0000
0001
0000
0000
0000
0100
0000
0000
0000
0001
0000
0000
0030
,
0200
0000
0000
0000
1000
0000
0000
0000
0010
0000
0000
0000
1300
0000
0000
0001
,
0010
0010
1000
0000
0001
0010
0100
1000
,
1001
0000
1000
0000
0000
0100
0000
0000
1001
0000
0001
0000
0010
0000
0010
0000
,
0110
0000
0100
0000
0000
0010
0000
0000
1000
0000
0100
0000
0001
0010
0000
0000
,
1000
0000
0100
0000
0000
0001
0000
0000
0001
0000
0100
0000
0000
1000
0000
0000
,
0100
0000
0010
0000
0000
0001
0000
0000
1001
0000
0000
0000
0110
0000
0000
0000
,
0010
0001
0100
1000
0010
0001
0100
1000
,
0001
0000
0000
0000
0001
0010
0000
0100
1000
0000
0100
0000
0001
1000
0000
0100
,
0010
0000
0000
0000
1000
0000
0010
0000
0001
0000
0000
1000
0001
0000
0000
0000
,
0100
0000
0000
0000
0001
1000
0000
0000
0100
0000
0000
0000
1000
0010
0000
0000
,
1000
0000
0000
0000
0001
1000
0000
0000
0001
0010
0000
0000
0001
0000
1000
0000
,
0001
0010
1000
0000
1000
0100
0001
1000
,
0001
0010
0001
0100
0010
1000
0100
0000
,
0100
0000
0000
0000
1000
0001
0000
0000
0100
0000
0000
0000
0001
0010
0000
0000
,
0001
0000
0001
0000
1000
0001
0000
0000
1100
0000
0000
0000
0011
0000
0000
0000
,
1000
1000
0001
0000
1000
0010
0001
0010
,
0001
0100
1000
0000
0001
0010
0100
1000
,
0001
0001
1000
0000
0001
0100
1000
0100
,
1000
0010
0001
1000
1000
0010
0001
0100
,
1000
0001
0010
1000
0010
0001
0100
0000
,
0100
0100
1000
0100
0100
0010
0001
1000
,
0001
1000
0010
0001
0010
1000
0100
0000
,
1000
0001
1000
0000
0000
0000
0001
1000
0001
0000
0000
0000
2000
0000
0000
0000
,
0000
3200
0000
0320
,
0000
0032
0000
0203
,
0000
2300
0000
3020
,
1030
1000
0001
0000
1000
0010
0001
0010
,
1000
0100
0001
0000
0100
0010
0001
0100
,
0001
0001
1000
0000
0001
0100
1000
0100
,
0001
0010
1000
0000
1010
0000
0101
0000
,
1000
0100
1000
0100
0010
0100
1000
0001
,
1000
0100
1000
0001
0010
0100
0001
1000
,
0001
0100
0001
0100
0010
0100
0001
1000
,
0001
0010
0001
1000
0100
0010
1000
0001
,
1010
0000
0000
0101
0000
0000
0100
0000
1000
0000
0010
0000
0001
0000
0000
0000
,
1100
0000
0000
0011
0000
0000
0010
0000
0001
0000
0010
0000
1000
0000
0000
0000
,
1001
0000
0000
0101
0000
0000
0100
0000
0010
0000
0100
0000
0001
0000
1000
0000
,
1100
0000
0000
0110
0000
0000
0000
0000
0012
0000
0000
0003
1200
0000
0000
0300
,
0010
0000
0010
0000
1000
0000
0100
0000
0010
0000
0000
0001
0000
0000
1000
0000
,
0100
0000
1000
0000
0010
0000
0100
0000
1000
0000
0000
0010
0000
0000
0001
0000
,
0010
0000
0001
0000
0100
0000
1000
0000
0010
0000
0000
1000
0000
0000
0001
0000
,
0100
0000
0001
0000
0010
0000
1000
0000
0100
0000
0000
1000
0000
0000
0001
0000
,
0010
0000
1000
0000
0001
0000
1000
0000
0100
0000
0000
1000
0000
0000
0001
0000
,
0010
0000
0001
0000
1000
0000
0001
0000
0100
0000
0000
0001
0000
0000
0010
0000
,
0100
0000
0001
0000
1000
0000
0001
0000
0010
0000
0000
0001
0000
0000
1000
0000
,
0100
0000
1000
0000
0001
0000
1000
0000
1010
0000
0000
1001
0000
0000
0101
0000
,
0020
0001
0000
0100
0000
0001
0000
0100
,
0230
1000
0000
0010
0000
1000
0000
0010
,
2300
0010
0000
0001
0000
0100
0000
0001
,
3002
0100
0000
1000
0000
0010
0000
0100
,
0103
0010
0001
0010
1000
0010
0100
0010
,
0010
0001
0100
0001
0100
1000
0001
0010
,
0010
0010
0100
0100
1000
0001
1000
0001
,
1000
0001
1000
0001
0100
0100
0010
0010
,
2000
0000
3200
0000
,
0320
0000
0032
0000
,
1003
1000
0000
0001
0001
0100
0100
0000
,
0010
2002
0000
0000
0000
0000
0000
3003
;

//---------------dance-double - ----------------
#NOTES:
     dance-double:
     :
     Beginner:
     1:
     :
00000000
00000000
00000000
00000000
,
00000000
00000000
00000000
00000000
,
00000000
00000000
00000000
00000000
,
00000000
00000000
00000000
00000000
,
01000000
00000000
00000000
00000000
,
00100000
00000000
00000000
00000000
,
00010000
00000000
00000000
00000000
,
00001000
00000000
00000000
00000000
,
00000100
00000000
00000000
00000000
,
00000010
00000000
00000000
00000000
,
00001000
00000000
00010000
00000000
,
00010000
00000000
00001000
00000000
,
00010000
00000000
00010000
00000000
,
00100000
00000000
01000000
00000000
,
00100000
00000000
00010000
00000000
,
00001000
00000000
00000010
00000000
,
00000100
00000000
00001000
00000000
,
00000100
00000000
00000001
00000000
,
00001000
00000000
00010000
00000000
,
00001000
00000000
00001000
00000000
,
00000010
00000000
00000001
00000000
,
00000100
00000000
00001000
00000000
,
00010000
00000000
00100000
00000000
,
10000000
00000000
00000000
00000000
,
00100000
00000000
00000000
00000000
,
00010000
00000000
00000000
00000000
,
00001000
00000000
00000000
00000000
,
00000010
00000000
00000000
00000000
,
00000100
00000000
00000000
00000000
,
00000100
00000000
00000000
00000000
,
00001000
00000000
00011000
00000000
,
00000000
00000000
00000000
00000000
,
00000000
00000000
00000000
00000000
,
00000000
00000000
00000000
00000000
,
00001000
00001000
00000000
00000000
,
00010000
00010000
00000000
00000000
,
01000000
01000000
00000000
00000000
,
00100000
00100000
00000000
00000000
,
00100000
00000000
01000000
00000000
,
01000000
00000000
00100000
00000000
,
00010000
00000000
00001000
00000000
,
00001000
00000000
00000001
00000000
,
00001001
00000000
00000010
00000000
,
00001001
00000000
00000100
00000000
,
00000110
00000000
00001000
00000000
,
00011000
00000000
00100000
01000000
,
00100000
00010000
00000000
00000000
,
00010000
01000000
00000000
00000000
,
01000000
10000000
00000000
00000000
,
10000000
00100000
00000000
00000000
,
00010000
00000000
00001000
00000000
,
00001000
00000000
00000010
00000000
,
00000100
00000000
00000010
00000000
,
00000001
00000000
00001000
00000000
,
00000100
00000000
00000100
00000000
,
00000010
00000000
00000010
00000000
,
00000001
00000000
00001000
00000000
,
00010000
00000000
00001000
00000000
,
00000010
00000000
00000010
00000000
,
00000100
00000000
00000100
00000000
,
00001000
00000000
00010000
00000000
,
00001000
00000000
00010000
00000000
,
00011000
00000000
00000000
00000000
,
00000000
00000000
00000000
00000000
,
00010000
00000000
10000000
00000000
,
10010000
00000000
00000000
00000000
;

//---------------dance-double - ----------------
#NOTES:
     dance-double:
     :
     Easy:
     3:
     :
00000000
00000000
00000000
00000000
,
00000000
00000000
00000000
00000000
,
00000000
00000000
00000000
00000000
,
00000000
00000000
00000000
00000000
,
01000000
00000000
00010000
00001000
,
00000010
00000000
00001000
00000001
,
00000001
00000000
00000010
00001000
,
00000001
00000000
00000100
00001000
,
00000100
00000000
00001000
00010000
,
00100000
01000000
10000000
00010000
,
10000000
00100000
10000000
00000000
,
00010000
01000000
00010000
00000000
,
00001000
00000100
00001000
00000000
,
00000010
00001000
00000100
00011000
,
00001000
00000100
00000010
00000001
,
00000010
00001000
00010000
00100000
,
01000000
00000000
01000000
00000000
,
01000000
00010000
01000000
00010000
,
10000000
00010000
00100000
10000000
,
00010000
00001000
00000001
00000010
,
00001000
00000100
00000001
00000010
,
00000100
00001000
00000100
00001000
,
00000001
00001000
00000010
00011000
,
00100000
10000000
00000000
00100000
,
00010000
00010000
00000000
01000000
,
00010000
00001000
00000000
00000100
,
00000001
00000100
00000000
00000100
,
00000010
00000010
00001000
00000001
,
00000100
00000100
00001000
00010000
,
00100000
01000000
00100000
00010000
,
00011000
00000000
00011000
00020000
,
00000000
00000000
00000000
00000000
,
00000000
00032000
00000000
00000000
,
00000000
00000000
00000000
00000000
,
00003000
00001000
00000010
00000000
,
00000001
00000001
00000010
00000000
,
00000100
00000010
00001000
00000000
,
00000010
00000100
00001000
00000000
,
00100000
10000000
01000000
10000000
,
01000000
10000000
00100000
00010000
,
00010000
01000000
10000000
01000000
,
10000000
01000000
00100000
00010000
,
00011000
00000000
00000010
00000100
,
00001001
00000000
00000100
00000001
,
00000110
00000000
00000001
00001000
,
00000110
00000000
00001000
00000110
,
00000010
00000000
00000010
00001000
,
00010000
00000000
00100000
10000000
,
01000000
00000000
10000000
00010000
,
10000000
00000000
00100000
00010000
,
00001000
00000010
00000100
00000000
,
00000010
00000001
00001000
00000000
,
00000100
00000010
00000001
00000000
,
00000100
00000010
00001000
00000000
,
00000010
00000001
00000010
00000000
,
00000100
00001000
00010000
00000000
,
00010000
00000000
10000000
00000000
,
00010000
10000000
00100000
01000000
,
01000000
00010000
00100000
10000000
,
00010000
10000000
00010000
00001000
,
00000010
00000010
00000100
00000100
,
00001000
00010000
00001000
00010000
,
00022000
00000000
00000000
00000000
,
00000000
00000000
00000000
00033000
,
10000000
00000000
00010000
00001000
,
00002002
00000000
00000000
00003003
;

//---------------dance-double - ----------------
#NOTES:
     dance-double:
     :
     Medium:
     6:
     :
00000000
00000000
00000000
00000000
,
00000000
00000000
00000000
00000000
,
00000000
00000000
00000000
00000000
,
00000000
00000000
00000000
00000000
,
02000000
00000000
03010000
10000000
,
00200000
00000000
10300000
00010000
,
00002000
00000000
00003010
00001000
,
00000002
00000000
00000103
00001000
,
00000200
00000000
00000301
00000100
,
00000002
00000000
00000003
00011000
,
00010000
00000000
00100000
00000000
10000000
00010000
00000000
01000000
,
00010000
01000000
00100000
00000000
10000000
00100000
10000000
00010000
,
10000000
00010000
01000000
00000000
00010000
10000000
00000000
00100000
,
00100000
00100000
10000000
00000000
01100000
00000000
10010000
00000000
,
10000000
01000000
00100000
00010000
00001000
00000100
00000010
00000001
,
00000010
00000000
00001000
00000001
00000010
00000000
00000001
00001000
,
00000100
00000000
00000001
00000000
00000100
00000000
00001000
00000010
,
00000100
00000000
00000001
00000100
00000001
00000000
00001000
00000001
,
00000010
00000000
00000001
00000010
00001000
00000000
00010000
01000000
,
00010000
01000000
10000000
00000000
10000000
00100000
00010000
00100000
,
02000000
00000000
00100000
00000000
00010000
00000000
00100000
03000000
,
00100000
00000000
00010000
00100000
00010000
00000000
10000000
00010000
,
01000000
00000000
00010000
01000000
00110000
00000000
00011000
00000000
,
00000010
00000000
00001000
00000000
00000100
00000000
00000000
00000010
,
00000100
00000000
00000001
00000000
00000010
00000000
00000000
00000100
,
00000001
00000000
00001000
00000000
00000001
00000000
00000000
00001000
,
00000100
00000000
00000010
00000000
00001000
00000001
00001000
00000000
,
00100000
00000000
00010000
00000000
00100000
00000000
00010000
10000000
,
01000000
00000000
10000000
00000000
01000000
00000000
00100000
00010000
,
00100000
01000000
00100000
10000000
,
00020000
00000000
00000000
00030000
00002000
00000000
00000000
00000000
,
00000000
00000000
00000000
00000000
,
00003020
00000000
00000000
00000000
,
00000032
00000000
00000000
00000000
,
00001003
00000001
00000010
00000000
,
00000001
00001000
00000010
00000000
,
00000100
00000010
00000001
00001000
,
00010000
01000000
10000000
00010000
,
00100000
00010000
10000000
00000000
01000000
00000000
00010000
00000000
,
01000000
00010000
10000000
00000000
00100000
00000000
10000000
00000000
,
01000000
10000000
00010000
00000000
00100000
00000000
00010000
00000000
,
00000010
00001000
00000001
00000000
00000110
00000000
00001100
00000000
,
00001001
00000002
00000000
00000000
00000003
00000100
00000010
00000000
,
00001001
00002000
00000000
00000000
00003100
00000010
00001000
00000000
,
00110000
00200000
00000000
00000000
00310000
01000000
10000000
00000000
,
11000000
02000000
00000000
03000000
10010000
00000000
01100000
00000000
,
00100000
10000000
01000000
00000000
00100000
01000000
00100000
00000000
,
00100000
00010000
01000000
00000000
01000000
10000000
00100000
00000000
,
01000000
00010000
00001000
00000000
00001000
00000010
00000100
00000000
,
00000100
00001000
00000010
00000000
00000010
00000001
00000100
00000000
,
00000010
00000000
00000100
00000010
00000100
00000000
00000100
00000000
,
00000010
00000000
00000001
00000010
00000100
00000000
00001000
00000000
,
00010000
00000000
01000000
00010000
01000000
00000000
00100000
00000000
,
01000000
00000000
00010000
01000000
10010000
00000000
10010000
00000000
,
00100000
00000000
00010000
00100000
01000000
00000000
00010000
10000000
,
00100000
00000000
01000000
00100000
10000000
00000000
00010000
00100000
,
00001000
00000000
00000001
00001000
00000010
00000000
00000100
00000010
,
00000001
00000000
00001000
00000001
00000100
00000000
00000010
00000100
,
00000100
00000010
00000001
00000100
00000010
00001000
00000010
00000000
,
00000001
00000100
00001000
00000100
00000001
00000010
00001000
00000000
,
00010000
00100000
10000000
00100000
01000000
00010000
01000000
00000000
,
10010000
01100000
00011000
00001100
,
00002000
00000000
00000000
00000000
,
00023000
00000000
00000000
00000000
,
00031000
00000000
00000000
00000010
00000000
00000100
00000000
00000000
,
00022000
00000000
00000000
00000000
00000000
00000000
00000000
00033000
;

//---------------dance-double - ----------------
#NOTES:
     dance-double:
     :
     Hard:
     8:
     :
00000000
00000000
00000000
00000000
,
00000000
00000000
00000000
00000000
,
00000000
00000000
00000000
00000000
,
00000000
00000000
00000000
00000000
,
00000002
00000000
00000000
00000000
00000000
00000000
00000000
00000000
00000000
00000000
00000013
00000000
00001000
00000010
00000000
00000001
,
00000200
00000000
00000001
00000000
00001000
00000000
00000001
00000300
,
00000020
00000000
00000000
00000000
00000000
00000000
00000000
00000000
00000000
00000000
00000130
00000000
00000010
00000001
00000000
00001000
,
00020000
00000000
00001000
00000000
00100000
00000000
00001000
00030000
,
00200000
00000000
00000000
00000000
00010000
00000000
00000000
00000000
01000000
00000000
00000000
00000000
00310000
00000000
00000000
10000000
,
01000000
01000000
00010000
00000000
10000000
01000000
00100000
00010000
,
00011000
00000000
00001000
00000000
00000000
00000010
00000000
00000000
00001001
00000000
00001000
00000000
00000100
00000000
00000100
00000000
,
00000110
00000000
00000010
00000000
00000000
00000100
00000000
00000000
00000001
00000000
00000010
00000000
00001000
00000100
00000000
00000000
,
00000001
00000000
00000010
00000000
00000000
00001000
00000000
00000000
00001000
00000000
00000010
00000000
00000000
00000001
00000000
00000000
,
00000010
00000000
00000100
00000000
00000000
00001000
00000000
00000000
00001001
00000000
00000000
00000000
00001010
00000000
00000000
00000000
,
00000001
00000010
00000100
00001000
00010000
00100000
01000000
10000000
,
10000000
00000000
00000000
00000000
10000000
01000000
00000000
00100000
00010000
00000000
00100000
00000000
10000000
00010000
00000000
00100000
,
01000000
00000000
00000000
00000000
00010000
00000000
01000000
00000000
10000000
00000000
00000000
00010000
10000000
00000000
00000000
00000000
,
00100000
00000000
00000000
00000000
10000000
00010000
00000000
00000000
00100000
00000000
00000000
00000000
00010000
01000000
00000000
00000000
,
00010000
00000000
00000000
00000000
10000000
00010000
00000000
00000000
10000000
01000000
00000000
00000000
10000000
00000000
01000000
00000000
,
00010000
00001000
00000100
00000000
00001000
00000010
00000001
00001000
,
00000001
00000010
00000001
00000010
00000100
00000001
00000010
00000000
,
00000010
00000000
00000000
00000000
00000001
00001000
00000000
00000000
00000010
00000000
00000000
00000000
00001000
00000100
00000000
00000000
,
00001000
00000000
00001000
00000000
00000001
00001000
00000000
00000000
00000110
00000000
00000000
00000000
00011000
00000000
00000000
00000000
,
00010000
00010000
10000000
00000000
00010000
01000000
10000000
01000000
,
10000000
00100000
00010000
00000000
10000000
01000000
00100000
00010000
,
10000000
10000000
00010000
00000000
10000000
00100000
00010000
00100000
,
00010000
01000000
10000000
00010000
00010000
01000000
00100000
00010000
,
00001000
00000010
00000100
00000001
00000100
00001000
00000010
00000000
,
00000010
00000010
00000001
00000010
00000010
00000100
00001000
00000001
,
00001000
00000001
00000100
00001000
00000100
00000001
00000010
00000000
,
00000001
00000010
00001000
00000000
00000000
00000000
00001000
00010000
00001000
00000000
00000000
00000000
00020000
00000000
00000000
00000000
,
00000000
00032000
00000000
00003020
,
00000000
00000230
00000000
00002300
,
00000000
00023000
00000000
02030000
,
03010000
00010000
10000000
00000000
00010000
01000000
10000000
01000000
,
00010000
00100000
10000000
00000000
00100000
01000000
10000000
00100000
,
00010000
00001000
00000001
00000000
00001000
00000010
00000001
00000010
,
00001000
00000100
00000001
00000000
00000101
00000000
00001010
00000000
,
00000001
00000010
00000001
00000010
00000100
00000010
00000001
00001000
,
00000001
00000010
00000001
00001000
00000100
00000000
00001000
00010000
,
01000000
00100000
10000000
00100000
01000000
00100000
10000000
00010000
,
10000000
01000000
10000000
00010000
00100000
01000000
00010000
10000000
,
01010000
00000000
00000000
10100000
00000000
00000000
00100000
00000000
00010000
00000000
01000000
00000000
10000000
00000000
00000000
00000000
,
00110000
00000000
00000000
11000000
00000000
00000000
01000000
00000000
10000000
00000000
01000000
00000000
00010000
00000000
00000000
00000000
,
00011000
00000000
00000000
00001010
00000000
00000000
00000010
00000000
00000100
00000000
00000010
00000000
00001000
00000000
00000001
00000000
,
00000011
00000000
00000000
00000110
00000000
00000000
00000000
00000000
00002100
00000000
00000000
00003000
00000021
00000000
00000000
00000030
,
00000010
00000000
00000010
00000000
00001000
00000000
00000100
00000000
00000010
00000000
00000000
00000001
00000000
00000000
00001000
00000000
,
00000100
00000000
00001000
00000000
00000010
00000000
00000100
00000000
00001000
00000000
00000000
00000010
00000000
00000000
00001000
00000000
,
00010000
00000000
00100000
00000000
01000000
00000000
00010000
00000000
01000000
00000000
00000000
00010000
00000000
00000000
10000000
00000000
,
00100000
00000000
10000000
00000000
01000000
00000000
00010000
00000000
00100000
00000000
00000000
00010000
00000000
00000000
10000000
00000000
,
01000000
00000000
00010000
00000000
10000000
00000000
00010000
00000000
00100000
00000000
00000000
00010000
00000000
00000000
10000000
00000000
,
01000000
00000000
10000000
00000000
00010000
00000000
10000000
00000000
00100000
00000000
00000000
10000000
00000000
00000000
01000000
00000000
,
00001000
00000000
00000001
00000000
00001000
00000000
00000010
00000000
00000100
00000000
00000000
00001000
00000000
00000000
00000001
00000000
,
00000010
00000000
00000001
00000000
00001000
00000000
00000001
00000000
00000101
00000000
00000000
00001001
00000000
00000000
00001010
00000000
,
00002000
00000100
00000000
00000010
00000000
00000100
00000000
00000010
,
00003200
00000010
00000000
00000001
00000000
00000010
00000000
00000001
,
00020300
00001000
00000000
00000000
00000000
00100000
00000000
00001000
,
00230000
01000000
00000000
00010000
00000000
01000000
00000000
00010000
,
00300000
01000000
10000000
01000000
00010000
01000000
00100000
01000000
,
01000000
10000000
00100000
10000000
00100000
00010000
10000000
00010000
,
00001000
00000100
00000010
00000010
00000001
00001000
00000001
00001000
,
00000001
00001000
00000001
00001000
00000010
00001000
00000100
00000001
,
00002200
00000000
00000000
00000000
00000000
00000000
00000000
00003300
,
00220000
00000000
00000000
00000000
00000000
00000000
00000000
00330000
,
00010000
00001000
00010000
00000000
00000000
00000000
00001000
00010000
00001000
00000000
00000100
00001000
00010000
00000000
00000000
00100000
,
01000000
00010000
00022000
00000000
00000000
00000000
00000000
00000000
00000000
00000000
00000000
00000000
00000000
00000000
00033000
00000000
;
