#TITLE:Breathe The Air;
#ARTIST:Bill Hamel with Spacebar;
#BANNER:Breathe The Air.png;
#BACKGROUND:Breathe The Air-bg.png;
#CDTITLE:./CDTITLES/DanceDanceRevolution UNIVERSE2.png;
#MUSIC:Breathe The Air.ogg;
#SAMPLESTART:70.286;
#SAMPLELENGTH:15;
#BPMS:0=140;

//---------------dance-single - ----------------
#NOTES:
     dance-single:
     :
     Beginner:
     1:
     :
0000
0000
0000
0000
,
0000
0000
0000
0000
,
0000
0000
0000
0000
,
0001
0000
1000
0000
,
0010
0000
0100
0000
,
0010
0000
0000
0000
,
1000
0000
0000
0000
,
0100
0000
0000
0000
,
0001
0000
0000
0000
,
1000
0000
0010
0000
,
0100
0000
0000
0000
,
0001
0000
0010
0000
,
0100
0000
0000
0000
,
1000
0000
0001
0000
,
0001
0000
1000
0000
,
1001
0000
0000
0000
,
0010
0000
0100
0000
,
0001
0000
0000
0000
,
0100
0000
0010
0000
,
1000
0000
0000
0000
,
0001
0000
0001
0000
,
1000
0000
0010
0000
,
0100
0000
0010
0000
,
0110
0000
0000
0000
,
1000
0000
0001
0000
,
0010
0000
0100
0000
,
0001
0000
1000
0000
,
0010
0000
0000
0000
,
0002
0000
0000
0003
,
0001
0000
0100
0000
,
1000
0000
0100
0000
,
0110
0000
0000
0000
,
0001
0000
0000
0000
,
1000
0000
0010
0000
,
0100
0000
0000
0000
,
1000
0000
0000
0000
,
0001
0000
0100
0000
,
0010
0000
0100
0000
,
1000
0000
0001
0000
,
1001
0000
0000
0000
,
0001
0000
0000
0000
,
0100
0000
0010
0000
,
1000
0000
0001
0000
,
0100
0000
0010
0000
,
2000
0000
0000
3000
,
1000
0000
0010
0000
,
0001
0000
0010
0000
,
0110
0000
0000
0000
,
1000
0000
0001
0000
,
0001
0000
0100
0000
,
0010
0000
0100
0000
,
0001
0000
0000
0000
,
1000
0000
0010
0000
,
0100
0000
0010
0000
,
0001
0000
1000
0000
,
1001
0000
0000
0000
,
0100
0000
0010
0000
,
0110
0000
0000
0000
;

//---------------dance-single - ----------------
#NOTES:
     dance-single:
     :
     Easy:
     3:
     :
0000
0000
0000
0000
,
0000
0000
0000
0000
,
0000
0000
0000
0000
,
0001
0000
1000
0000
,
0010
0100
0001
0000
,
0100
0000
0010
0000
,
1000
0100
0010
0000
,
1000
0000
0001
0000
,
2002
0000
0000
3003
,
0100
0100
0010
0000
,
1000
0000
0001
0000
,
0010
0100
1000
0000
,
0010
0000
0100
0000
,
0001
1000
0001
0000
,
0100
0000
0010
0000
,
1000
0000
0000
0000
,
0001
0000
0000
0000
,
0010
0010
0100
0000
,
0001
0000
1000
0000
,
0100
0010
0001
0000
,
0100
0000
0010
0000
,
1000
0001
1000
0000
,
0010
0000
0100
0000
,
0001
0000
0000
0000
,
1000
0000
0000
0000
,
1000
0000
0001
0000
,
0100
0100
0010
0000
,
1000
0000
0100
0000
,
0010
0001
0001
0000
,
1001
0000
0000
0000
,
0100
0000
0010
0000
,
0110
0000
0000
0000
,
1000
0000
0100
0000
,
0001
0000
1000
0000
,
0010
0010
0100
0000
,
0001
0000
0010
0000
,
0100
1000
1000
0000
,
1001
0000
0000
0000
,
0010
0000
0100
0000
,
0110
0000
0000
0000
,
0001
0000
0010
0000
,
1000
0001
1000
0000
,
0010
0000
0100
0000
,
1000
0000
0001
0000
,
2002
0000
0000
3003
,
0100
0000
0010
0000
,
0220
0000
0000
0330
,
1000
0000
0100
0000
,
0001
0000
0010
0000
,
1000
0000
1000
0000
,
0001
0000
0001
0000
,
0001
0000
1000
0000
,
2002
0000
0000
3003
,
0010
0000
0100
0000
,
0220
0000
0000
0330
,
0001
0000
0010
0000
,
1000
0000
0100
0000
,
1000
0000
0000
0000
;

//---------------dance-single - ----------------
#NOTES:
     dance-single:
     :
     Medium:
     6:
     :
0000
0000
0000
0000
,
0000
0000
0000
0000
,
0000
0000
0000
0000
,
0010
0000
0100
0001
0010
0000
1000
0000
,
0010
0001
1000
0000
0100
1000
0010
0000
,
0100
0000
0010
1000
0100
0000
0001
0000
,
0100
1000
0001
0000
0010
0001
0100
0000
,
0001
0000
1000
0010
1000
0000
0100
0000
,
0001
0010
0001
0000
1000
0100
1000
0000
,
0010
0000
1000
0000
0001
0100
0010
0000
,
1000
0000
0001
0000
1000
0010
0100
0000
,
0010
0000
0100
0000
0001
0100
1000
0000
,
0100
0001
0010
0000
1000
0010
0001
0000
,
0100
0010
1000
0000
1000
0001
0010
0000
,
0100
0010
1100
0011
,
0001
0100
1000
0100
0001
0010
1000
0000
,
0100
0000
1000
0000
0001
1000
0010
0000
,
0100
0000
0001
0000
1000
0010
0100
0000
,
0001
0000
1000
0000
0001
0100
0010
0000
,
0100
0000
0010
0000
1000
0010
0001
0000
,
0010
1000
0100
0000
0001
0100
1000
0000
,
0010
0100
0001
0000
0001
1000
0100
0000
,
0010
0100
0001
1000
,
1000
0010
0001
0010
1000
0100
0001
0000
,
0110
0000
1001
0000
1000
0001
0100
0000
,
0001
1000
0010
0000
0100
0001
0000
0100
,
0010
1000
0000
0010
1000
0000
1001
0000
,
0100
0010
1000
0000
0001
0010
0000
0010
,
0100
1000
0010
0100
0001
0000
0101
0000
,
0010
0000
0100
0000
0010
1000
0000
1000
,
0100
0000
0010
0000
0001
1000
0000
1000
,
0002
0203
0320
2030
,
3100
1000
0010
0001
0010
0000
0110
0000
,
0001
0000
0100
0000
1000
0100
0001
0000
,
0010
0000
1000
0000
0010
0001
0100
0000
,
1000
0000
0100
0000
0010
0000
0100
0001
,
0010
0000
0100
0000
1000
0010
0100
0000
,
0001
0100
0010
1000
0010
0000
0200
0000
,
0301
1000
0100
1000
0010
0000
2000
0000
,
3100
1000
0010
0100
0001
0000
1000
0001
,
1000
0000
0010
0000
0100
0001
0101
0000
,
1000
0001
0100
0000
0010
1000
0000
0010
,
0100
0001
0000
0100
0001
0000
1001
0000
,
0010
0100
0001
0000
1000
0100
0000
0100
,
0010
0001
0100
0010
1000
0000
1010
0000
,
0100
0000
0010
0000
0100
0001
0000
0001
,
0010
0000
0100
0000
1000
0001
0000
0001
,
2000
3020
0230
0302
,
0013
0001
0100
1000
0100
0000
0110
0000
,
1000
0000
0010
0000
0001
0010
1000
0000
,
0100
0000
0001
0000
0100
1000
0010
0000
,
0001
0000
0010
0000
0100
0000
0010
1000
,
0100
0000
0010
0000
0001
0100
0010
0000
,
1000
0010
0100
0001
0100
0000
0020
0000
,
1030
0001
0010
0001
0100
0000
0002
0000
,
0013
0001
0010
0001
1000
0100
1000
0100
,
0001
0100
1000
0010
0100
0000
0010
0000
,
1001
0000
0000
0000
;

//---------------dance-single - ----------------
#NOTES:
     dance-single:
     :
     Hard:
     8:
     :
0000
0000
0000
0000
,
0000
0000
0000
0000
,
0000
0000
0000
0000
,
0002
0000
1003
0100
0010
0000
0100
0000
,
2000
0000
3001
0100
1000
0100
0001
0000
,
2000
0000
3001
0010
0100
0000
0010
0000
,
0002
0000
1003
0010
0001
0010
1000
0000
,
0100
0010
0000
0010
0001
1000
0000
0100
,
1000
0010
0100
0001
0010
0000
1001
0000
,
0100
0010
1000
0001
0010
0001
1000
0100
,
0010
0100
0001
0000
0100
1000
0010
0000
,
0100
0001
0100
1000
0100
0001
0010
1000
,
0010
0100
0001
0100
0010
1000
0010
0000
,
0100
1000
0010
0100
0000
0001
0010
0000
,
0100
1000
0001
0100
0000
0010
0100
0000
,
1000
0100
0001
0100
1000
0100
0010
1000
,
0100
0000
0010
0000
0001
0000
1000
0000
0000
0000
0010
0000
0100
0001
0100
0000
,
0010
1000
0001
0100
0010
1000
0001
0010
,
0100
0010
1000
0000
0010
0001
0100
0000
,
0010
1000
0010
0001
0010
1000
0100
0001
,
0100
0010
1000
0010
0100
0001
0100
0000
,
0010
0001
0100
0010
0000
1000
0100
0000
,
0010
0001
1000
0010
0000
0100
0010
0000
,
0001
0010
1000
0010
0001
0010
0100
0001
,
0010
0100
1000
0001
0000
0100
0110
0000
,
0100
0001
0010
0100
1000
0010
1000
0100
,
0001
0100
1000
0010
0100
0001
0010
0000
,
0001
1000
0010
0100
1000
0100
0001
0100
,
0010
1000
0001
0010
0100
1000
0001
0100
,
0010
0010
0100
0000
0001
0001
1000
0000
,
1000
0001
0100
0010
1000
0000
0001
1000
,
0010
0100
0001
0000
0001
0100
1000
0000
,
1000
0000
0100
0000
0001
0000
0010
0000
1000
0000
0010
0000
0001
0010
0001
0000
,
1000
0010
0001
0010
1000
0100
0010
0001
,
0100
1000
0100
0001
0010
0100
0110
0000
,
0001
0010
0100
1000
0001
0010
1000
0010
,
0001
0100
1000
0100
0010
0100
0101
0000
,
1000
0000
1000
0000
0100
1000
0000
0000
0001
0000
0001
0000
0010
0001
0000
0000
,
0100
0000
0010
0000
1000
0000
0001
0000
0100
0000
0010
1000
0010
0000
0000
0000
,
0100
0001
0100
0010
1000
0001
0000
0001
,
0100
0000
0001
0000
0010
0000
1000
0000
0010
0001
0000
0000
1000
0010
1000
0000
,
0010
1000
0100
0010
0001
0100
0001
0010
,
1000
0010
0001
0100
0010
1000
0100
0000
,
1000
0001
0100
0010
0001
0010
1000
0010
,
0100
0001
1000
0100
0010
0001
1000
0000
,
0100
0010
0001
0100
0100
0010
1000
0000
,
0001
1000
0010
0100
0001
1000
1010
0000
,
0100
0010
1000
0000
1000
0010
0001
0000
,
0001
0000
0010
0000
1000
0000
0100
0000
0001
0000
0100
0000
1000
0100
1000
0000
,
0001
0100
1000
0100
0001
0010
0100
1000
,
0010
0001
0010
1000
0100
0010
0110
0000
,
1000
0100
0010
0001
1000
0100
0001
0100
,
1000
0010
0001
0010
0100
0010
1010
0000
,
0001
0000
0001
0000
0010
0001
0000
0000
1000
0000
1000
0000
0100
1000
0000
0000
,
0010
0000
0100
0000
0001
0100
0000
0000
0010
1000
0000
0000
0100
0000
0001
0000
,
0010
0000
1000
0000
0010
0100
0010
0000
0001
0000
1000
0000
0010
0100
0010
0000
,
0010
0000
1000
0000
0100
0000
0001
0000
0100
1000
0000
0000
0001
0100
0001
0000
,
0101
0000
0000
0000
;

//---------------dance-double - ----------------
#NOTES:
     dance-double:
     :
     Beginner:
     1:
     :
00000000
00000000
00000000
00000000
,
00000000
00000000
00000000
00000000
,
00000000
00000000
00000000
00000000
,
00000010
00000000
00000100
00000000
,
00000001
00000000
00000000
00000000
,
00000100
00000000
00001000
00000000
,
00010000
00000000
00000000
00000000
,
01000000
00000000
10000000
00000000
,
00100000
00000000
00100000
00100000
,
00100000
00000000
00000000
00000000
,
10000000
00000000
01000000
00000000
,
00010000
00000000
00000000
00000000
,
00001000
00000000
00000010
00000000
,
00000001
00000000
00000100
00000000
,
00001000
00000000
00010000
00000000
,
00100000
00000000
00000000
00000000
,
01100000
00000000
00000000
00000000
,
10000000
00000000
00100000
00000000
,
00010000
00000000
00000000
00000000
,
00001000
00000000
00000100
00000000
,
00000001
00000000
00000010
00000000
,
00001000
00000000
00010000
00000000
,
00100000
00000000
10000000
00000000
,
10010000
00000000
00000000
00000000
,
00100000
00000000
00000000
00000000
,
10000000
00000000
10000000
00000000
,
01000000
00000000
00000000
00000000
,
00100000
00000000
00100000
00000000
,
00001000
00000000
00000000
00000000
,
00000100
00000000
00000001
00000000
,
00000010
00000000
00000000
00000000
,
00000110
00000000
00000000
00000000
,
00001000
00000000
00000000
00000000
,
00000001
00000000
00000001
00000000
,
00000100
00000000
00000000
00000000
,
00000010
00000000
00000010
00000000
,
00010000
00000000
00000000
00000000
,
00100000
00000000
10000000
00000000
,
01000000
00000000
00000000
00000000
,
10010000
00000000
00000000
00000000
,
00100000
00000000
00000000
00000000
,
00010000
00000000
10000000
00000000
,
10000000
00000000
00000000
00000000
,
01000000
00000000
00010000
00000000
,
00010000
00000000
00000000
00000000
,
00001000
00000000
00000100
00000000
,
00000001
00000000
00000000
00000000
,
00001001
00000000
00000000
00000000
,
00000110
00000000
00000000
00000000
,
00000001
00000000
00000100
00000000
,
00000100
00000000
00000000
00000000
,
00000010
00000000
00010000
00000000
,
00010000
00000000
00000000
00000000
,
01000000
00000000
10000000
00000000
,
00100000
00000000
00000000
00000000
,
01000000
00000000
00000000
00000000
,
10010000
00000000
00000000
00000000
,
01100000
00000000
00000000
00000000
;

//---------------dance-double - ----------------
#NOTES:
     dance-double:
     :
     Easy:
     3:
     :
00000000
00000000
00000000
00000000
,
00000000
00000000
00000000
00000000
,
00000000
00000000
00000000
00000000
,
10000000
00000000
01000000
00000000
,
00010000
00010000
00001000
00000000
,
00000010
00000000
00000100
00000000
,
00000001
00000000
00000100
00000000
,
00002000
00000000
00003020
00000000
,
00000130
00001000
00001000
00000000
,
00010000
00000000
00001000
00000000
,
00000010
00000000
00001000
00010000
,
00010000
00000000
01000000
00000000
,
10000000
00000000
00100000
00000000
,
01000000
00000000
00001000
00000000
,
00010000
00000000
00000100
00000000
,
00000001
00000000
00000100
00000000
,
00001000
00000010
00000100
00000000
,
00001000
00000000
00010000
00000000
,
00100000
00000000
00010000
00001000
,
00001000
00000000
00000010
00000000
,
00000001
00000000
00000100
00000000
,
00000010
00000000
00010000
00000000
,
00001000
00000000
00100000
00000000
,
10000000
00000000
00100000
00000000
,
00010000
01000000
01000000
00000000
,
10000000
00000000
01000000
00000000
,
00100000
00010000
00010000
00000000
,
10000000
00000000
01000000
00000000
,
00010000
00001000
00001000
00000000
,
00000010
00000000
00000001
00000000
,
00000100
00001000
00001000
00000000
,
00020000
00000000
00030010
00000000
,
00001000
00000100
00000001
00000000
,
00000001
00000000
00000010
00000000
,
00000100
00001000
00001000
00000000
,
00000001
00000000
00000010
00000000
,
00001000
00010000
00010000
00000000
,
01000000
00000000
10000000
00000000
,
00100000
00010000
00010000
00000000
,
00002000
00000000
01003000
00000000
,
00010000
00100000
10000000
00000000
,
00200000
00000000
00000000
00300000
,
01000000
00010000
00001000
00000000
,
00020000
00000000
00000000
00030000
,
00001000
00000100
00000001
00000000
,
00000020
00000000
00000000
00000030
,
00001000
00010000
01000000
00000000
,
10000000
00000000
00000000
00000000
,
10010000
00000000
00000000
00000000
,
02000000
00000000
00000000
03000000
,
10000000
01000000
00010000
00000000
,
00002000
00000000
00000000
00003000
,
00000010
00000001
00000001
00000000
,
00000020
00000000
00000000
00000030
,
00000100
00010000
00010000
00000000
,
00001000
00000000
00100000
00000000
,
00022000
00000000
00000000
00033000
,
01000000
00000000
00000000
00000000
;

//---------------dance-double - ----------------
#NOTES:
     dance-double:
     :
     Medium:
     6:
     :
00000000
00000000
00000000
00000000
,
00000000
00000000
00000000
00000000
,
00000000
00000000
00000000
00000000
,
00000001
00000000
00001000
00000000
00000010
00000100
00000001
00000000
,
00000100
00000000
00001000
00000000
00010000
00100000
10000000
00000000
,
01000000
00000000
10000000
00000000
00100000
01000000
00010000
00000000
,
01000000
00000000
10000000
00000000
01000000
00100000
10000000
00000000
,
01000000
00000000
00010000
00000000
00001000
00010000
00000100
00000000
,
00000100
00001000
00000001
00000000
00000100
00000010
00001000
00000000
,
00000002
00000000
00000103
00000000
00000010
00000010
00001000
00000000
,
00000001
00000000
00000200
00000000
00001300
00001000
00010000
00000000
,
02000000
00000000
13000000
00000000
00010000
10000000
00100000
00000000
,
01000000
00010000
10000000
00000000
00100000
10000000
01000000
00000000
,
00020000
00000000
00031000
00000000
00000010
00000001
00001000
00000000
,
00000100
00000010
00000001
00000000
00000100
00000000
00001010
00000000
,
00000101
00000000
00000010
00000000
00000100
00001000
00010000
00000000
,
00010000
01000000
10000000
00000000
00100000
00000000
01010000
00000000
,
20000000
30200000
00320000
00032000
,
00003100
00000001
00000010
00000000
00000010
00000001
00001000
00000000
,
00000002
00000023
00002030
00023000
,
01030000
10000000
00100000
00000000
01000000
00010000
10000000
00000000
,
01000000
00000000
00010000
00000000
00001000
00010000
00000100
00000000
,
00000010
00000100
00001000
00000000
00000001
00000100
00000010
00000000
,
00000200
00000000
00000301
00000000
00000010
00000001
00000100
00000000
,
00002000
00000000
00013000
00000000
00000010
00000100
00000001
00000000
,
00000100
00000000
00001000
00000000
00010000
01000000
00000000
01000000
,
10000000
00100000
01000000
00110000
,
10000000
00000000
01000000
00000000
00010000
00001000
00000000
00001000
,
00000010
00000001
00000100
00001010
,
00000001
00000000
00000100
00000000
00001000
00010000
00000000
00010000
,
01000000
00000000
10000000
00000000
00100000
00010000
00000000
00010000
,
00001000
00000000
00000010
00000000
00000001
00000100
00000000
00000100
,
00000010
00001000
00000010
00000000
00000100
00000000
00001001
00000000
,
00000100
00010000
00001000
00000000
00010000
01000000
10000000
00000000
,
00100000
00000000
01000000
00000000
10000000
01000000
00010000
00000000
,
00100000
00001000
00010000
00000000
00001000
00000100
00000001
00000000
,
00000010
00000000
00000100
00000000
00001000
00000010
00000100
00000000
,
00001000
00010000
00001000
00000000
00100000
00000000
11000000
00000000
,
01000000
00100000
00010000
00000000
00100000
00000000
00011000
00000000
,
00000010
00000100
00000001
00000000
00000100
00000010
00001000
00000000
,
00000100
00000010
00000001
00000100
00001000
00000000
00011000
00000000
,
00100000
00000000
00010000
00000000
00001000
00000010
00000000
00000010
,
00000001
00000100
00000010
00001100
,
00000001
00000000
00000010
00000000
00001000
00010000
00000000
00010000
,
01000000
10000000
00100000
01010000
,
10000000
00000000
00100000
00000000
00010000
00001000
00000000
00001000
,
00000010
00000000
00000001
00000000
00000100
00001000
00000000
00001000
,
00010000
00000000
01000000
00000000
10000000
00100000
00000000
00100000
,
01000000
00010000
01000000
00000000
00100000
00000000
10010000
00000000
,
00100000
00001000
00010000
00000000
00001000
00000010
00000001
00000000
,
00000100
00000000
00000010
00000000
00000001
00000010
00001000
00000000
,
00000100
00010000
00001000
00000000
00010000
00100000
10000000
00000000
,
01000000
00000000
00100000
00000000
00010000
01000000
00100000
00000000
,
00010000
00001000
00010000
00001000
00000100
00000000
00000011
00000000
,
00000010
00000100
00001000
00000100
00001000
00000000
00011000
00000000
,
01000000
10000000
00100000
00000000
00100000
01000000
00010000
00000000
,
10000000
01000000
00010000
00001000
00010000
00001000
00000010
00000000
,
00001001
00000000
00000000
00000000
;

//---------------dance-double - ----------------
#NOTES:
     dance-double:
     :
     Hard:
     8:
     :
00000000
00000000
00000000
00000000
,
00000000
00000000
00000000
00000000
,
00000000
00000000
00000000
00000000
,
00000020
00000000
00000130
00000001
00000010
00000000
00000100
00000000
,
00001000
00000000
00000010
00000100
00000001
00000100
00001000
00000000
,
00020000
00000000
00130000
10000000
01000000
00000000
10000000
00000000
,
01000000
10000000
01000000
00100000
01000000
00000000
00010000
00000000
,
00002000
00000000
00003010
00000100
00001000
00000000
00000010
00000100
,
00000002
00000000
00000023
00000000
00002030
00010000
00023000
00000000
,
01030000
10000000
00100000
01000000
00010000
00100000
10000000
00100000
,
00010000
00100000
01000000
00000000
01000000
00010000
00002000
00000000
,
00003100
00000001
00000010
00000100
00001000
00000010
00000100
00001000
,
00000100
00001000
00010000
00000000
00010000
00100000
20000000
00000000
,
31000000
10000000
00100000
00010000
00100000
00100000
20000000
00000000
,
31000000
00010000
00001000
00010000
00001000
00000100
00000002
00000000
,
00000013
00000100
00002000
00000000
00003001
00000100
00000010
00000000
,
00000010
00000000
00010000
00000000
00001000
00000000
00000100
00000000
00000001
00000000
00000010
00000000
00000001
00000010
00000001
00000000
,
00001000
00000001
00000100
00001000
00010000
00000010
00002000
00000000
,
00003001
00000100
00000010
00010000
00001000
00100000
00020000
00000000
,
01030000
00010000
00100000
10000000
00100000
01000000
00010000
00001000
,
00100000
01000000
10000000
01000000
00010000
00001000
00000200
00000000
,
00000301
00000100
00001000
00000100
00000001
00000010
00001000
00000000
,
00001000
01000000
00001000
00010000
00100000
10000000
02000000
00000000
,
13000000
00010000
00100000
00000000
00100000
00010000
20000000
00000000
,
31000000
00000000
00010000
00000000
00001000
00000000
00000010
00000000
00000001
00000000
00000100
00000000
00000001
00000100
00000001
00000000
,
00001000
00000010
00000100
00000001
00000000
00000100
00001000
00010000
,
00000000
00010000
01000000
10000000
00100000
01000000
00010000
00000000
,
10000000
00100000
00010000
00100000
00000000
00100000
10000000
01000000
,
00000000
01000000
00010000
00001000
00000100
00000010
00001000
00000001
,
00000001
00000010
00000000
00000100
00010000
00001000
00001000
00000010
,
00000000
00000000
00000011
00000000
00000001
00000100
00000000
00000100
,
00001000
00010000
00100000
00000000
00100000
10000000
00010000
00000000
,
00100000
00000000
01000000
00000000
10000000
00000000
01000000
00000000
00010000
00000000
00001000
00000000
00010000
00001000
00010000
00000000
,
00000010
00000100
00000001
00000010
00000000
00000001
00000100
00001000
,
00000000
00001000
00010000
00100000
10000000
00010000
01000000
00000000
,
10000000
01000000
00010000
00100000
00000000
01000000
10000000
01000000
,
00000000
01000000
00010000
00001000
00000100
00000001
00000010
00000100
,
00001000
00000010
00000001
00000000
00000001
00000010
00001000
00000000
,
00000001
00000100
00001000
00010000
01000000
00100000
00001000
00010000
,
01000000
10000000
00100000
01000000
00000000
01000000
00010000
00100000
,
00000000
10000000
00100000
00000000
00001000
00010000
00011000
00000000
,
00000010
00000001
00000100
00000001
00000000
00000010
00001000
00010000
,
00000000
00010000
01000000
00000000
10000000
00100000
01000000
00000000
,
01000000
00010000
00100000
10000000
00000000
00100000
00010000
01000000
,
00010000
10000000
00100000
00010000
00001000
00000010
00000001
00000001
,
00000100
00000010
00000100
00000001
00000000
00001000
00000010
00000001
,
00000000
00000001
00000010
00001000
00000001
00000100
00001000
00000000
,
00010000
01000000
10000000
00100000
00000000
00100000
10000000
01000000
,
00000000
00000000
01000000
00000000
00010000
00000000
00001000
00000000
00100000
00000000
00001000
00000000
00010000
00001000
00010000
00000000
,
00000010
00001000
00000000
00001000
00000100
00000001
00000000
00000001
,
00000100
00010000
00001000
00000100
00000000
00000100
00000001
00000010
,
00001000
00010000
00000000
00010000
01000000
10000000
00000000
10000000
,
00100000
01000000
00001000
00100000
01000000
00010000
00002000
00000000
,
00003010
00000100
00010000
00001000
00000100
00000001
00000010
00001000
,
00010000
01000000
10000000
01000000
00010000
00001000
00210000
00000000
,
10300000
00100000
10000000
00000000
00100000
00000000
00010000
00000000
10000000
00010000
10000000
00000000
01000000
00000000
00010000
00000000
,
00001000
00000000
00000010
00000100
00000010
00000000
00000100
00000000
00001000
00000100
00001000
00000000
00000001
00000010
00000001
00000000
,
00001001
00000000
00000000
00000000
;
