#TITLE:Arrivals and Departures;
#ARTIST:LINUS!;
#BANNER:Arrivals and Departures.png;
#BACKGROUND:Arrivals and Departures-bg.png;
#CDTITLE:./CDTITLES/DanceDanceRevolution UNIVERSE2.png;
#MUSIC:Arrivals and Departures.ogg;
#SAMPLESTART:38.165;
#SAMPLELENGTH:15;
#DISPLAYBPM:144:158;
#BPMS:0=156.18,20=155.17,28=154.51,36=154.18,44=156.18,52=156.86,60=155.84,68=156.18,76=154.18,84=156.18,92=155.84,100=154.51,108=153.85,116=152.22,124=151.26,132=151.9,140=152.87,148=151.58,156=152.54,164=154.84,180=154.18,188=156.52,196=151.26,204=150.94,212=151.26,220=150,228=149.69,236=148.45,244=148.76,260=144,268=157.5,282=157.89;

//---------------dance-single - ----------------
#NOTES:
     dance-single:
     :
     Beginner:
     1:
     :
0000
0000
0000
0000
,
0000
0000
0000
0000
,
0000
0000
0000
0000
,
0000
0000
0000
0000
,
0000
0000
0000
0000
,
0001
0000
0000
0000
,
0100
0000
0000
0000
,
0010
0000
0000
0000
,
1000
0000
0000
0000
,
0100
0000
0000
0000
,
0001
0000
0000
0000
,
1000
0000
0000
0000
,
0010
0000
0000
0000
,
0100
0000
0000
0000
,
0001
0000
0000
0000
,
1000
0000
0000
0000
,
0100
0000
0000
0000
,
0010
0000
0000
0000
,
0001
0000
0000
0000
,
1000
0000
0000
0000
,
0010
0000
0000
0000
,
0001
0000
0000
0000
,
0100
0000
0000
0000
,
0010
0000
0000
0000
,
1000
0000
0000
0000
,
0100
0000
0010
0000
,
0010
0000
0000
0000
,
1000
0000
0000
0000
,
0001
0000
0000
0000
,
0100
0000
0000
0000
,
0010
0000
0000
0000
,
1000
0000
0000
0000
,
0001
0000
0000
0000
,
0100
0000
0100
0000
,
0010
0000
0000
0000
,
1000
0000
0000
0000
,
0001
0000
0000
0000
,
0100
0000
0000
0000
,
0001
0000
0000
0000
,
1000
0000
0000
0000
,
1001
0000
0000
0000
,
1000
0000
0000
0000
,
0001
0000
0000
0000
,
0010
0000
0000
0000
,
0100
0000
0100
0000
,
0001
0000
0000
0000
,
0100
0000
0000
0000
,
1000
0000
0000
0000
,
0010
0000
0000
0000
,
0001
0000
0000
0000
,
0001
0000
0000
0000
,
1000
0000
0000
0000
,
0100
0000
0000
0000
,
0010
0000
0000
0000
,
0100
0000
0000
0000
,
0001
0000
0000
0000
,
1000
0000
1000
0000
,
0010
0000
0000
0000
,
0010
0000
0000
0000
,
0100
0000
0000
0000
,
0001
0000
0000
0000
,
1000
0000
0000
0000
,
0001
0000
0001
0000
,
0100
0000
0000
0000
,
0010
0000
0010
0000
,
1000
0000
0000
0000
,
0001
0000
0000
0000
,
2002
0000
0000
3003
;

//---------------dance-single - ----------------
#NOTES:
     dance-single:
     :
     Easy:
     3:
     :
0000
0000
0000
0000
,
0000
0000
0000
0000
,
0000
0000
0000
0000
,
0000
0000
0000
0000
,
0000
0000
0000
0000
,
0001
0000
1000
0000
,
0010
0100
0001
0000
,
0010
0000
0100
0000
,
1000
0010
0100
0000
,
0001
0000
0100
0000
,
1000
0100
0001
0000
,
0010
0000
0100
0000
,
0001
0100
1000
0000
,
0100
0000
0010
0000
,
1000
0010
0001
0000
,
0010
0000
0100
0000
,
0001
0010
1000
0000
,
1000
0000
0001
0000
,
0100
0010
1000
0000
,
0100
0000
0010
0000
,
0001
0100
0010
0000
,
1000
0000
0010
0000
,
0001
0010
1000
0000
,
0100
0000
0010
0000
,
1000
0010
0001
0000
,
0010
0100
0100
0000
,
0001
0000
1000
0000
,
0100
0010
0010
0000
,
1000
0000
0001
0000
,
1000
0000
0110
0000
,
0001
0000
1001
0000
,
0110
0000
1000
0000
,
0001
0000
0100
0000
,
0010
0100
0001
0000
,
1000
0000
0001
0000
,
0010
0100
1000
0000
,
0010
0000
0100
0000
,
0001
0000
1001
0000
,
1000
0000
0110
0000
,
0001
0000
1000
0000
,
0010
0000
0100
0000
,
0001
0000
0100
0010
,
1000
0000
0001
0000
,
0010
0000
0100
0000
,
1000
0010
0100
0000
,
1000
0000
0010
0100
,
0001
0000
1000
0000
,
0100
0000
0010
0000
,
0001
0100
0010
0000
,
0100
0010
0010
0000
,
1000
0000
0001
0000
,
0010
0100
0100
0000
,
0001
0000
1000
0000
,
0001
0000
0110
0000
,
1000
0000
1001
0000
,
0110
0000
0001
0000
,
1000
0010
0010
0000
,
0001
0000
0100
0000
,
0010
1000
0100
0000
,
0010
0000
1000
0000
,
0100
0010
0001
0000
,
1000
0000
0001
0000
,
0010
0000
0110
0000
,
0001
0000
1000
0000
,
0100
0000
1001
0000
,
0010
0000
0100
0000
,
0001
1000
0100
0000
,
0220
0000
0000
0000
,
0000
0000
0000
0000
,
0330
0000
0000
0000
;

//---------------dance-single - ----------------
#NOTES:
     dance-single:
     :
     Medium:
     5:
     :
0000
0000
0000
0000
,
0000
0000
0000
0000
,
0000
0000
0000
0000
,
0000
0000
0000
0000
,
0000
0000
0000
0000
,
1000
0001
1000
0010
,
0100
0010
0100
0000
0001
0000
0010
0000
,
0100
0000
1000
0000
0100
0010
0100
0000
,
0010
0010
0001
0100
,
0001
1000
0010
0000
,
0100
0001
0010
0000
,
0100
0000
1000
0000
0010
0100
0010
0000
,
0100
0001
1000
1000
,
0100
0010
1000
0000
,
0001
0100
0010
0000
,
1000
0000
0010
0000
0100
0001
0100
0000
,
0010
0100
0001
0000
,
1000
0001
0100
0000
,
0010
1000
0100
0000
,
0010
0000
0001
0000
0100
0010
0100
0000
,
0010
1000
0001
0001
,
0010
0100
0001
0000
,
1000
0010
0100
0000
,
0001
0000
0100
0000
0010
1000
0010
0000
,
0100
0010
1000
0200
,
0310
0100
1000
0000
,
0010
0100
0001
0000
,
1000
0001
0100
0000
,
0010
0100
0001
0000
,
1000
0000
1010
0000
,
0001
0000
0101
0000
,
0010
0000
0100
0000
1000
0100
1000
0000
,
0010
0100
0002
0000
,
0103
0010
0001
0000
,
0100
0010
1000
0000
,
0001
1000
0010
0000
,
0100
0010
1000
0000
,
0001
0000
0101
0000
,
1000
0000
1010
0000
,
0100
0000
0010
0000
0001
0010
0001
0000
,
0100
0010
2000
0000
,
3001
0100
0010
0000
0010
0000
1000
0100
,
0010
0010
0100
1000
,
0001
0000
0100
0000
0010
1000
0010
0000
,
0001
0001
1000
0100
,
0010
0000
0001
0000
1000
0010
1000
0000
,
0100
0000
0100
0000
1000
0100
1000
0000
,
0010
0100
0001
1000
,
0100
1000
0100
0000
1001
0000
0000
0000
,
0100
0010
0001
0000
,
0100
0010
1000
0000
,
0001
1000
0010
0000
,
0100
0010
1000
0000
,
0001
0000
0101
0000
,
1000
0000
1010
0000
,
0100
0000
0010
0000
0001
0010
0001
0000
,
0100
0010
2000
0000
,
3010
0100
0001
1000
,
0010
0000
0010
0000
0100
0010
0100
0000
,
0001
1000
0001
1000
,
0100
0000
0010
0000
0001
0010
0001
0000
,
0100
0010
1000
0000
,
0100
0000
0010
0000
0001
1000
0001
0000
,
0001
0100
1000
0000
,
1000
0000
0100
0000
0001
0100
0001
0000
,
1000
0010
0001
0000
,
0001
0010
1000
0100
,
1001
0000
0000
0000
;

//---------------dance-single - ----------------
#NOTES:
     dance-single:
     :
     Hard:
     7:
     :
0000
0000
0000
0000
,
0000
0000
0000
0000
,
0000
0000
0000
0000
,
0000
0000
0000
0000
,
0000
0000
0000
0000
,
0001
1000
0001
0000
0001
0000
0100
0010
,
0100
0100
0010
1000
,
0001
0000
0001
0000
0010
0100
0010
0000
,
0100
0000
0100
0000
1000
0010
1000
0000
,
0001
0000
0100
0000
0010
0100
0010
0000
,
1000
0000
0100
0000
0010
0001
0010
0000
,
0001
0000
1000
0000
0100
1000
0100
0000
,
0010
0100
0101
1010
,
1000
0000
0001
0000
0010
0100
0010
0000
,
0100
0000
1000
0000
0001
1000
0001
0000
,
0100
0010
0100
0000
0001
0000
1100
0000
,
0010
1100
0101
0010
,
1000
0000
0010
0000
0100
0010
0100
0000
,
0001
0000
0010
0000
0100
1000
0100
0000
,
1000
0000
0001
0000
0010
0001
0010
0000
,
0100
0010
1010
0101
,
0001
0000
1000
0000
0100
0010
0100
0000
,
0010
0000
0001
0000
1000
0001
1000
0000
,
0010
0100
0010
0000
1000
0000
0011
0000
,
0100
0011
1010
0100
,
0001
1000
0001
0000
0100
0001
0100
0000
,
0010
1001
0110
0000
,
1000
0001
1000
0000
0010
1000
0010
0000
,
0100
1001
0110
0000
,
0001
0010
0001
0000
1000
0100
1000
0000
,
0010
1000
0010
0000
0100
0001
0100
0000
,
0110
0000
1001
0000
1000
0001
1000
0000
,
0020
0230
0302
2003
,
3100
0000
0100
0000
0010
0001
0010
0000
,
0001
0000
0001
0000
1000
0010
1000
0000
,
0010
0000
0010
0000
0100
1000
0100
0000
,
0010
0000
0001
0000
0001
0100
0001
0000
,
0010
0100
1000
0011
,
0010
0100
0001
1100
,
0001
0000
0100
0000
0010
1000
0010
0000
,
1000
0000
0100
0000
0010
0001
0010
0000
,
0010
0100
0001
0000
1000
0000
0010
1000
,
0100
0000
0100
0000
0010
0001
1000
0100
,
0010
0000
0001
0000
1000
0100
1000
0000
,
0010
0100
0010
0000
0100
0001
1000
0000
,
0100
1000
0000
0001
0010
0001
0010
0000
,
0100
0010
0000
1000
0001
1000
0001
0000
,
0010
1000
0200
0000
1000
1000
1000
0000
,
0310
0001
0200
0000
0001
0001
0301
0000
,
1000
0001
1000
0000
0010
1000
0010
0000
,
0100
1001
0110
0000
,
0001
1000
0001
0000
0100
0001
0100
0000
,
0010
1001
0110
0000
,
1000
0100
1000
0000
0001
0010
0001
0000
,
0100
0001
0100
0000
0010
1000
0010
0000
,
0110
0000
1001
0000
0001
1000
0001
0000
,
0200
0320
2030
3001
,
0100
1000
0010
0100
,
0001
0000
0010
0000
0100
1000
0010
0000
,
0001
0010
0001
1000
,
0100
0000
0010
0000
0001
1000
0001
0000
,
0100
0000
0010
0000
1000
0100
1000
0000
,
0010
0000
0100
0000
0001
0010
0001
0000
,
0010
0000
0100
0000
0001
0010
0001
0000
,
0100
0000
0010
0000
1000
0100
1000
0000
,
0001
0010
0001
0000
1000
0010
1000
0000
,
0001
1000
0001
0000
0100
0010
0100
0000
,
0220
0000
0000
0000
,
0000
0000
0000
0000
,
0330
0000
0000
0000
;

//---------------dance-double - ----------------
#NOTES:
     dance-double:
     :
     Beginner:
     1:
     :
00000000
00000000
00000000
00000000
,
00000000
00000000
00000000
00000000
,
00000000
00000000
00000000
00000000
,
00000000
00000000
00000000
00000000
,
00000000
00000000
00000000
00000000
,
00000010
00000000
00000000
00000000
,
00000100
00000000
00000000
00000000
,
00010000
00000000
00000000
00000000
,
00001000
00000000
00000000
00000000
,
01000000
00000000
00000000
00000000
,
00100000
00000000
00000000
00000000
,
10000000
00000000
00000000
00000000
,
01000000
00000000
00000000
00000000
,
00010000
00000000
00000000
00000000
,
00001000
00000000
00000000
00000000
,
00000100
00000000
00000000
00000000
,
00000001
00000000
00000001
00000000
,
00000010
00000000
00000000
00000000
,
00001000
00000000
00000000
00000000
,
00010000
00000000
00000000
00000000
,
00000100
00000000
00000000
00000000
,
00001000
00000000
00000000
00000000
,
00000010
00000000
00000000
00000000
,
00000100
00000000
00000000
00000000
,
00001000
00000000
00001000
00000000
,
00010000
00000000
00000000
00000000
,
00100000
00000000
00000000
00000000
,
10000000
00000000
00000000
00000000
,
01000000
00000000
00000000
00000000
,
00010000
00000000
00010000
00000000
,
00001000
00000000
00000000
00000000
,
00000100
00000000
00000100
00000000
,
00000001
00000000
00000000
00000000
,
00000010
00000000
00000000
00000000
,
00000100
00000000
00000000
00000000
,
00001000
00000000
00000000
00000000
,
00000001
00000000
00000000
00000000
,
00000100
00000000
00000100
00000000
,
00001000
00000000
00000000
00000000
,
00010000
00000000
00010000
00000000
,
00100000
00000000
00000000
00000000
,
10000000
00000000
00000000
00000000
,
01000000
00000000
00000000
00000000
,
00100000
00000000
00001000
00000000
,
00001000
00000000
00000000
00000000
,
00010000
00000000
00000000
00000000
,
00001000
00000000
00000000
00000000
,
00000010
00000000
00000001
00000000
,
00000001
00000000
00000000
00000000
,
00000001
00000000
00000100
00000000
,
00001000
00000000
00000000
00000000
,
00001000
00000000
00010000
00000000
,
00100000
00000000
00000000
00000000
,
00100000
00000000
10000000
00000000
,
01000000
00000000
00000000
00000000
,
00100000
00000000
00000000
00000000
,
01100000
00000000
00000000
00000000
,
01000000
00000000
00000000
00000000
,
00010000
00000000
00000000
00000000
,
00001000
00000000
00000000
00000000
,
00000010
00000000
00000000
00000000
,
00000001
00000000
00000000
00000000
,
00000100
00000000
00000000
00000000
,
00000010
00000000
00000000
00000000
,
00001000
00000000
00000000
00000000
,
00000100
00000000
00000000
00000000
,
00010000
00000000
00010000
00000000
,
00001000
00000000
00000000
00000000
;

//---------------dance-double - ----------------
#NOTES:
     dance-double:
     :
     Easy:
     3:
     :
00000000
00000000
00000000
00000000
,
00000000
00000000
00000000
00000000
,
00000000
00000000
00000000
00000000
,
00000000
00000000
00000000
00000000
,
00000000
00000000
00000000
00000000
,
00010000
00000000
10000000
00000000
,
00100000
00000000
00000000
00000000
,
01000000
00000000
00010000
00000000
,
00001000
00000000
00000000
00000000
,
00000100
00000000
00000001
00000000
,
00000010
00000000
00000000
00000000
,
00000100
00000000
00001000
00000000
,
00000010
00000000
00000000
00000000
,
00000100
00000000
00000000
00000000
,
00001000
00000000
00000000
00000000
,
00010000
00000000
00100000
00000000
,
01000000
00000000
00000000
00000000
,
00010000
00000000
00100000
00000000
,
01000000
00000000
00000000
00000000
,
10000000
00000000
00000000
00000000
,
00100000
00000000
00000000
00000000
,
01000000
00000000
00001000
00000000
,
00001000
00000000
00000000
00000000
,
00010000
00000000
00001000
00000000
,
00000100
00000000
00000000
00000000
,
00000001
00000000
00000100
00000000
,
00000010
00000000
00001000
00000000
,
00000100
00000000
00000010
00000000
,
00000001
00000000
00000010
00000000
,
00001000
00000000
00011000
00000000
,
00010000
00000000
00011000
00000000
,
00010000
00000000
00100000
00000000
,
10000000
00000000
01000000
00000000
,
00100000
00000000
00000000
00000000
,
00001000
00000000
00000000
00000000
,
00010000
00000000
00000000
00000000
,
00000010
00000000
00000000
00000000
,
00000100
00000000
00000001
00000000
,
00000010
00000000
00000100
00000000
,
00002000
00000000
00000000
00003000
,
00000002
00000000
00000000
00000003
,
00000100
00000000
00001000
00000000
,
00010000
00000000
00100000
00000000
,
01000000
00000000
00000000
00000000
,
10000000
00000000
00010000
00000000
,
10010000
00000000
00000000
00000000
,
01000000
00000000
00100000
00000000
,
00001000
00000000
00001000
00000000
,
00010000
00010000
00010000
00010000
,
00000010
00000000
00000100
00000000
,
00000001
00000000
00000000
00000000
,
00000001
00000000
00000100
00000000
,
00001000
00000000
00000000
00000000
,
00010000
00000000
01100000
00000000
,
10000000
00000000
01100000
00000000
,
01000000
00000000
10000000
00000000
,
01000000
00000000
00010000
00000000
,
00100000
00000000
00001000
00000000
,
00010000
00000000
00000000
00000000
,
00000100
00000000
00000010
00000000
,
00000001
00000000
00000000
00000000
,
00000100
00000000
00000010
00000000
,
00001000
00000000
00000001
00000000
,
00000100
00000000
00001000
00000000
,
00010000
00000000
00100000
00000000
,
10000000
00000000
01100000
00000000
,
00010000
00000000
10010000
00000000
,
01000000
00000000
00000000
00000000
;

//---------------dance-double - ----------------
#NOTES:
     dance-double:
     :
     Medium:
     6:
     :
00000000
00000000
00000000
00000000
,
00000000
00000000
00000000
00000000
,
00000000
00000000
00000000
00000000
,
00000000
00000000
00000000
00000000
,
00000000
00000000
00000000
00000000
,
00100000
00000000
01000000
00000000
00010000
00100000
00010000
00000000
,
10000000
01000000
00100000
00000000
,
01000000
00010000
00001000
00010000
,
00000010
00001000
00001001
00000000
,
00000001
00000000
00000100
00000000
00000010
00001000
00000010
00000000
,
00000000
00000000
00000100
00001000
,
00010000
00000000
00100000
00000000
10000000
01000000
10000000
00000000
,
00100000
01000000
00010000
00000000
,
00100000
00000000
00010000
00000000
10000000
01000000
10000000
00000000
,
01000000
00100000
00001000
00010000
,
00000010
00000000
00001000
00000000
00000010
00000100
00000010
00000000
,
00000100
00000001
00001001
00000000
,
00000010
00000000
00001000
00000000
00010000
00001000
00010000
00000000
,
00100000
10000000
01000000
00000000
,
00100000
00000000
00001000
00000000
00010000
00001000
00010000
00000000
,
00000100
00000010
00000001
00000000
,
00000100
00000000
00000010
00000000
00001000
00000100
00001000
00000000
,
00000010
00000100
00001000
00010000
,
01000000
00000000
10000000
00000000
00100000
01000000
00100000
00000000
,
10000000
01000000
00010000
00000000
,
00000010
00001000
00000001
00000100
,
00000010
00000100
00000020
00000000
,
00001030
00010000
00000100
00001000
,
00000001
00000100
00001000
00000000
00010000
00000000
00000000
00000000
,
01000000
00000000
10000000
00000000
00100000
01000000
00100000
00000000
,
01000000
00010000
00100000
00000000
,
01000000
10000000
01000000
00010000
,
00001000
00000100
00001000
00000000
00000100
00000000
00000001
00000000
,
00000010
00000100
00001000
00000010
,
00000200
00000000
00000000
00000000
00000301
00000010
00000001
00000000
,
00000100
00001000
00010000
00100000
,
20000000
00000000
00000000
00000000
31000000
10000000
01000000
00000000
,
10000000
00100000
01010000
00000000
,
00010000
00100000
11000000
00000000
,
01000000
00100000
01000000
00000000
00010000
00000000
00001000
00000000
,
00020000
00000000
00000000
00000000
00030010
00001000
00000010
00000000
,
00000100
00001000
00000010
00000000
00000010
00000000
00000100
00000001
,
00000010
00000000
00000010
00000000
00000001
00000100
00001000
00000000
,
00020000
02030000
23000000
30200000
,
01300000
00010000
10000000
00000000
01000000
00000000
00010000
00001000
,
00000100
00000000
00001010
00000000
00000100
00000001
00000010
00000000
,
00000100
00000000
00000110
00000000
00000001
00000010
00001000
00000000
,
00010000
01000000
10000000
10000000
,
00100000
00000000
00100000
00000000
00100000
00100000
00100000
00000000
,
10000000
01000000
00010000
00001000
,
00010000
00000000
00000010
00000000
00000100
00000001
00000100
00000000
,
00000010
00000100
00001000
00010000
,
00001000
00000000
00100000
00000000
00010000
01000000
00100000
00000000
,
10000000
01000000
00010000
01000000
,
10000000
00100000
00010000
00001000
,
00000010
00000100
00000001
00001000
,
00000010
00000100
00000010
00000000
00001000
00000001
00001000
00000000
,
00000100
00001000
00000010
00000100
,
00000001
00000000
00000010
00000000
00000100
00010000
00001000
00000000
,
00100000
00010000
10000000
01000000
,
00100000
00000000
00010000
00000000
10000000
00100000
10000000
00000000
,
01000000
00010000
00001000
00010000
,
00000100
00000000
00001000
00000000
00000010
00000100
00000001
00000000
,
00000010
00000100
00010000
00001000
,
00010000
00000000
01000000
00000000
10000000
00100000
10000000
00000000
,
00100000
10000000
00010000
10010000
,
10000000
01000000
00010000
00001000
,
00011000
00000000
00000000
00000000
;

//---------------dance-double - ----------------
#NOTES:
     dance-double:
     :
     Hard:
     7:
     :
00000000
00000000
00000000
00000000
,
00000000
00000000
00000000
00000000
,
00000000
00000000
00000000
00000000
,
00000000
00000000
00000000
00000000
,
00000000
00000000
00000000
00000000
,
01000000
00000000
00100000
00000000
10000000
01000000
10000000
00000000
,
00100000
01000000
00001000
00010000
,
00000100
00000000
00000010
00000000
00000001
00000010
00000001
00000000
,
00000100
00000010
00002002
00003003
,
00000010
00000000
00000100
00000000
00000001
00000100
00001000
00000000
,
00000100
00001000
00010000
00000000
00001000
00010000
01000000
00000000
,
10000000
00000000
01100000
00000000
10000000
00000000
01000000
00100000
,
01000000
00000000
00010000
00000000
00001000
00001000
00000100
00000000
,
00000001
00000000
00000001
00000000
00000010
00000100
00000010
00000000
,
00001010
00000000
00000000
00000101
00000000
00000000
00000011
00000000
,
00000001
00000100
00001000
00010000
,
00001000
00000000
00010000
00000000
00100000
10000000
00100000
00000000
,
01000000
00000000
00100000
00000000
10000000
00100000
00010000
00000000
,
00100000
00010000
00001000
00000000
00010000
00001000
00000010
00000000
,
00000001
00000000
00000110
00000000
00000001
00000000
00000010
00000100
,
00000010
00000000
00001000
00000000
00010000
00010000
00100000
00000000
,
10000000
00000000
10000000
00000000
01000000
00100000
01000000
00000000
,
01010000
00000000
00000000
10100000
00000000
00000000
11000000
00000000
,
10000000
00100000
00010000
00001000
,
00010000
00000000
00001000
00000000
00000100
00000001
00000100
00000000
,
00000010
00000100
00000001
00001000
,
00000100
00000000
00001000
00000000
00000010
00000100
00000010
00000000
,
00000100
00000001
00000010
00001000
,
00010000
00000000
01000000
00000000
10000000
01000000
10000000
00000000
,
00100000
00000000
01000000
00000000
00010000
00100000
00010000
00000000
,
00100000
00000000
01000000
00000000
10000000
01000000
10000000
00000000
,
01000000
00010000
00001000
00010000
,
00000100
00000000
00000010
00000000
00000001
00000100
00000001
00000000
,
00000020
00000230
00002300
00003002
,
00000203
00000000
00000310
00000000
00001000
00000001
00000100
00000000
,
00001000
00100000
00010000
01000000
,
00100000
00000000
10000000
00000000
01000000
00100000
01000000
00000000
,
10000000
00000000
00010000
00000000
00100000
01000000
00100000
00000000
,
01000000
00000000
10000000
00000000
00010000
00100000
00010000
00000000
,
01000000
00001000
00010000
00000100
,
00000010
00000001
00002200
00003300
,
00000001
00000010
00000100
00000000
00000100
00000000
00010000
00001000
,
00100000
00000000
00100000
00000000
01000000
10000000
00010000
00000000
,
00100000
00000000
01000000
10000000
01000000
00000000
00010000
00000000
,
00001000
00000000
00000100
00000000
00000001
00000010
00000001
00000000
,
00000100
00001000
00000000
00000010
00000100
00000001
00000010
00000000
,
00000100
00001000
00000000
00000010
00010000
00001000
00010000
00000000
,
01000000
10000000
00100000
01000000
00001000
00000000
00010000
00000000
,
01000000
10000000
01000000
00010000
00001000
00000010
00000010
00000010
,
00000100
00000010
00001000
00000001
,
00000010
00000000
00000001
00000000
00000100
00001000
00000100
00000000
,
00000010
00000100
00001000
00010000
,
00100000
00000000
10000000
00000000
01000000
00100000
00010000
00000000
,
01000000
00000000
10000000
00000000
01000000
00010000
00100000
00000000
,
01000000
00000000
00100000
00000000
00010000
00100000
00010000
00000000
,
00100000
00001000
00010000
00000100
,
00000010
00000000
00000100
00000000
00001000
00000010
00001000
00000000
,
00000001
00000100
00000010
00010000
,
00001000
00011000
00101000
00000000
,
01000000
10000000
00100000
01000000
,
00010000
00011000
00010100
00000000
,
00000100
00000010
00000001
00000000
,
00000001
00000000
00000010
00000000
00000100
00001000
00000100
00000000
,
00010000
00000010
00000100
00001000
,
00010000
00000000
00100000
00000000
10000000
01000000
10000000
00000000
,
01000000
00010000
00001000
00010000
,
00000010
00000000
00000100
00000000
00000001
00000010
00000001
00000000
,
00001001
00000000
00000000
00000000
;
