#TITLE:Anytime Soon;
#ARTIST:Blu Mar Ten;
#BANNER:Anytime Soon.png;
#BACKGROUND:Anytime Soon-bg.png;
#CDTITLE:./CDTITLES/DanceDanceRevolution UNIVERSE2.png;
#MUSIC:Anytime Soon.ogg;
#SAMPLESTART:9.302;
#SAMPLELENGTH:15;
#BPMS:0=129;

//---------------dance-single - ----------------
#NOTES:
     dance-single:
     :
     Beginner:
     1:
     :
0000
0000
0000
0000
,
0000
0000
0000
0000
,
0000
0000
0000
0000
,
0000
0000
0000
0000
,
0000
0000
0000
0000
,
1000
0000
0000
0000
,
0001
0000
0000
0000
,
0100
0100
0000
0000
,
0010
0000
0100
0000
,
0001
0000
0000
0000
,
1000
0000
0000
0000
,
0100
0000
0000
0000
,
0010
0000
0001
0001
,
0001
0000
0000
0000
,
1000
0000
0000
0000
,
0010
0010
0000
0000
,
0100
0000
0010
0000
,
1000
0000
0000
0000
,
0001
0000
0000
0000
,
0010
0000
0000
0000
,
0100
0000
1000
1000
,
1000
0000
0010
0000
,
0100
0100
0100
0000
,
0001
0000
0010
0000
,
0100
0100
0000
0001
,
0001
0000
0010
0000
,
0100
0100
0000
0100
,
0100
0000
1000
0000
,
0001
0000
0000
0000
,
1001
0000
0000
0000
,
0000
0000
0000
0000
,
0110
0000
0000
0000
,
0000
0000
0000
0000
,
0002
0000
0000
0003
,
0001
0000
0000
0000
,
2000
0000
0000
3000
,
1000
0000
0001
0001
,
0001
0000
0000
0000
,
1000
0000
0000
0000
,
0100
0100
0000
0000
,
0010
0000
0100
0000
,
1000
0000
0000
0000
,
0001
0000
0000
0000
,
0100
0000
0000
0000
,
0010
0000
1000
1000
,
1000
0000
0000
0000
,
0001
0000
0000
0000
,
0010
0010
0000
0000
,
0100
0000
0010
0000
,
0001
0000
0000
0000
,
1000
0000
0000
0000
,
0010
0000
0000
0000
,
0100
0000
0001
0001
,
0001
0000
0000
0000
;

//---------------dance-single - ----------------
#NOTES:
     dance-single:
     :
     Easy:
     3:
     :
0000
0000
0000
0000
,
0000
0000
0000
0000
,
0000
0000
0000
0000
,
0000
0000
0000
0000
,
0000
0000
0000
0000
,
1000
0000
0001
0000
,
0100
0000
0100
0000
,
0010
1000
0010
0000
,
0001
0100
0001
0100
,
0010
0000
1000
0000
,
0100
0000
0001
0000
,
1000
0100
0001
0100
,
1000
0010
0100
0000
,
0001
0000
1000
0000
,
0010
0000
0010
0000
,
0100
0001
0100
0000
,
1000
0010
1000
0010
,
0100
0000
0001
0000
,
0010
0000
1000
0000
,
0001
0010
1000
0010
,
0001
0100
0010
0100
,
0110
0000
1000
0001
,
1001
0000
0010
0100
,
1000
0100
0001
0000
,
0001
0100
1000
0000
,
1000
0010
0100
0010
,
0100
0001
1000
0000
,
0100
0000
1000
0010
,
0100
0001
0001
0001
,
0200
0000
0000
0300
,
1000
0000
0001
0000
,
0200
0000
0000
0300
,
0010
0000
0100
0000
,
1001
0000
0000
0000
,
0100
0000
0010
0000
,
0200
0000
0000
0000
,
0000
0300
0100
0100
,
0110
0000
0001
1000
,
1001
0000
0010
0100
,
0001
0100
1000
0000
,
1000
0100
0001
0000
,
0001
0010
0100
0010
,
0100
1000
0001
0000
,
0100
0000
0001
0010
,
0100
1000
0001
1000
,
1001
0000
0100
0010
,
0110
0000
0100
0010
,
1000
0010
0001
0000
,
0001
0010
1000
0000
,
1000
0100
0010
0100
,
0010
0001
1000
0000
,
0010
0000
1000
0100
,
0010
0001
0100
0001
,
0010
0000
0000
0000
;

//---------------dance-single - ----------------
#NOTES:
     dance-single:
     :
     Medium:
     5:
     :
0000
0000
0000
0000
,
0000
0000
0000
0000
,
0000
0000
0000
0000
,
0000
0000
0000
0000
,
0000
0000
0000
0000
,
1000
0001
0010
0000
,
0001
0000
0000
0000
1000
0000
0010
0100
,
0001
0000
1000
0100
,
1000
0001
0100
0001
,
2002
0000
3003
0000
,
0110
0000
0000
0000
1000
0000
0100
0010
,
0001
0000
0100
0001
,
1000
0000
0010
0000
0100
0010
1000
0000
,
0001
1000
0100
0001
,
1000
0000
0000
0000
0001
0000
0100
0010
,
1000
0100
0001
0010
,
0001
1000
0010
1000
,
2002
0000
3003
0010
,
0110
0000
0000
0000
0001
0000
0010
0100
,
1000
0000
0010
1000
,
0001
0000
0100
0000
0010
0100
0001
1000
,
0001
1000
0110
0110
,
1001
0000
1001
0000
1100
0000
1100
0100
,
0010
0001
0100
1000
,
0010
0000
0100
0000
0100
0000
0100
0001
,
0010
0000
0000
0000
0100
0000
0010
0100
,
1000
0000
0000
0000
0001
0000
0100
0010
,
1000
0000
0001
0000
1000
0100
1000
0000
,
0010
0100
0010
0000
1001
0000
1001
0000
,
0002
0000
0000
0003
,
2000
0000
0000
3000
,
0020
0000
0000
0030
,
0200
0000
0000
0300
,
0001
1000
0100
0000
,
1000
0010
0001
0000
,
1001
0000
0000
0000
,
1000
0000
0001
0000
0010
0010
0010
0000
,
1000
0001
0110
0110
,
1001
0000
1001
0000
0101
0000
0101
0100
,
0010
1000
0100
0001
,
0010
0000
0100
0000
0100
0000
0100
1000
,
0010
0000
0000
0000
0100
0000
0010
0100
,
0001
0000
0000
0000
1000
0000
0100
0010
,
0001
0000
1000
0000
0001
0100
0001
0000
,
0010
0100
0010
0000
1001
0000
1001
0000
,
0001
1000
1100
1100
,
1001
0000
1001
0000
0101
0000
0101
0001
,
0100
0001
0010
1000
,
0100
0000
0010
0000
0010
0000
0010
0001
,
0100
0000
0000
0000
0010
0000
0100
0010
,
1000
0000
0000
0000
0001
0000
0010
0100
,
1000
0000
0001
0000
1000
0010
1000
0000
,
0100
0010
0100
0000
0001
0100
0010
0100
,
0001
0000
0000
0000
;

//---------------dance-single - ----------------
#NOTES:
     dance-single:
     :
     Hard:
     6:
     :
0000
0000
0000
0000
,
0000
0000
0000
0000
,
0000
0000
0000
0000
,
0000
0000
0000
0000
,
0000
0000
0000
0000
,
1000
0100
1000
0000
0001
0000
0011
0000
,
1000
0000
1010
0000
0000
0000
0000
0001
,
0100
0010
0000
0100
,
0010
1000
0100
0001
,
0020
0000
0130
1000
,
0020
0000
0000
0000
0130
0000
0001
0010
,
0100
1000
0001
1000
,
0001
0000
0100
0001
0010
0100
1000
0000
,
0001
0010
0001
0000
1000
0000
1100
0000
,
0001
0000
0101
0000
0110
0000
1010
1000
,
0010
0100
0000
0010
,
0100
0000
0001
0000
0010
0100
1000
0000
,
0200
0000
0310
0001
,
0200
0000
0000
0000
0310
0000
1000
0100
,
0010
0001
1000
0001
,
1000
0000
0010
1000
0100
0010
0001
0100
,
1000
0000
0001
0000
1000
0100
1000
0000
,
0010
0000
0100
0000
0110
0000
0010
1000
,
0100
0010
0001
0000
1000
0000
0100
0000
,
1000
0010
0100
0000
0001
0010
0100
1000
,
0100
1000
0100
0010
,
0001
0000
0100
0000
1000
0000
0100
0001
,
0010
0000
0100
0000
1000
0000
0100
1000
,
0010
0100
0001
0000
1000
0000
0001
0000
,
0120
0000
0000
1030
0000
0000
0000
0000
,
2001
0000
0000
3010
0000
0000
0000
0000
,
0012
0000
0000
0103
0000
0000
0000
0000
,
2100
0000
0000
3010
0000
0000
0000
0000
,
0000
1001
0000
0110
0000
0000
0000
0000
,
2001
0000
0000
3100
0000
0000
0001
1000
,
0020
0000
0000
0000
,
0000
0000
0030
0000
1000
0001
1000
0000
,
0001
0000
1000
0000
0001
0100
0001
0000
,
0010
0000
0100
0000
0110
0000
0010
0001
,
0100
0010
1000
0000
0001
0000
0100
0000
,
0001
0010
0100
0000
1000
0010
0100
0001
,
0100
0001
0100
0010
,
1000
0000
0100
0000
0001
0000
0100
1000
,
0010
0000
0100
0000
0001
0000
0100
0001
,
0010
0100
1000
0000
0001
0000
1000
0000
,
1000
0000
0001
0000
1000
0010
1000
0000
,
0100
0000
0010
0000
0110
0000
0100
1000
,
0010
0100
0001
0000
1000
0000
0010
0000
,
1000
0100
0010
0000
0001
0100
0010
1000
,
0010
1000
0010
0100
,
0001
0000
0010
0000
1000
0000
0010
0001
,
0100
0000
0010
0000
1000
0000
0010
1000
,
0100
0010
0001
0000
1000
0000
0001
0010
,
0100
0000
0000
0000
;

//---------------dance-double - ----------------
#NOTES:
     dance-double:
     :
     Beginner:
     1:
     :
00000000
00000000
00000000
00000000
,
00000000
00000000
00000000
00000000
,
00000000
00000000
00000000
00000000
,
00000000
00000000
00000000
00000000
,
00000000
00000000
00000000
00000000
,
00000100
00000000
00000000
00000000
,
00000010
00000000
00000000
00000000
,
00000001
00000001
00000000
00000000
,
00000100
00000000
00000010
00000000
,
00010000
00000000
00000000
00000000
,
00001000
00000000
00000000
00000000
,
00100000
00000000
00000000
00000000
,
01000000
00000000
10000000
10000000
,
10000000
00000000
00000000
00000000
,
00010000
00000000
00000000
00000000
,
00100000
00100000
00000000
00000000
,
00001000
00000000
00010000
00000000
,
00000100
00000000
00000000
00000000
,
00000010
00000000
00000000
00000000
,
00000001
00000000
00000000
00000000
,
00001000
00000000
00000100
00000100
,
00000100
00000000
00010000
00000000
,
00001000
00001000
00001000
00000000
,
01000000
00000000
00100000
00000000
,
10000000
10000000
00000000
01000000
,
01000000
00000000
00100000
00000000
,
00001000
00001000
00000000
00010000
,
00010000
00000000
00001000
00000000
,
00010000
00000000
00000000
00000000
,
00011000
00000000
00000000
00000000
,
00000000
00000000
00000000
00000000
,
00000110
00000000
00000000
00000000
,
00000000
00000000
00000000
00000000
,
00000002
00000000
00000000
00000003
,
00000001
00000000
00000000
00000000
,
00002000
00000000
00000000
00003000
,
00001000
00000000
00000010
00000010
,
00000010
00000000
00000000
00000000
,
00010000
00000000
00000000
00000000
,
00001000
00001000
00000000
00000000
,
01000000
00000000
00100000
00000000
,
10000000
00000000
00000000
00000000
,
01000000
00000000
00000000
00000000
,
10000000
00000000
00000000
00000000
,
00010000
00000000
00100000
00100000
,
00100000
00000000
00000000
00000000
,
00001000
00000000
00000000
00000000
,
00010000
00010000
00000000
00000000
,
00000100
00000000
00000010
00000000
,
00000100
00000000
00000000
00000000
,
00000001
00000000
00000000
00000000
,
00000100
00000000
00000000
00000000
,
00000010
00000000
00001000
00001000
,
00001000
00000000
00000000
00000000
;

//---------------dance-double - ----------------
#NOTES:
     dance-double:
     :
     Easy:
     3:
     :
00000000
00000000
00000000
00000000
,
00000000
00000000
00000000
00000000
,
00000000
00000000
00000000
00000000
,
00000000
00000000
00000000
00000000
,
00000000
00000000
00000000
00000000
,
00000001
00000000
00000100
00000000
,
00000010
00000000
00000010
00000000
,
00001000
00000100
00001000
00000000
,
00000100
00010000
00000100
00010000
,
00001000
00000000
00100000
00000000
,
01000000
00000000
10000000
00000000
,
00100000
01000000
00010000
00100000
,
00001000
00010000
00000100
00000000
,
00000010
00000000
00000100
00000000
,
00000010
00000000
00000010
00000000
,
00000001
00000100
00000001
00000000
,
00001000
00000100
00001000
00000010
,
00010000
00000000
00001000
00000000
,
01000000
00000000
00100000
00000000
,
10000000
00010000
10000000
00010000
,
00100000
00001000
00010000
00001000
,
00011000
00000000
00000010
00000100
,
00000110
00000000
00000001
00000100
,
00001000
00010000
00001000
00000000
,
00010000
00001000
00100000
00000000
,
00010000
10000000
01000000
10000000
,
00100000
01000000
00100000
00000000
,
01000000
00000000
00001000
00010000
,
00001000
00010000
00010000
00010000
,
00002000
00000000
00000000
00003000
,
00000100
00000000
00000010
00000000
,
00002000
00000000
00000000
00003000
,
00000100
00000000
00000010
00000000
,
00001001
00000000
00000000
00000000
,
00000100
00000000
00010000
00000000
,
00002000
00000000
00000000
00000000
,
00000000
00003000
00001000
00001000
,
00011000
00000000
00100000
01000000
,
01100000
00000000
00100000
10000000
,
00010000
00100000
00010000
00000000
,
00100000
00001000
00100000
00000000
,
00001000
00000100
00000010
00000100
,
00000001
00000010
00000100
00000000
,
00010000
00000000
00001000
00010000
,
01000000
00100000
01000000
00100000
,
01100000
00000000
00001000
00010000
,
00011000
00000000
00010000
00000010
,
00000100
00000010
00001000
00000000
,
00000100
00000010
00000001
00000000
,
00000001
00000100
00001000
00010000
,
01000000
10000000
00100000
00000000
,
01000000
00000000
00010000
00100000
,
00001000
00010000
00001000
00010000
,
00000100
00000000
00000000
00000000
;

//---------------dance-double - ----------------
#NOTES:
     dance-double:
     :
     Medium:
     5:
     :
00000000
00000000
00000000
00000000
,
00000000
00000000
00000000
00000000
,
00000000
00000000
00000000
00000000
,
00000000
00000000
00000000
00000000
,
00000000
00000000
00000000
00000000
,
00000100
00000001
00000010
00000000
,
00000001
00000000
00000000
00000000
00001000
00000000
00000100
00010000
,
00001000
00000000
00010000
01000000
,
00100000
01000000
10000000
00100000
,
02200000
00000000
03300000
00000000
,
00011000
00000000
00000000
00000000
00010000
00000000
00000100
00001000
,
00000010
00000000
00000100
00000010
,
00001000
00000000
00000100
00000000
00000010
00000001
00000100
00000000
,
00000010
00000100
00001000
00010000
,
00001000
00000000
00000000
00000000
00100000
00000000
00010000
00100000
,
01000000
00100000
00010000
01000000
,
00100000
10000000
00010000
01000000
,
02200000
00000000
03300000
00010000
,
00110000
00000000
00000000
00000000
00001000
00000000
00010000
00001000
,
00000100
00000000
00000010
00000100
,
00000010
00000000
00001000
00000000
00000100
00000010
00000100
00000010
,
00000001
00001000
00000110
00000110
,
00001100
00000000
00001100
00000000
00011000
00000000
00011000
00010000
,
00001000
00010000
01000000
00100000
,
00010000
00000000
10000000
00000000
10000000
00000000
10000000
00100000
,
00010000
00000000
00000000
00000000
00100000
00000000
01000000
00001000
,
00010000
00000000
00000000
00000000
00001000
00000000
00010000
00000100
,
00000010
00000000
00000100
00000000
00001000
00000010
00001000
00000000
,
00000001
00000010
00000001
00000000
00001001
00000000
00001001
00000000
,
00000200
00000000
00000000
00000300
,
00002000
00000000
00000000
00003000
,
02000000
00000000
00000000
03000000
,
00200000
00000000
00000000
00300000
,
10000000
01000000
00010000
00000000
,
00001000
00000100
00000001
00000000
,
00001001
00000000
00000000
00000000
,
00000100
00000000
00010000
00000000
00001000
00001000
00001000
00000000
,
00010000
00001000
00011000
00011000
,
00110000
00000000
00110000
00000000
10010000
00000000
10010000
10000000
,
00100000
01000000
00100000
01000000
,
00010000
00000000
00100000
00000000
00100000
00000000
00100000
00001000
,
00010000
00000000
00000000
00000000
00001000
00000000
00010000
00000100
,
00000010
00000000
00000000
00000000
00000100
00000000
00001000
00000010
,
00000100
00000000
00000001
00000000
00001000
00000100
00001000
00000000
,
00000100
00000010
00000100
00000000
00010000
00000000
00001000
00000000
,
00011000
00011000
00001100
00001100
,
01010000
00000000
01010000
00000000
00011000
00000000
00011000
00001000
,
00100000
00010000
01000000
00100000
,
10000000
00000000
01000000
00000000
01000000
00000000
01000000
10000000
,
00010000
00000000
00000000
00000000
00100000
00000000
00001000
00010000
,
00001000
00000000
00000000
00000000
00000100
00000000
00000010
00001000
,
00000100
00000000
00011000
00000000
00000010
00000100
00000010
00000000
,
00000100
00000001
00000100
00000000
00000010
00001000
00000100
00001000
,
00000001
00000000
00000000
00000000
;

//---------------dance-double - ----------------
#NOTES:
     dance-double:
     :
     Hard:
     6:
     :
00000000
00000000
00000000
00000000
,
00000000
00000000
00000000
00000000
,
00000000
00000000
00000000
00000000
,
00000000
00000000
00000000
00000000
,
00000000
00000000
00000000
00000000
,
00010000
00100000
00010000
00000000
00100000
00000000
00011000
00000000
,
00001000
00000000
00000110
00000000
00000000
00000000
00000000
00000100
,
00000001
00000010
00000000
00000001
,
00000100
00001000
00010000
00100000
,
02000000
00000000
03100000
10000000
,
02000000
00000000
00000000
00000000
13000000
00000000
00010000
00100000
,
00001000
00010000
00001000
00010000
,
00000100
00000000
00000010
00000100
00001000
00000010
00000100
00000000
,
00000001
00001000
00000001
00000000
00000100
00000000
00001100
00000000
,
00010000
00000000
00011000
00000000
00110000
00000000
01100000
00100000
,
00010000
01000000
00000000
00100000
,
10000000
00000000
01000000
00000000
10000000
00100000
01000000
00000000
,
00020000
00000000
00130000
00001000
,
00020000
00000000
00000000
00000000
00031000
00000000
00000100
00000010
,
00001000
00000100
00000010
00000001
,
00000010
00000000
00000100
00010000
00001000
00010000
00001000
00000100
,
00000010
00000000
00000100
00000000
00001000
00010000
00001000
00000000
,
00100000
00000000
00010000
00000000
00110000
00000000
00010000
01000000
,
10000000
01000000
00010000
00000000
00100000
00000000
01000000
00000000
,
10000000
00010000
01000000
00000000
00010000
01000000
00001000
00010000
,
00000100
00000010
00000100
00001000
,
00000001
00000000
00000100
00000000
00001000
00000000
00010000
00100000
,
01000000
00000000
00010000
00000000
00100000
00000000
00001000
00010000
,
01000000
00100000
00010000
00000000
10000000
00000000
01000000
00000000
,
12000000
00000000
00000000
03100000
00000000
00000000
00000000
00000000
,
01200000
00000000
00000000
00310000
00000000
00000000
00000000
00000000
,
00210000
00000000
00000000
00301000
00000000
00000000
00000000
00000000
,
00012000
00000000
00000000
00003100
00000000
00000000
00000000
00000000
,
00000000
00000110
00000000
00001001
00000000
00000000
00000000
00000000
,
00000210
00000000
00000000
00001300
00000000
00000000
00010000
00001000
,
00020000
00000000
00000000
00000000
,
00000000
00000000
00030000
00000000
00001000
00010000
00001000
00000000
,
00100000
00000000
00010000
00000000
01000000
00100000
01000000
00000000
,
00100000
00000000
10000000
00000000
11000000
00000000
01000000
10000000
,
00100000
01000000
00010000
00000000
01000000
00000000
00001000
00000000
,
00010000
00001000
00000100
00000000
00000010
00001000
00000100
00000010
,
00000100
00001000
00000001
00000010
,
00000001
00000000
00000100
00000000
00000010
00000000
00000100
00001000
,
00010000
00000000
00001000
00000000
01000000
00000000
00100000
01000000
,
00100000
10000000
01000000
00000000
00100000
00000000
00001000
00000000
,
00010000
00000000
00000100
00000000
00001000
00000010
00001000
00000000
,
00000100
00000000
00000010
00000000
00000110
00000000
00000100
00001000
,
00000010
00001000
00000100
00000000
00000010
00000000
00000001
00000000
,
00000100
00000010
00001000
00000000
00000001
00000100
00010000
01000000
,
00100000
10000000
00010000
10000000
,
00100000
00000000
00010000
00000000
00001000
00000000
00010000
00000100
,
00000010
00000000
00000100
00000000
00001000
00000000
00000001
00000100
,
00000010
00000100
00000001
00000000
00000010
00000000
00000100
00010000
,
00001000
00000000
00000000
00000000
;
