#TITLE:Always;
#ARTIST:Amon Tobin;
#BANNER:Always.png;
#BACKGROUND:Always-bg.png;
#CDTITLE:./CDTITLES/DanceDanceRevolution UNIVERSE2.png;
#MUSIC:Always.ogg;
#SAMPLESTART:87.458;
#SAMPLELENGTH:15;
#BPMS:0=118;

//---------------dance-single - ----------------
#NOTES:
     dance-single:
     :
     Beginner:
     1:
     :
0000
0000
0000
0000
,
0000
0000
0000
0000
,
0000
0000
0000
0000
,
1000
0000
0000
0000
,
0100
0000
0000
0000
,
0010
0010
0000
0000
,
0000
0000
0000
0000
,
0100
0000
0000
0000
,
1000
0000
0001
0000
,
0100
0000
0000
0000
,
0010
0000
0010
0000
,
1000
0000
0000
0000
,
0001
0000
0001
0000
,
0100
0000
0010
0000
,
0100
0100
0100
0000
,
1000
0000
0010
0000
,
0001
0000
1000
0000
,
0100
0100
0000
0000
,
0010
0000
0000
0000
,
0110
0000
0000
0000
,
1001
0000
0000
0000
,
0020
0000
0000
0030
,
0000
0000
0000
0000
,
0100
0000
0100
0000
,
0100
0100
0100
0100
,
0100
0000
0000
0000
,
0001
0000
0000
0000
,
0100
0000
0000
0000
,
0010
0000
0000
0000
,
1000
0000
0100
0000
,
0001
0000
0000
0000
,
0001
0000
0010
0000
,
1000
0000
0010
0000
,
0001
0000
0000
1000
,
1000
0000
0000
0000
,
0010
0000
0100
0000
,
1000
1000
1000
0000
,
0001
0000
0010
0000
,
0100
0100
0100
0000
,
1000
0000
0010
0000
,
0001
0000
0100
0000
,
0020
0000
0000
0030
,
0010
0000
0000
0000
,
1000
1000
0000
0000
,
0001
0000
0100
0000
,
0010
0010
0000
0100
,
0100
0000
0000
0000
,
0001
0000
0010
0000
,
0100
0000
1000
0000
,
0001
0000
1000
1000
,
1000
0000
0001
0001
,
0001
0000
0000
0000
;

//---------------dance-single - ----------------
#NOTES:
     dance-single:
     :
     Easy:
     3:
     :
0000
0000
0000
0000
,
0000
0000
0000
0000
,
0000
0000
0000
0000
,
1001
0000
0000
0000
,
0110
0000
0000
0000
,
1000
0000
0000
0001
0000
0000
0100
0000
,
0010
0000
0000
1000
0000
0000
0100
0000
,
0001
0000
0000
1000
,
0100
0100
0010
0100
,
1000
0000
1000
1000
,
0100
0000
0001
0010
,
0001
0001
0000
0100
,
0010
0010
0000
1000
,
0001
0000
0000
1000
0000
0000
0001
0000
,
1000
0000
0000
0001
0000
0000
0100
0000
,
0010
0110
0000
0010
,
1000
0001
1000
0001
,
0100
0000
0000
0010
0000
0000
0100
0000
,
0010
0000
0100
0000
0000
1000
0100
0000
,
0001
0000
0000
1000
0000
0000
0001
0000
,
1000
0000
0010
0010
,
0100
0000
0001
0010
,
0100
0000
0000
0000
,
1000
0001
1000
0001
,
0100
0001
0100
0001
,
1000
0000
0000
0010
0000
0000
0100
0000
,
0001
0000
0000
0010
0000
0000
0100
0000
,
1000
0000
0001
1000
,
0010
0010
0010
0010
,
0100
0000
0010
0100
,
1000
1000
1000
1000
,
0002
0000
0103
0010
,
0100
0010
0100
1000
,
0100
0000
0000
0010
0000
0000
0001
0000
,
1000
0000
0000
0100
0000
0000
1000
0000
,
0010
0000
0100
0100
,
0200
0000
0000
0300
,
0100
0000
1000
0010
,
0002
0000
0000
0003
,
1000
0000
0010
0000
,
0100
0000
0001
0010
,
0100
0100
1000
1000
,
0002
0000
0000
1003
,
0001
0000
0000
1000
0000
0000
0010
0000
,
0100
0000
0000
0001
,
0010
0000
0000
0100
0000
0000
0001
0000
,
1000
0000
0000
0010
,
1000
0100
0010
0000
,
1000
0001
0100
0000
,
0010
0010
0010
0000
,
0100
0100
0100
0100
,
0100
0000
0000
0000
;

//---------------dance-single - ----------------
#NOTES:
     dance-single:
     :
     Medium:
     6:
     :
0000
0000
0000
0000
,
0000
0000
0000
0000
,
0000
0000
0000
0000
,
2000
0000
3001
0010
,
0100
1000
0100
0000
0001
0100
0001
0000
,
1000
0010
0001
0100
,
1000
0100
0001
0010
,
0100
0000
1000
0100
0000
0010
0001
0000
,
1000
0100
1000
0000
0001
0100
0001
0010
,
0100
0000
0100
0000
1000
0100
0010
0000
,
0010
0000
0010
0000
0001
0100
0010
0000
,
1000
0000
0001
0000
0100
1000
0010
0100
,
0001
1000
0001
1000
,
0100
0010
0001
0100
,
1000
0000
0010
0000
1000
0100
0001
0000
,
0010
0002
0003
1000
,
0010
0000
2000
0000
3000
0001
1000
0000
,
0010
1000
0100
0000
0000
0000
0001
0000
,
1000
0100
0001
0000
0000
0000
1000
0000
,
0010
1000
0100
0000
0000
0010
0001
0000
,
1000
0000
0100
0000
1000
1000
1000
0000
,
0001
0100
0010
1000
,
0010
0010
0110
0110
,
1000
0001
1000
1001
,
0001
1000
0001
1001
,
1000
0100
0010
0001
,
0100
0010
1000
0001
,
1000
0000
0001
0000
1000
0100
0001
0000
,
1000
0010
0100
0001
,
0200
0000
0300
0000
0010
1000
0100
0000
,
0010
0001
0010
0001
,
1000
0010
0100
0000
0001
0010
0100
0000
,
1000
0010
0100
0000
0001
0010
0100
0000
,
1000
0000
0001
0000
0100
1000
0010
0000
,
0100
0000
1000
0000
0010
0100
0001
0000
,
1000
0100
0001
0100
,
1000
0010
0110
0110
,
0001
0010
1000
0100
,
0001
1000
1001
1001
,
1000
0000
0010
0000
0100
0010
0100
0000
,
0001
0000
0010
0000
0100
1000
0100
0000
,
0001
0010
0100
1000
,
0100
0000
0010
0000
0001
0010
0001
0010
,
0001
0000
0100
0000
1000
0010
0100
0000
,
0001
0010
0100
1000
,
0010
0000
0100
0000
0001
0010
0100
1000
,
0010
0100
0001
1000
,
0001
0100
0010
0100
,
0001
0010
0100
1000
,
0001
1000
0010
0110
,
1000
0100
0010
0011
,
1100
0000
0000
0000
;

//---------------dance-single - ----------------
#NOTES:
     dance-single:
     :
     Hard:
     7:
     :
0000
0000
0000
0000
,
0000
0000
0000
0000
,
0000
0000
0000
0000
,
0110
0000
0000
1000
0000
0000
0010
0000
,
0100
0000
0001
0000
0100
0001
1000
0000
,
0100
0000
0100
0000
1000
0100
1000
0000
,
0002
0000
0000
0103
0000
0000
0010
0000
,
0001
1000
0000
0100
0000
1000
0010
0000
,
0100
0001
0010
0100
0000
0010
0100
1000
,
0100
0000
0000
0000
0001
0000
0000
1000
0100
0000
0010
0000
0001
0000
1000
0000
,
0010
0000
0000
0000
0010
0000
0000
0100
0001
0000
0000
0000
0010
0000
0000
0000
,
0110
0000
0000
0000
0010
0000
0000
0001
1000
0000
0010
0000
0100
0000
0001
0000
,
0010
0000
0000
0000
0100
0000
0000
0010
0100
0000
0000
0000
1001
0000
0000
0000
,
0010
0001
0100
0010
0000
0100
0010
0000
,
1000
0000
0000
0000
0001
0000
0000
1000
0001
0000
0000
0000
0110
0000
0000
0000
,
1000
0000
0101
0000
0000
1000
0100
0000
,
0001
0010
0100
0010
0000
0001
0100
0000
,
0010
1000
0010
2000
0000
3100
0010
0002
,
0000
0103
0010
2000
0000
3010
0100
0000
,
1001
0100
0010
0000
0000
0100
0001
0000
,
1000
0010
0100
0010
0000
0100
0010
0000
,
1000
0000
0100
0000
0010
0001
0001
0001
,
1000
0000
0100
0000
0010
0000
0001
0100
,
0010
0000
0000
0000
1000
0000
0000
0000
0001
0000
0000
0000
0101
0000
0000
0100
,
0010
1010
1100
1001
,
0100
1000
0010
0000
0100
0010
0100
0000
,
0010
0001
0100
0000
0010
1000
0100
0000
,
0100
1000
0001
0000
0000
0100
0010
0000
,
1000
0000
0000
0001
0100
0000
0000
0100
0010
0000
0000
0010
0100
0000
0000
0000
,
1000
0000
0000
0000
0001
0000
0000
1000
0100
0000
0010
0000
0100
0000
1000
0000
,
0020
1030
0100
0001
,
1000
0100
0001
0100
1000
0010
0100
0001
,
1000
0010
0001
0010
1000
0100
0010
0001
,
1000
1000
0000
0010
0000
0100
0001
0000
,
1000
0100
0000
0001
0000
1000
1000
0000
,
0002
2003
3010
0010
,
0110
0000
0110
0000
0100
1000
0010
0100
,
0002
2003
3010
0010
,
1100
0000
0011
0000
0100
1000
0001
0100
,
0010
1000
0010
0001
,
0100
0000
0100
0000
0010
1000
0100
0001
,
0010
0100
1000
0001
,
1000
1000
1000
0001
0001
0001
1000
0010
,
0100
0000
0100
0000
0001
0100
0001
0000
,
1000
0100
0010
0001
0000
1000
0010
0000
,
0100
0000
0000
0000
1000
0000
0000
0001
0100
0000
0010
0000
0100
0000
0001
0000
,
0101
0110
1010
1100
,
1000
0010
0100
0020
0000
1030
0100
0002
,
0000
0103
0010
0002
0000
0103
0010
0000
,
1020
0130
0021
0130
,
0010
0001
0100
1000
0100
0001
0010
0000
,
1001
0000
0000
0000
;

//---------------dance-double - ----------------
#NOTES:
     dance-double:
     :
     Beginner:
     1:
     :
00000000
00000000
00000000
00000000
,
00000000
00000000
00000000
00000000
,
00000000
00000000
00000000
00000000
,
00000100
00000000
00000000
00000000
,
00000001
00000000
00000000
00000000
,
00001000
00001000
00000000
00000000
,
00000010
00000000
00000000
00000000
,
00010000
00000000
00000000
00000000
,
00001000
00000000
00100000
00000000
,
00010000
00000000
00000000
00000000
,
01000000
00000000
01000000
00000000
,
00100000
00000000
00000000
00000000
,
10000000
00000000
10000000
00000000
,
00100000
00000000
01000000
00000000
,
00010000
00010000
00010000
00000000
,
00100000
00000000
00001000
00000000
,
00010000
00000000
00000100
00000000
,
00000010
00000010
00000000
00000000
,
00000100
00000000
00000000
00000000
,
00000110
00000000
00000000
00000000
,
00001001
00000000
00000000
00000000
,
00000200
00000000
00000000
00000300
,
00000000
00000000
00000000
00000000
,
00000010
00000000
00010000
00000000
,
00001000
00000000
00001000
00000000
,
00001000
00000000
00000000
00000000
,
01000000
00000000
00000000
00000000
,
00010000
00000000
00000000
00000000
,
01000000
00000000
00000000
00000000
,
00100000
00000000
10000000
00000000
,
00010000
00000000
00000000
00000000
,
00100000
00000000
00001000
00000000
,
00010000
00000000
00000100
00000000
,
00001000
00000000
00000000
00000010
,
00000010
00000000
00000000
00000000
,
00000001
00000000
00000100
00000000
,
00001000
00001000
00001000
00000000
,
00000010
00000000
00010000
00000000
,
00001000
00001000
00001000
00000000
,
01000000
00000000
00100000
00000000
,
10000000
00000000
00010000
00000000
,
20000000
00000000
00000000
30000000
,
10000000
00000000
00000000
00000000
,
00010000
00010000
00000000
00000000
,
00100000
00000000
00001000
00000000
,
00010000
00010000
00000000
00001000
,
00001000
00000000
00000000
00000000
,
00000100
00000000
00000010
00000000
,
00000100
00000000
00000001
00000000
,
00001000
00000000
00000100
00000100
,
00000100
00000000
00010000
00010000
,
00010000
00000000
00000000
00000000
;

//---------------dance-double - ----------------
#NOTES:
     dance-double:
     :
     Easy:
     3:
     :
00000000
00000000
00000000
00000000
,
00000000
00000000
00000000
00000000
,
00000000
00000000
00000000
00000000
,
00000110
00000000
00000000
00000000
,
00001001
00000000
00000000
00000000
,
00000100
00000000
00000000
00001000
00000000
00000000
00010000
00000000
,
00001000
00000000
00000000
00100000
00000000
00000000
00010000
00000000
,
00100000
00000000
00000000
10000000
,
01000000
01000000
00010000
00001000
,
00000100
00000000
00000010
00000010
,
00001000
00000000
00000001
00000100
,
00001000
00001000
00000000
00010000
,
00001000
00001000
00000000
01000000
,
00010000
00000000
00000000
01000000
00000000
00000000
00100000
00000000
,
10000000
00000000
00000000
00010000
00000000
00000000
01000000
00000000
,
00001000
00011000
00000000
00010000
,
00000100
00001000
00000100
00000010
,
00000001
00000000
00000000
00001000
00000000
00000000
00000100
00000000
,
00010000
00000000
00001000
00000000
00000000
00100000
00010000
00000000
,
01000000
00000000
00000000
00100000
00000000
00000000
01000000
00000000
,
10000000
00000000
01000000
00010000
,
00100000
00000000
00001000
00010000
,
00001000
00000000
00000000
00000000
,
00000100
00000010
00000100
00000010
,
00001000
00000010
00001000
00000010
,
00001000
00000000
00000000
00000100
00000000
00000000
00010000
00000000
,
00001000
00000000
00000000
00100000
00000000
00000000
00010000
00000000
,
10000000
00000000
00010000
10000000
,
00100000
00100000
00100000
00100000
,
01000000
00000000
00001000
00010000
,
00000010
00000010
00000010
00000010
,
00002000
00000000
00003000
00000100
,
00000010
00000001
00000100
00000100
,
00001000
00000000
00000000
00010000
00000000
00000000
00001000
00000000
,
00010000
00000000
00000000
01000000
00000000
00000000
00100000
00000000
,
00010000
00000000
10000000
10000000
,
02000000
00000000
00000000
03000000
,
00010000
00000000
00001000
00001000
,
00000200
00000000
00000000
00000300
,
00000010
00000000
00001000
00000000
,
00000001
00000000
00000100
00001000
,
00010000
00010000
00100000
00100000
,
02000000
00000000
03000000
00100000
,
10000000
00000000
00000000
01000000
00000000
00000000
00010000
00000000
,
00001000
00000000
00000000
00010000
,
00010000
00000000
00000000
00000100
00000000
00000000
00001000
00000000
,
00000010
00000000
00000000
00010000
,
00001000
00100000
00010000
00000000
,
10000000
00100000
01000000
00000000
,
00001000
00001000
00001000
00000000
,
00010000
00010000
00010000
00000100
,
00000100
00000000
00000000
00000000
;

//---------------dance-double - ----------------
#NOTES:
     dance-double:
     :
     Medium:
     5:
     :
00000000
00000000
00000000
00000000
,
00000000
00000000
00000000
00000000
,
00000000
00000000
00000000
00000000
,
00020000
00000000
00030010
00000100
,
00000001
00000010
00000001
00000000
00001000
00000100
00001000
00000000
,
00000100
00010000
00001000
01000000
,
00010000
00100000
01000000
10000000
,
00100000
00000000
01000000
00010000
00000000
00100000
00001000
00000000
,
00010000
00001000
00010000
00000000
00000100
00001000
00000100
00000010
,
00000001
00000000
00000100
00000000
00000010
00000100
00001000
00000000
,
00010000
00000000
00010000
00000000
00001000
00100000
00010000
00000000
,
01000000
00000000
00100000
00000000
10000000
00100000
10000000
01000000
,
00010000
00001000
00000100
00000001
,
00001000
00000010
00001000
00000001
,
00000100
00000000
00001000
00000000
00010000
01000000
10000000
00000000
,
00100000
20000000
30000000
00010000
,
00100000
00000000
00002000
00000000
00003000
00010000
00000100
00000000
,
00000010
00000001
00000100
00000000
00000000
00000000
00001000
00000000
,
00010000
00100000
01000000
00000000
00000000
00000000
00010000
00000000
,
00100000
01000000
10000000
00000000
00000000
01000000
00010000
00000000
,
00001000
00000000
00000100
00000000
00000010
00000010
00000010
00000000
,
00001000
00000001
00000100
00000010
,
00010000
00001000
00011000
00011000
,
00010000
01000000
00100000
01100000
,
10000000
01000000
00010000
00011000
,
00001000
00000100
00000010
00001000
,
00000001
00000100
00001000
00010000
,
00001000
00000000
00100000
00000000
00010000
10000000
01000000
00000000
,
00010000
00001000
00000100
00000010
,
00002000
00000000
00003000
00000000
00000001
00000100
00001000
00000000
,
00010000
00001000
01000000
00010000
,
10000000
00100000
01000000
00000000
00010000
00100000
01000000
00000000
,
10000000
01000000
00010000
00000000
00001000
00000100
00000001
00000000
,
00001000
00000000
00000010
00000000
00001000
00000100
00000100
00000000
,
00010000
00000000
00001000
00000000
01000000
00010000
00010000
00000000
,
01000000
00100000
10000000
01000000
,
00010000
00001000
00011000
00011000
,
00001000
00000010
00000100
00001000
,
00000001
00000010
00000110
00000110
,
00001000
00000000
00000100
00000000
00010000
00001000
00010000
00000000
,
00001000
00000000
00100000
00000000
00010000
00100000
00010000
00000000
,
01000000
00100000
10000000
01000000
,
00010000
00000000
00001000
00000000
00000100
00000010
00000100
00000010
,
00000100
00000000
00000001
00000000
00000010
00000100
00001000
00000000
,
00000100
00010000
00001000
00100000
,
00001000
00000000
00010000
00000000
00001000
00010000
00100000
01000000
,
00100000
10000000
00100000
00010000
,
00001000
00000010
00000001
00001000
,
00000010
00000100
00000001
00000100
,
00001000
00010000
00001000
00011000
,
00000100
00000010
00000001
00000011
,
00001100
00000000
00000000
00000000
;

//---------------dance-double - ----------------
#NOTES:
     dance-double:
     :
     Hard:
     7:
     :
00000000
00000000
00000000
00000000
,
00000000
00000000
00000000
00000000
,
00000000
00000000
00000000
00000000
,
00000000
00000000
00000000
00000000
,
00000000
00000000
00000000
00000000
,
10010000
00000000
01000000
00000000
00010000
00001000
00001000
00000000
,
00010000
00000010
00000100
00000010
00001000
00000001
00000100
00000000
,
00001010
00001000
00000100
00010000
00001000
00100000
00010000
00000000
,
01010000
00000000
01000000
00000000
00100000
10000000
00000000
01000000
10000000
00000000
00010000
00100000
00000000
00100000
01000000
00000000
,
00020000
00000000
00000000
00000000
00032000
00000000
00000000
00003100
00000010
00000000
00001000
00000000
00000001
00000000
00000100
00000000
,
00002000
00000000
00000000
00000000
00023000
00000000
00000000
00031000
00020000
00000000
00000000
00000000
00230000
00000000
00000000
00000000
,
10300000
00000000
01000000
00000000
00100000
00010000
00100000
00000000
01000000
00000000
10000000
00000000
11000000
00000000
00000000
00000000
,
01000000
00000000
00010000
00000000
00001000
00010000
00000000
00000100
00001000
00000000
00000001
00000010
00000000
00000000
00000100
00000000
,
00000010
00000001
00000100
00001000
00010000
00100000
01000000
00010000
,
10000000
00000000
01000000
00000000
00100000
00010000
00000000
00100000
01000000
00000000
10000000
01000000
00000000
00010000
00002000
00000000
,
00010000
00003000
00020200
00000000
00000300
00031000
00010010
00000000
,
00001010
00000000
00000100
00000000
00000010
00000100
00000000
00000001
00001000
00000000
00000100
00000000
00010000
00000000
00001000
00000000
,
00100000
00010000
01000000
00100000
10000000
01000000
00100000
00001000
,
00010000
00000010
00001000
00000100
00000010
00000001
00000100
00001000
,
00020000
00031000
00001000
00002000
,
00103000
00010000
01000000
00001000
00100000
00010000
01000000
00000000
,
10100000
00000000
01000000
00100000
10000000
01000000
00010000
00001000
,
00000100
00000100
00000001
00000100
00001000
00001000
00010000
00100000
,
01100000
00000000
01010000
00000000
01001000
00010000
00011000
00000000
,
00010010
00000000
00001000
00000000
00000100
00001000
00000000
00000010
00000100
00000000
00000001
00001000
00000000
00000000
00000000
00000000
,
00000010
00000100
00000001
00001000
00000100
00000010
00001000
00010000
,
00100000
01000000
00010000
10000000
01000000
00100000
00001000
00010000
,
00000100
00000000
00001000
00000000
00000001
00000001
00000100
00000010
,
00001000
00000000
00000000
00000000
00000100
00000000
00000000
00000100
00010000
00000000
00000000
00000000
00001000
00000000
00000000
00000000
,
00110000
00000000
00000000
00000000
01000000
00000000
00100000
00010000
00000000
00000000
10000000
00000000
01000000
00000000
00010000
00000000
,
00001000
00000000
00000000
00000000
00000100
00000000
00000001
00000100
00000000
00000000
00000000
00000000
00001000
00000000
00000000
00000000
,
00100000
00001000
00010000
00001000
01000000
00001000
00010000
00000100
,
00010000
00001000
00010000
00000010
00001000
00000000
00000100
00000000
,
00000011
00001000
00000100
00010000
00001000
00100000
00010000
00000000
,
01000000
00100000
10000000
00010000
01000000
00001000
00010000
00000000
,
00000200
00002300
00003002
00000023
,
00000001
00000100
00002030
00023000
,
00230000
00010000
01000000
20300000
,
32000000
00000000
03020000
00000000
00031000
00000010
00000001
00000010
,
00000200
00000000
00002300
00000000
00000000
00003010
00020000
00000000
,
00001000
00000000
00000100
00000000
00031000
00010000
01000000
00100000
,
00020000
00000000
20030000
00000000
30000000
01000000
00010000
00001000
,
00000100
00000000
00000010
00001010
00000000
00000100
00000101
00000000
,
00000001
00000100
00001000
00010000
01000000
10000000
01000000
00010000
,
00001000
00010000
00100000
10000000
00100000
00010000
00001000
00000100
,
00000001
00000010
00001000
00010000
00000100
00001000
00000100
00010000
,
00001000
00100000
00010000
01000000
00100000
10000000
00010000
10000000
,
01000000
00010000
00001000
00000010
00000100
00001000
00000010
00000100
,
00001000
00010000
00100000
01000000
00010000
10000000
00010000
00000000
,
11000000
01010000
00101000
00011000
,
00010100
00001010
00000101
00001001
,
00000110
00000000
00000000
00000000
;
