#TITLE:Akiba Drift;
#ARTIST:Ko Kimura;
#BANNER:Akiba Drift.png;
#BACKGROUND:Akiba Drift-bg.png;
#CDTITLE:./CDTITLES/DanceDanceRevolution UNIVERSE2.png;
#MUSIC:Akiba Drift.ogg;
#SAMPLESTART:47.272;
#SAMPLELENGTH:15;
#BPMS:0=132;

//---------------dance-single - ----------------
#NOTES:
     dance-single:
     :
     Beginner:
     1:
     :
0000
0000
0000
0000
,
0000
0000
0000
0000
,
0000
0000
0000
0000
,
0000
0000
0000
0000
,
1000
0000
0001
0000
,
0100
0000
0010
0000
,
0100
0100
0000
0000
,
0001
0000
1000
0000
,
0000
0100
0000
0010
,
0010
0000
0000
1000
,
0000
0000
0010
0000
,
1001
0000
0000
0010
,
0000
1000
0000
0000
,
0110
0000
0000
0010
,
0000
0000
1000
0000
,
1001
0000
0000
1000
,
0000
0001
0000
0010
,
0010
0000
0000
1000
,
0000
0100
0000
0001
,
0000
1000
1000
0000
,
0000
0100
0000
0001
,
0000
0010
0000
0001
,
0001
0000
0000
0100
,
0000
0000
1000
1000
,
0000
0000
0010
0000
,
0001
0000
0100
0000
,
0010
0000
1000
0000
,
0100
0000
0001
0000
,
1000
0000
0100
0000
,
0000
0010
0000
0010
,
0000
0001
0000
1000
,
0000
0100
0000
0001
,
0001
0000
0000
0100
,
0000
0000
1000
0000
,
0001
0000
0100
0000
,
1001
0000
0000
0001
,
0000
0010
0000
0000
,
0110
0000
0000
0100
,
0000
1000
0000
0000
,
1001
0000
0000
0010
,
0000
1000
0000
0001
,
0001
0000
0000
0100
,
0000
0010
0000
1000
,
1000
0000
0000
0100
,
0000
0001
0000
0010
,
0000
1000
0000
0001
,
0000
0100
0000
1000
,
0000
0010
0000
0010
,
0000
1000
0000
1000
,
0000
1000
0000
0001
,
0000
0100
0000
0010
,
0000
1000
0000
0100
,
0000
0001
0000
0010
,
0000
1000
1000
0000
,
0000
0010
0010
0000
,
0000
0001
0001
0000
,
0000
0010
0010
0000
,
0000
1001
0000
1001
;

//---------------dance-single - ----------------
#NOTES:
     dance-single:
     :
     Easy:
     2:
     :
0000
0000
0000
0000
,
0000
0000
0000
0000
,
0000
0000
0000
0000
,
0000
0000
0000
0000
,
1000
0000
0001
0000
,
1000
0000
0010
0100
,
1000
0000
0001
0010
,
1000
0001
0100
0000
,
0000
0001
0010
0100
,
0010
0100
2000
3000
,
0002
0000
0000
0003
,
0020
0000
0000
0030
,
2000
0000
0000
3000
,
0200
0000
0000
0300
,
1020
0000
0000
0030
,
0002
0000
0000
0003
,
0201
0000
0000
0300
,
2000
0000
0000
3000
,
0001
0000
1000
0001
,
1000
0000
0010
0100
,
0100
0000
0010
0001
,
0010
0000
0001
1000
,
0100
1000
0000
0010
,
0100
0010
0000
1000
,
0001
0100
0000
0010
,
0110
0000
0000
0110
,
0000
1000
1000
0001
,
0000
0100
1000
0010
,
0000
0100
0001
0001
,
0000
0100
0010
1000
,
0100
0010
0001
0000
,
0100
1000
1000
0000
,
0001
0010
0010
0000
,
1000
0100
1000
0000
,
0210
0000
0000
0300
,
2001
0000
0000
3000
,
0102
0000
0000
0003
,
0020
0000
0000
0030
,
2001
0000
0000
3000
,
0200
0000
0000
0300
,
0021
0000
0000
0030
,
0002
0000
0000
0003
,
1020
0000
0000
0030
,
2000
0000
0000
3000
,
0200
0000
0000
0300
,
0020
0000
0000
0030
,
1000
0000
0000
0100
0000
0000
0001
0000
,
0200
0000
0000
0300
,
0010
0000
0000
0001
0000
0000
1000
0000
,
0220
0000
0000
0330
,
0000
0100
1000
0010
,
0000
0100
0001
1000
,
0000
0010
1000
0100
,
0000
1000
0001
0100
,
0000
0100
0010
1000
,
0000
0001
1000
0010
,
0000
1000
0001
0100
,
0010
0100
0000
1001
;

//---------------dance-single - ----------------
#NOTES:
     dance-single:
     :
     Medium:
     5:
     :
0000
0000
0000
0000
,
0000
0000
0000
0000
,
0000
0000
0000
0000
,
0000
0000
0000
0000
,
1000
0000
0001
0000
,
1000
0001
0010
0100
,
1000
0001
0010
0000
0001
0100
0010
0000
,
1000
0100
0001
0000
1001
0000
0110
0000
,
1000
0010
0001
0000
0010
1000
0100
0000
,
0010
1000
0100
0000
2200
0000
3300
0000
,
0001
0000
0000
0100
0000
0000
1000
0000
,
0020
0000
0000
0030
,
0100
0000
0000
1000
0000
0000
0001
0000
,
0200
0000
0000
0300
,
0100
0000
0000
0001
0000
0000
1001
0000
,
0002
0000
0000
0003
,
0010
0000
0000
1000
0000
0000
1001
0000
,
2000
0000
0000
3000
,
1001
0000
0100
0001
0010
0000
0110
0000
,
1010
0000
1000
0100
0010
0000
0101
0000
,
1100
0000
0010
0100
0100
0000
0011
0000
,
1010
0000
0100
1000
0001
0000
1001
0000
,
0120
1000
0100
1030
,
0101
0000
0010
0001
0100
0000
1100
0000
,
1100
0000
0010
0001
1000
0000
1001
0000
,
0110
0000
1000
1000
0001
0000
0110
0000
,
0001
0100
1000
0000
1000
0010
0001
0000
,
0001
0010
0100
0000
1000
0100
0010
0000
,
0100
0010
0100
0000
0001
1000
0001
0000
,
0001
1000
0100
0000
0010
0001
1000
0000
,
0100
1000
0010
0000
0001
0010
1000
0000
,
0100
0010
1000
0000
1000
0100
0100
0000
,
0001
0001
0010
0000
0010
1000
0100
0000
,
1000
1000
0100
0000
1000
0001
0010
0000
,
0100
0000
0000
1001
0000
0000
0100
0010
,
2000
0000
0000
0100
0000
0000
3000
0000
,
0100
0000
0000
1001
0000
0000
0001
1000
,
0020
0000
0000
0100
0000
0000
0030
0000
,
1000
0000
0000
0011
0000
0000
0100
0001
,
0200
0000
0000
1000
0000
0000
0300
0000
,
0001
0000
0000
1000
0000
0000
0100
0010
,
0002
0000
0000
0100
0000
0000
0003
0000
,
0010
0000
0000
1100
0000
0000
0010
0010
,
2000
0000
0000
3000
,
0011
0000
0000
0100
0000
0000
1000
0000
,
0022
0000
0000
0033
,
1100
0000
0000
0100
0000
0000
0001
0000
,
2200
0000
0000
3300
,
0110
0000
0000
0001
0000
0000
1000
0000
,
0220
0000
0000
0330
,
0001
0100
1000
0010
,
1000
0100
0001
1000
,
0100
0010
1000
0100
,
0001
1000
0001
0100
,
1001
0110
0011
1100
,
1100
0101
1010
0011
,
0100
1000
0010
0000
0001
1000
0100
0000
,
0010
1000
0001
0000
0220
0000
0330
1001
;

//---------------dance-single - ----------------
#NOTES:
     dance-single:
     :
     Hard:
     6:
     :
0000
0000
0000
0000
,
0000
0000
0000
0000
,
0000
0000
0000
0000
,
0000
0000
0000
0000
,
1000
0000
0001
0000
,
0000
0001
1000
0100
0000
1000
0001
0010
,
1000
1000
0001
0000
0100
0000
0100
0000
0001
0001
0100
0000
0010
0000
0010
0000
,
0100
0100
0001
0000
1000
0000
1000
0000
0010
0010
1000
0000
1000
0000
0001
0000
,
0100
0100
0001
0000
0001
0000
0001
0000
1000
1000
0100
0000
0010
0000
0010
0000
,
0100
0100
0001
0000
1000
0000
1000
0000
1000
0010
1000
0000
0001
0000
0100
0000
,
1000
0000
0000
0001
0000
0000
1000
0000
,
2000
0000
0000
3000
,
0010
0000
0000
0100
0000
0000
0010
0000
,
0020
0000
0000
0000
0000
0000
0000
0000
0000
0000
0000
0000
0000
0030
0000
0000
,
0100
0000
0000
1000
0010
0000
0100
0000
0010
0000
1000
0000
0001
1000
0000
0000
,
0100
0000
0000
0001
0010
0000
0100
0000
0010
0000
0001
0000
1000
0001
0000
0000
,
0010
0000
0000
1000
0100
0000
0010
0000
0100
0000
1000
0000
0001
1000
0000
0000
,
0010
0000
0000
0001
0100
0000
0010
0000
0000
0100
0001
0000
1000
0001
0000
0000
,
1000
0000
0000
0100
0010
0000
0001
0000
1000
0000
0000
0100
0001
0000
0010
0000
,
0001
0000
0000
0100
0010
0000
1000
0000
0001
0000
0000
0100
1000
0000
0010
0000
,
1000
0000
0000
0010
0100
0000
0001
0000
1000
0000
0000
0010
0001
0000
0100
0000
,
0000
1001
0000
0110
0000
1001
0000
0000
,
2020
0000
0000
3030
,
0000
1000
0001
0100
0010
1000
0001
0100
,
0010
1000
0001
0100
0001
0100
0010
1000
,
0000
0001
1000
0010
0100
0001
1000
0010
,
0100
0001
1000
0010
1000
0010
0100
0001
,
0000
0001
1000
0100
0010
0001
1000
0001
,
0100
0001
1000
0100
1000
0100
0010
0001
,
1001
0100
0010
1000
0001
0010
0100
0001
,
0100
1000
0010
0001
0010
0100
0001
0100
,
0110
0001
1000
0100
0010
1000
0001
0010
,
0011
0100
1000
0010
1100
0001
0010
0001
,
1000
0000
0010
1000
0002
0000
0000
0000
0000
0000
0003
0000
0000
0000
0010
0000
,
0001
0000
0000
0110
0000
0000
1000
0010
,
0200
0000
0000
0001
0000
0000
0300
0001
,
0100
0000
0000
1010
0000
0000
0001
1000
,
0020
0000
0000
0100
0000
0000
0030
1000
,
0001
0000
0000
1001
0000
0000
0100
0001
,
2000
0000
0000
0001
0000
0000
3000
0100
,
0001
0000
0000
0011
0000
0000
0100
1000
,
0002
0000
0000
1000
0000
0000
0003
0100
,
1000
0000
0000
0101
0000
0000
0001
0010
,
2000
0000
0000
0010
0000
0000
3000
0010
,
1001
0000
0000
0110
0000
0000
1010
0000
,
0202
0000
0000
0303
,
0011
0000
0000
1100
0000
0000
1001
0000
,
0220
0000
0000
0330
,
1010
0000
0000
0101
0000
0000
1100
0000
,
1001
0000
0000
0000
,
1000
0000
0001
0100
0000
0000
0010
0000
1000
0000
0001
1000
0000
0000
0100
0000
,
0001
0000
1000
0100
0000
0000
0010
0000
0001
0000
1000
0001
0000
0000
0100
0000
,
0001
0000
1000
0010
0000
0000
0100
0000
0001
0000
1000
0001
0000
0000
0010
0000
,
1000
0000
0001
0100
0000
0000
0010
0000
1000
0000
0001
1000
0000
0000
0100
0000
,
1001
0000
0001
0100
0000
0000
0010
0000
1010
0000
0001
1000
0000
0000
0100
0000
,
0110
0000
0010
0001
0000
0000
1000
0000
1100
0000
0010
0100
0000
0000
0001
0000
,
1000
0100
0001
0000
0000
0000
0000
0000
0001
0010
1000
0000
0000
0000
0000
0000
,
1000
0100
0010
0001
0220
0000
0330
1001
;

//---------------dance-double - ----------------
#NOTES:
     dance-double:
     :
     Beginner:
     1:
     :
00000000
00000000
00000000
00000000
,
00000000
00000000
00000000
00000000
,
00000000
00000000
00000000
00000000
,
00000000
00000000
00000000
00000000
,
10000000
00000000
00010000
00000000
,
01000000
00000000
00100000
00000000
,
00010000
00010000
00000000
00000000
,
00001000
00000000
00000010
00000000
,
00000000
00000100
00000000
00000010
,
00000010
00000000
00000000
00001000
,
00000000
00000000
00000010
00000000
,
00001001
00000000
00000000
00000010
,
00000000
00001000
00000000
00000000
,
00011000
00000000
00000000
00100000
,
00000000
00000000
10000000
00000000
,
10010000
00000000
00000000
10000000
,
00000000
00010000
00000000
00100000
,
00100000
00000000
00000000
10000000
,
00000000
01000000
00000000
00010000
,
00000000
00001000
00001000
00000000
,
00000000
00000100
00000000
00000001
,
00000000
00000010
00000000
00000001
,
00000001
00000000
00000000
00000100
,
00000000
00000000
00001000
00001000
,
00000000
00000000
00100000
00000000
,
00010000
00000000
01000000
00000000
,
00100000
00000000
10000000
00000000
,
01000000
00000000
00010000
00000000
,
10000000
00000000
01000000
00000000
,
00000000
00100000
00000000
00100000
,
00000000
00010000
00000000
00001000
,
00000000
00000100
00000000
00010000
,
00010000
00000000
00000000
00000100
,
00000000
00000000
00001000
00000000
,
00000001
00000000
00000100
00000000
,
00011000
00000000
00000000
00010000
,
00000000
00100000
00000000
00000000
,
01100000
00000000
00000000
01000000
,
00000000
00010000
00000000
00000000
,
00011000
00000000
00000000
00000010
,
00000000
00001000
00000000
00000001
,
00000001
00000000
00000000
00000100
,
00000000
00000010
00000000
00001000
,
00001000
00000000
00000000
01000000
,
00000000
00010000
00000000
00100000
,
00000000
10000000
00000000
00010000
,
00000000
01000000
00000000
10000000
,
00000000
00100000
00000000
00100000
,
00000000
00001000
00000000
00010000
,
00000000
00001000
00000000
00010000
,
00000000
00000100
00000000
00000010
,
00000000
00001000
00000000
00000100
,
00000000
00010000
00000000
00001000
,
00000000
00010000
00010000
00000000
,
00000000
00001000
00001000
00000000
,
00000000
00010000
00010000
00000000
,
00000000
00001000
00001000
00000000
,
00000000
00011000
00000000
00011000
;

//---------------dance-double - ----------------
#NOTES:
     dance-double:
     :
     Easy:
     2:
     :
00000000
00000000
00000000
00000000
,
00000000
00000000
00000000
00000000
,
00000000
00000000
00000000
00000000
,
00000000
00000000
00000000
00000000
,
00001000
00000000
00010000
00000000
,
00001000
00000000
00000100
00000010
,
00000001
00000000
00001000
00100000
,
00001000
00010000
00000100
00000000
,
00000000
00000001
00000010
00000100
,
00000010
00000100
00002000
00003000
,
00020000
00000000
00000000
00030000
,
00200000
00000000
00000000
00300000
,
00020000
00000000
00000000
00030000
,
00002000
00000000
00000000
00003000
,
00000201
00000000
00000000
00000300
,
00020000
00000000
00000000
00030000
,
00012000
00000000
00000000
00003000
,
00200000
00000000
00000000
00300000
,
00010000
00000000
10000000
00010000
,
10000000
00000000
00100000
01000000
,
01000000
00000000
00100000
00010000
,
00100000
00000000
00001000
00000100
,
00000010
00000100
00000000
00000001
,
00000010
00000001
00000000
00001000
,
00000001
00000100
00000000
00000010
,
00000110
00000000
00000000
00000110
,
00000000
00001000
00001000
00010000
,
00000000
01000000
00010000
00100000
,
00000000
01000000
00010000
00010000
,
00000000
01000000
00100000
10000000
,
01000000
00100000
00010000
00000000
,
00000100
00001000
00001000
00000000
,
00010000
00100000
00100000
00000000
,
00001000
00000100
00001000
00000000
,
00021000
00000000
00000000
00030000
,
00012000
00000000
00000000
00003000
,
00020100
00000000
00000000
00030000
,
00002000
00000000
00000000
00003000
,
00000120
00000000
00000000
00000030
,
00000002
00000000
00000000
00000003
,
00001200
00000000
00000000
00000300
,
00020000
00000000
00000000
00030000
,
00210000
00000000
00000000
00300000
,
00002000
00000000
00000000
00003000
,
00020000
00000000
00000000
00030000
,
00200000
00000000
00000000
00300000
,
10000000
00000000
00000000
01000000
00000000
00000000
00010000
00000000
,
00002000
00000000
00000000
00003000
,
00100000
00000000
00000000
00010000
00000000
00000000
00001000
00000000
,
00022000
00000000
00000000
00033000
,
00000000
00010000
00001000
00000010
,
00000000
00000100
00001000
00000001
,
00000000
00000010
00001000
00000100
,
00000000
00001000
00000001
00000100
,
00000000
00010000
00001000
00010000
,
00000000
00010000
01000000
00100000
,
00000000
01000000
00010000
00001000
,
00010000
00001000
00000000
00011000
;

//---------------dance-double - ----------------
#NOTES:
     dance-double:
     :
     Medium:
     5:
     :
00000000
00000000
00000000
00000000
,
00000000
00000000
00000000
00000000
,
00000000
00000000
00000000
00000000
,
00000000
00000000
00000000
00000000
,
10000000
00000000
00010000
00000000
,
00001000
00001000
00000100
00000010
,
00000001
00000010
00000000
00000001
00000100
00000010
00000100
00000000
,
00001000
00010000
00001000
00000000
00011000
00000000
01100000
00000000
,
00010000
00100000
00010000
00000000
00100000
10000000
01000000
00000000
,
00010000
00100000
00010000
00000000
22000000
00000000
33000000
00000000
,
00010000
00000000
00000000
00001000
00000000
00000000
00010000
00000000
,
00002000
00000000
00000000
00003000
,
01000000
00000000
00000000
10000000
00000000
00000000
00010000
00000000
,
02000000
00000000
00000000
03000000
,
01000000
00000000
00000000
00010000
00000000
00000000
00011000
00000000
,
00020000
00000000
00000000
00030000
,
00000010
00000000
00000000
00001000
00000000
00000000
00011000
00000000
,
00002000
00000000
00000000
00003000
,
00011000
00000000
01000000
00010000
00100000
00000000
00110000
00000000
,
00011000
00000000
00001000
00010000
00100000
00000000
00011000
00000000
,
00001100
00000000
00010000
01000000
01000000
00000000
00110000
00000000
,
00011000
00000000
00000100
00001000
00000010
00000000
00011000
00000000
,
00000210
00000001
00000010
00000301
,
00001010
00000000
00100000
00010000
01000000
00000000
01010000
00000000
,
01010000
00000000
00100000
00010000
00001000
00000000
00011000
00000000
,
00011000
00000000
00010000
00010000
00100000
00000000
00110000
00000000
,
00010000
00001000
00000100
00000000
00010000
00001000
00000100
00000000
,
00001000
00000100
00000010
00000000
00000100
00000010
00000001
00000000
,
00000100
00000010
00000100
00000000
00000001
00001000
00000001
00000000
,
00000001
00001000
00000100
00000000
00000010
00000001
00001000
00000000
,
00000100
00001000
00100000
00000000
00010000
00100000
00001000
00000000
,
00000100
00000010
00010000
00000000
00010000
00001000
00001000
00000000
,
00010000
00010000
00000100
00000000
00000100
00001000
00000100
00000000
,
00001000
00001000
00000100
00000000
00001000
00010000
00100000
00000000
,
01000000
00000000
00000000
00011000
00000000
00000000
00010000
00001000
,
00020000
00000000
00000000
00001000
00000000
00000000
00030000
00000000
,
00001000
00000000
00000000
00011000
00000000
00000000
00010000
01000000
,
00200000
00000000
00000000
01000000
00000000
00000000
00300000
00000000
,
10000000
00000000
00000000
00110000
00000000
00000000
01000000
00010000
,
02000000
00000000
00000000
10000000
00000000
00000000
03000000
00000000
,
00010000
00000000
00000000
00001000
00000000
00000000
00000100
00000010
,
00000002
00000000
00000000
00000010
00000000
00000000
00000003
00000000
,
00100100
00000000
00000000
00001100
00000000
00000000
00000010
00000010
,
00002000
00000000
00000000
00003000
,
00110000
00000000
00000000
01000000
00000000
00000000
10000000
00000000
,
00220000
00000000
00000000
00330000
,
01100000
00000000
00000000
00001000
00000000
00000000
00010000
00000000
,
00022000
00000000
00000000
00033000
,
00000110
00000000
00000000
00000001
00000000
00000000
00001000
00000000
,
00000220
00000000
00000000
00000330
,
00000001
00000100
00001000
00000010
,
00001000
00000100
00000001
00001000
,
00010000
00001000
00100000
01000000
,
00010000
10000000
00010000
01000000
,
10010000
01100000
00110000
00011000
,
00000110
00000011
00001010
00001100
,
00001000
00010000
00100000
00000000
01000000
00010000
00100000
00000000
,
01000000
00010000
00100000
00000000
02200000
00000000
03300000
00011000
;

//---------------dance-double - ----------------
#NOTES:
     dance-double:
     :
     Hard:
     7:
     :
00000000
00000000
00000000
00000000
,
00000000
00000000
00000000
00000000
,
00000000
00000000
00000000
00000000
,
00000000
00000000
00000000
00000000
,
00000001
00000000
00001000
00000000
,
00000000
00000001
00001000
00000100
00000000
00001000
00010000
00100000
,
00001000
00010000
00001000
00000000
01000000
00000000
01000000
00000000
00010000
00001000
00010000
00000000
00100000
00000000
00100000
00000000
,
01000000
00100000
01000000
00000000
10000000
00000000
10000000
00000000
00100000
00010000
00100000
00000000
00001000
00000000
00010000
00000000
,
00001000
00010000
00001000
00000000
00000100
00000000
00000100
00000000
00001000
00000100
00001000
00000000
00000010
00000000
00000010
00000000
,
00000001
00000100
00000001
00000000
00001000
00000000
00001000
00000000
00001000
00000010
00001000
00000000
00010000
00000000
01000000
00000000
,
10000000
00000000
00000000
00010000
00000000
00000000
10000000
00000000
,
20000000
00000000
00000000
30000000
,
00100000
00000000
00000000
01000000
00000000
00000000
00010000
00000000
,
00020000
00000000
00000000
00030000
,
00001000
00000000
00000000
00000100
00000010
00000000
00000100
00000000
00000010
00000000
00001000
00000000
00000001
00001000
00000000
00000000
,
00000100
00000000
00000000
00010000
00001000
00000000
00010000
00000000
00001000
00000000
00000010
00000000
00000100
00000010
00000000
00000000
,
00010000
00000000
00000000
00001000
00010000
00000000
00001000
00000000
01000000
00000000
00100000
00000000
00010000
00100000
00000000
00000000
,
00100000
00000000
00000000
00010000
01000000
00000000
00100000
00000000
00000000
01000000
00010000
00000000
10000000
00010000
00000000
00000000
,
10000000
00000000
00000000
01000000
00100000
00000000
00010000
00000000
00001000
00000000
00000000
00000100
00010000
00000000
00001000
00000000
,
00010000
00000000
00000000
00000100
00000010
00000000
00000100
00000000
00010000
00000000
00000000
00001000
00010000
00000000
00000010
00000000
,
00001000
00000000
00000000
00000010
00000100
00000000
00000001
00000000
00001000
00000000
00000000
00000010
00000100
00000000
00001000
00000000
,
00000000
00011000
00000000
01010000
00000000
00011000
00000000
00000000
,
00002020
00000000
00000000
00003030
,
00000000
00010000
00001000
01000000
00100000
00001000
00010000
01000000
,
00100000
00010000
00001000
01000000
00100000
00001000
00010000
10000000
,
00000000
00010000
00001000
00100000
01000000
00010000
00001000
00100000
,
01000000
00010000
00001000
00100000
01000000
00010000
00001000
00100000
,
00000000
00010000
10000000
01000000
00100000
00010000
00001000
00010000
,
00000100
00010000
00001000
00000100
00001000
00000100
00000010
00000100
,
00001001
00000100
00000010
00001000
00010000
00100000
00001000
00010000
,
00001000
01000000
00100000
00010000
00100000
01000000
00010000
01000000
,
00011000
00001000
00100000
00010000
00100000
01000000
00010000
00100000
,
00110000
01000000
10000000
00100000
11000000
00010000
00100000
00010000
,
00001000
00000000
00000010
00000100
00020000
00000000
00000000
00000000
00000000
00000000
00030000
00000000
00000000
00000000
00001000
00000000
,
00000100
00000000
00000000
00011000
00000000
00000000
00000100
00000010
,
00002000
00000000
00000000
00010000
00000000
00000000
00003000
00010000
,
00000100
00000000
00000000
00001010
00000000
00000000
00000100
00010000
,
00200000
00000000
00000000
00001000
00000000
00000000
00300000
00001000
,
00000010
00000000
00000000
00011000
00000000
00000000
01000000
00010000
,
20000000
00000000
00000000
00010000
00000000
00000000
30000000
01000000
,
00010000
00000000
00000000
00011000
00000000
00000000
00000100
00000001
,
00002000
00000000
00000000
00000001
00000000
00000000
00003000
00000100
,
00001000
00000000
00000000
00000101
00000000
00000000
00000100
00001000
,
00020000
00000000
00000000
00001000
00000000
00000000
00030000
00100000
,
00011000
00000000
00000000
00110000
00000000
00000000
10100000
00000000
,
02020000
00000000
00000000
03030000
,
00110000
00000000
00000000
00011000
00000000
00000000
00001010
00000000
,
00000220
00000000
00000000
00000330
,
00000101
00000000
00000000
00001010
00000000
00000000
00011000
00000000
,
00110000
00000000
00000000
00000000
,
10000000
00000000
00010000
01000000
00000000
00000000
00100000
00000000
10000000
00000000
00010000
10000000
00000000
00000000
01000000
00000000
,
00010000
00000000
10000000
01000000
00000000
00000000
00100000
00000000
00010000
00000000
00001000
00000100
00000000
00000000
00010000
00000000
,
00001000
00000000
00010000
00001000
00000000
00000000
00010000
00000000
00000100
00000000
00000010
00001000
00000000
00000000
00000010
00000000
,
00001000
00000000
00000001
00000100
00000000
00000000
00000010
00000000
00001000
00000000
00000001
00001000
00000000
00000000
00000100
00000000
,
00011000
00000000
00010000
00001000
00000000
00000000
00100000
00000000
00011000
00000000
00010000
00001000
00000000
00000000
01000000
00000000
,
01100000
00000000
00100000
00010000
00000000
00000000
00010000
00000000
00011000
00000000
00000100
00000010
00000000
00000000
00010000
00000000
,
00001000
00010000
00001000
00000000
00000000
00000000
00000000
00000000
00001000
00000100
00000001
00000000
00000000
00000000
00000000
00000000
,
00000001
00000010
00000100
00001000
00022000
00000000
00033000
00110000
;
