#TITLE:roughneck;
#ARTIST:skylab2000;
#BANNER:roughneck.png;
#BACKGROUND:roughneck-bg.png;
#CDTITLE:./CDTITLES/Dance Dance Revolution UNIVERSE.png;
#MUSIC:roughneck.ogg;
#SAMPLESTART:48.627;
#SAMPLELENGTH:15;
#BPMS:0=143;

//---------------dance-single - ----------------
#NOTES:
     dance-single:
     :
     Beginner:
     1:
     :
0000
0000
0000
0000
,
0000
0000
0000
0000
,
0000
0000
0000
0000
,
0000
0000
0000
0000
,
0000
0000
0000
0000
,
0100
0000
0000
0000
,
0100
0000
0000
0000
,
0001
0000
0000
0000
,
0001
0000
0000
0000
,
1000
0000
0000
0000
,
1000
0000
0000
0000
,
0100
0000
0000
0000
,
0100
0000
0000
0000
,
0010
0000
0010
0000
,
0010
0000
0000
0000
,
0001
0000
0001
0000
,
0001
0000
0000
0000
,
1000
0000
1000
0000
,
1000
0000
0000
0000
,
0001
0000
0001
0000
,
1001
0000
0000
0000
,
0001
0001
0001
0000
,
0001
0000
0000
0000
,
1000
1000
1000
0000
,
1000
0000
0000
0000
,
0100
0100
0100
0000
,
0100
0000
0000
0000
,
0010
0010
0010
0000
,
0010
0000
0000
0000
,
0001
0000
0001
0000
,
0001
0000
0001
0000
,
1000
0000
1000
0000
,
1000
0000
1000
0000
,
0100
0000
0100
0000
,
0010
0000
0010
0000
,
0100
0000
0100
0000
,
1000
0000
1000
0000
,
1001
0000
0000
0000
,
0001
0000
0000
0000
,
0110
0000
0000
0000
,
0100
0000
0000
0000
,
0001
0000
0001
0000
,
1000
0000
1000
0000
,
0001
0000
0000
0000
,
0010
0000
0010
0000
,
0100
0000
0100
0000
,
0010
0000
0010
0000
,
0100
0000
0000
0000
,
1000
0000
1000
0000
,
0001
0000
0001
0000
,
1000
0000
1000
0000
,
0001
0000
0000
0000
,
1000
0000
1000
1000
,
1000
0000
0001
0001
,
0001
0000
0100
0100
,
0100
0000
0010
0010
,
0010
0000
1000
1000
,
1000
0000
0001
0001
,
0001
0000
1000
1000
,
1000
0000
0001
0000
,
1001
0000
0000
0000
;

//---------------dance-single - ----------------
#NOTES:
     dance-single:
     :
     Easy:
     3:
     :
0000
0000
0000
0000
,
0000
0000
0000
0000
,
0000
0000
0000
0000
,
0000
0000
0000
0000
,
0000
0000
0000
0000
,
0100
0000
1000
0000
,
0100
0000
1000
0000
,
0001
0000
0100
0000
,
0001
0000
0100
0000
,
0010
0000
1000
0000
,
0010
0000
1000
0000
,
0001
0000
0010
0000
,
0002
0000
0000
0003
,
0001
1000
0000
1000
,
0010
0100
0000
0100
,
0001
0010
0000
0010
,
0100
1000
0000
1000
,
0010
0100
0000
0100
,
1000
0010
0000
0010
,
0100
0001
0000
0001
,
1001
0000
0000
0000
,
0001
0100
0001
0000
,
0001
0100
0001
0000
,
1000
0100
1000
0000
,
1000
0100
1000
0000
,
0001
0010
0001
0000
,
0001
0010
0001
0000
,
1000
0010
1000
0000
,
0200
0300
0020
0030
,
0100
0010
0100
0010
,
1000
0001
1000
0000
,
0001
1000
0001
1000
,
0010
0100
0010
0000
,
0001
0001
0001
0000
,
1000
1000
1000
0000
,
0010
0010
0010
0000
,
0110
0000
0110
0000
,
1001
0000
0001
0000
,
0100
0000
0100
0000
,
0110
0000
0010
0000
,
0010
0000
1000
0000
,
1000
0000
0001
0000
,
0001
0000
0100
0000
,
1001
0000
0000
0000
,
0001
1000
0000
1000
,
0100
0010
0000
0010
,
0001
0100
0000
0100
,
0010
1000
0000
1000
,
0100
0010
0000
0010
,
1000
0100
0000
0100
,
0010
0001
0000
0001
,
1000
0010
1000
0000
,
0010
1000
0010
0000
,
0001
0010
0001
0000
,
0010
0001
0010
0000
,
1000
0100
1000
0000
,
0100
1000
0100
0000
,
0001
0100
0001
0000
,
0010
0100
0010
0000
,
0100
0000
0010
0000
,
1001
0000
0000
0000
;

//---------------dance-single - ----------------
#NOTES:
     dance-single:
     :
     Medium:
     6:
     :
0000
0000
0000
0000
,
0000
0000
0000
0000
,
0000
0000
0000
0000
,
0000
0000
0000
0000
,
0000
0000
0000
0000
,
0010
1000
0100
0001
,
0010
1000
0100
0001
,
0010
0100
0100
0000
1000
0000
0001
0000
,
0010
0100
0100
0000
1000
0000
0001
0000
,
0010
0100
0010
0000
0001
0000
1000
0000
,
0010
0100
0010
0000
1000
0000
0001
0000
,
0010
0010
0010
0000
1000
0000
0001
0000
,
0100
0010
0110
1001
,
0010
1000
0100
0001
,
0010
1000
0100
0001
,
0010
1000
0100
0001
,
0010
0010
0100
0100
,
0010
0001
0100
1000
,
0010
0001
0100
1000
,
0010
0001
0100
1000
,
0001
1001
0000
0110
0000
1000
1001
0000
,
0010
0000
0001
0000
1000
0100
1000
0000
,
0010
0000
1000
0000
0001
0100
0001
0000
,
0100
0000
0001
0000
1000
0010
1000
0000
,
0100
0000
1000
0000
0001
0010
0001
0000
,
1000
0100
0010
0000
0001
0100
0010
0000
,
1000
0100
0010
0000
0001
0100
0010
0000
,
0200
0300
0020
0030
,
2000
3200
0320
0032
,
1003
1100
0001
0101
,
1000
1100
0001
0101
,
1000
1010
0001
0011
,
1000
1010
0001
0011
,
0010
0001
0100
0000
0000
0000
1001
0000
,
0010
1000
0100
0000
0000
0000
1001
0000
,
0100
1000
0001
0000
0000
0000
1001
0000
,
0100
0110
0000
1001
0000
0010
0110
0000
,
0001
0100
0010
1000
,
0010
1000
0100
0010
,
0001
1000
0100
0010
,
0001
0010
0100
1000
,
0001
0100
0001
0000
1000
0100
1000
0000
,
0001
0010
0001
0000
1000
0010
1000
0000
,
0001
0010
0100
1000
,
0010
0000
1000
0000
0010
0010
1000
0000
,
0001
0000
0010
0000
0001
0001
0010
0000
,
0100
0000
1000
0000
0100
0100
1000
0000
,
0001
0000
0100
0000
0001
0001
0100
0000
,
0010
1000
0100
0001
,
0010
1000
0100
0001
,
0010
0001
0100
1000
,
0010
0001
0100
1002
,
1003
1100
0001
0101
,
1000
1100
0001
0101
,
1000
1010
0001
0011
,
1000
1010
0001
0011
,
0010
0001
0100
0000
0000
0000
1001
0000
,
0010
1000
0100
0000
0000
0000
1001
0000
,
0100
1000
0001
0000
0000
0000
1001
0000
,
0100
1000
0000
0010
0000
0100
0001
0000
,
1001
0000
0000
0000
;

//---------------dance-single - ----------------
#NOTES:
     dance-single:
     :
     Hard:
     8:
     :
0000
0000
0000
0000
,
0000
0000
0000
0000
,
0000
0000
0000
0000
,
0000
0000
0000
0000
,
0000
0000
0000
0000
,
0010
1000
0010
0000
0100
0001
0100
0000
,
0001
0010
0001
0000
1000
0100
1000
0000
,
0010
1000
0100
0000
0001
0100
1000
0000
,
0010
0100
0001
0000
0010
0100
1000
0000
,
0010
0001
0010
0000
0100
1000
0100
0000
,
1000
0010
1000
0000
0001
0100
0001
0000
,
0010
0001
0100
0000
1000
0100
0001
0000
,
0010
0000
0100
0000
0110
0000
2002
3003
,
1001
0000
0100
0010
0000
0001
0100
0010
,
0100
0001
1000
0100
0000
0010
0001
0100
,
0010
1000
0010
0100
0000
0001
0010
1000
,
0010
0001
0100
0010
0000
1000
0100
0001
,
0100
0010
0001
0100
0000
0010
1000
0010
,
0100
1000
0100
0001
0000
1000
0010
0001
,
0010
1000
0100
0010
0000
0001
1000
0010
,
1000
0000
0001
1000
0001
1000
0001
1000
0100
0000
0010
0000
0001
0000
0000
0000
,
0100
0010
1000
0100
0000
0001
0100
1000
,
0001
0010
1000
0010
0000
0001
1000
0010
,
0001
0010
1000
0100
0000
0010
0001
0100
,
1000
0100
0010
1000
0000
0001
0010
0100
,
1000
0100
1000
0100
0010
0001
0010
0001
,
0100
0001
0100
0001
1000
0010
1000
0010
,
0100
0001
0010
0100
1000
0010
0100
0010
,
2000
3002
2003
3002
,
0013
1100
0010
0101
,
0001
1100
1000
0101
,
0001
1010
1000
0011
,
0110
1001
0110
1001
,
0010
1000
1100
0000
0010
0000
1001
0000
,
0010
0001
0101
0000
0010
0000
1001
0000
,
0100
0100
1001
0000
0010
0000
1001
0000
,
0010
0000
0100
1000
0100
1000
0100
1000
0100
0000
0010
0000
0001
0000
0000
0000
,
0100
0000
0010
0000
0100
0001
0000
1000
0100
0000
0010
0000
0001
0100
0000
0001
,
1000
0000
0010
0000
1000
0100
0000
1000
0010
0000
0100
0000
0001
0010
0000
0100
,
0010
0000
0001
0000
1000
0010
0000
1000
0100
0000
0010
0000
0001
1000
0000
0010
,
1000
0000
0100
0000
0010
0001
0000
1000
0010
0000
0100
0000
0010
1000
0000
0001
,
1000
0100
0010
0100
1000
0100
0010
0100
,
1000
0001
0100
0010
0100
0001
0100
0010
,
2000
3000
0002
0003
,
1000
0100
0100
1000
0010
0010
0100
0000
,
0001
0100
0100
0001
0010
0010
0100
0000
,
1000
0001
0001
0010
0100
0100
1000
0000
,
0001
1000
1000
0010
0100
0100
0001
0000
,
1000
0100
0010
0100
1000
0010
0001
0010
,
1000
0001
0010
0100
0001
0100
0010
0000
,
1000
0100
1000
0001
1000
0100
0001
0100
,
0010
0001
0010
0100
0010
0001
2000
0000
,
3010
0101
0010
1100
,
1000
0101
0001
1100
,
1000
0011
0001
1010
,
0110
1001
0110
1001
,
0010
0001
0101
0000
0010
0000
1001
0000
,
0010
1000
1100
0000
0010
0000
1001
0000
,
0100
0100
1001
0000
0010
0000
1001
0000
,
1000
0100
0010
0001
1000
0100
0010
0001
,
1001
0000
0000
0000
;

//---------------dance-double - ----------------
#NOTES:
     dance-double:
     :
     Beginner:
     1:
     :
00000000
00000000
00000000
00000000
,
00000000
00000000
00000000
00000000
,
00000000
00000000
00000000
00000000
,
00000000
00000000
00000000
00000000
,
00000000
00000000
00000000
00000000
,
00100000
00000000
00000000
00000000
,
00100000
00000000
00000000
00000000
,
00010000
00000000
00000000
00000000
,
00010000
00000000
00000000
00000000
,
10000000
00000000
00000000
00000000
,
10000000
00000000
00000000
00000000
,
01000000
00000000
00000000
00000000
,
01000000
00000000
00000000
00000000
,
00010000
00000000
00010000
00000000
,
00010000
00000000
00000000
00000000
,
00001000
00000000
00001000
00000000
,
00001000
00000000
00000000
00000000
,
00010000
00000000
00010000
00000000
,
00010000
00000000
00000000
00000000
,
00001000
00000000
00001000
00000000
,
00011000
00000000
00000000
00000000
,
00000010
00000010
00000010
00000000
,
00000010
00000000
00000000
00000000
,
00001000
00001000
00001000
00000000
,
00001000
00000000
00000000
00000000
,
00000001
00000001
00000001
00000000
,
00000001
00000000
00000000
00000000
,
00000100
00000100
00000100
00000000
,
00000100
00000000
00000000
00000000
,
00001000
00000000
00001000
00000000
,
00001000
00000000
00001000
00000000
,
00010000
00000000
00010000
00000000
,
00010000
00000000
00010000
00000000
,
00100000
00000000
00100000
00000000
,
01000000
00000000
01000000
00000000
,
00100000
00000000
00100000
00000000
,
01000000
00000000
01000000
00000000
,
01100000
00000000
00000000
00000000
,
00010000
00000000
00000000
00000000
,
10010000
00000000
00000000
00000000
,
10000000
00000000
00000000
00000000
,
00010000
00000000
00010000
00000000
,
10000000
00000000
10000000
00000000
,
01000000
00000000
00000000
00000000
,
00010000
00000000
00010000
00000000
,
00001000
00000000
00001000
00000000
,
00010000
00000000
00010000
00000000
,
00001000
00000000
00000000
00000000
,
00000010
00000000
00000010
00000000
,
00000100
00000000
00000100
00000000
,
00000010
00000000
00000010
00000000
,
00000100
00000000
00000000
00000000
,
00001000
00000000
00001000
00001000
,
00001000
00000000
00000001
00000001
,
00000001
00000000
00001000
00001000
,
00001000
00000000
00000100
00000100
,
00000100
00000000
00010000
00010000
,
00010000
00000000
00001000
00001000
,
00001000
00000000
00010000
00010000
,
00010000
00000000
00001000
00000000
,
00011000
00000000
00000000
00000000
;

//---------------dance-double - ----------------
#NOTES:
     dance-double:
     :
     Easy:
     3:
     :
00000000
00000000
00000000
00000000
,
00000000
00000000
00000000
00000000
,
00000000
00000000
00000000
00000000
,
00000000
00000000
00000000
00000000
,
00000000
00000000
00000000
00000000
,
00000100
00000000
00000001
00000000
,
00000100
00000000
00000001
00000000
,
00001000
00000000
00000010
00000000
,
00001000
00000000
00000010
00000000
,
00010000
00000000
00001000
00000000
,
00010000
00000000
00001000
00000000
,
00100000
00000000
00010000
00000000
,
00200000
00000000
00000000
00300000
,
00100000
00010000
00000000
00010000
,
10000000
01000000
00000000
01000000
,
00010000
00001000
00000000
00001000
,
00010000
00000010
00000000
00000010
,
00000100
00000001
00000000
00000001
,
00001000
00000100
00000000
00000100
,
00010000
00001000
00000000
00001000
,
00011000
00000000
00000000
00000000
,
00100000
00010000
00100000
00000000
,
00100000
00010000
00100000
00000000
,
01000000
10000000
01000000
00000000
,
01000000
10000000
01000000
00000000
,
00010000
01000000
00010000
00000000
,
00010000
01000000
00010000
00000000
,
00001000
00010000
00001000
00000000
,
00020000
00030000
00002000
00003000
,
00000100
00000010
00000100
00000010
,
00001000
00000001
00001000
00000000
,
00000100
00000010
00000100
00000010
,
00001000
00010000
00001000
00000000
,
00010000
00010000
00010000
00000000
,
00001000
00001000
00001000
00000000
,
00100000
00100000
00100000
00000000
,
01100000
00000000
10010000
00000000
,
02000000
03000000
20000000
30000000
,
02000000
03000000
00020000
00030000
,
00002000
00003000
00020000
00030000
,
00000020
00000030
00002000
00003000
,
00000020
00000030
00000200
00000300
,
00000002
00000003
00000200
00000300
,
00000110
00000000
00000000
00000000
,
00000001
00000100
00000000
00000100
,
00001000
00010000
00000000
00010000
,
00001000
00100000
00000000
00100000
,
01000000
10000000
00000000
10000000
,
00010000
01000000
00000000
01000000
,
00001000
00010000
00000000
00010000
,
00000010
00001000
00000000
00001000
,
00000100
00001000
00000100
00000000
,
00001000
00000100
00001000
00000000
,
00000001
00000010
00000001
00000000
,
00000010
00000001
00000010
00000000
,
00001000
00000010
00001000
00000000
,
00000010
00001000
00000010
00000000
,
00010000
00001000
00010000
00000000
,
00001000
00010000
00001000
00000000
,
01000000
00000000
00100000
00000000
,
10010000
00000000
00000000
00000000
;

//---------------dance-double - ----------------
#NOTES:
     dance-double:
     :
     Medium:
     6:
     :
00000000
00000000
00000000
00000000
,
00000000
00000000
00000000
00000000
,
00000000
00000000
00000000
00000000
,
00000000
00000000
00000000
00000000
,
00000000
00000000
00000000
00000000
,
00100000
01000000
00000000
00000000
10000000
00010000
00000000
00000000
,
00100000
01000000
00000000
10000000
00010000
00000000
01000000
00000000
,
00001000
00010000
00000000
00000000
00001000
00100000
00000000
00000000
,
00001000
00010000
00000000
00001000
00100000
00000000
00001000
00000000
,
00010000
00001000
00000000
00010000
00000100
00001000
00000000
00000001
,
00001000
00000010
00000000
00000100
00000001
00000000
00001001
00000000
,
00000100
00001000
00000000
00000100
00010000
00001000
00000000
01000000
,
00010000
10010000
00100000
10010000
,
00100000
10000000
00000000
00000000
00010000
00100000
00000000
00000000
,
00001000
00010000
00000000
00000100
00001000
00000000
00000101
00000000
,
00000010
00000001
00000000
00000000
00001000
00000100
00000000
00000000
,
00010000
00001000
00000000
01000000
00010000
00000000
11000000
00000000
,
00100000
10000000
01000000
00000000
00010000
01000000
10000000
00000000
,
00100000
00010000
00000000
00001000
00000100
00000000
00001001
00000000
,
00000010
00000001
00000100
00000000
00001000
00000100
00000001
00000000
,
00000020
00002030
00023000
00230000
,
01300000
00200000
00000000
00300000
10000000
00020000
00000000
00030000
,
01000000
00200000
00000000
10300000
00010000
00000000
00100000
00000000
,
00001000
00020000
00000000
00030000
00001000
02000000
00000000
03000000
,
00001000
00020000
00000000
00031000
01000000
00000000
00001000
00000000
,
00010000
00002000
00000000
00013000
00000010
00002000
00000000
00003001
,
00001000
00000200
00000000
00000310
00000001
00000000
00001001
00000000
,
00000010
00002000
00000000
00003100
00010000
00002000
00000000
00103000
,
00010000
10010000
01000000
10010000
,
01000000
20000000
00000000
30000000
00010000
02000000
00000000
03000000
,
00001000
00020000
00000000
00030010
00001000
00000000
00000011
00000000
,
00000100
00000002
00000000
00000003
00001000
00000020
00000000
00000030
,
00010000
00002000
00000000
00103000
00010000
00000000
10100000
00000000
,
01000000
10000000
00200000
00000000
00310000
00100000
20000000
00000000
,
31000000
00010000
00000000
00001000
00000100
00000000
00001001
00000000
,
00000100
00000001
00000020
00000000
00001030
00000010
00000002
00000000
,
00000203
00002300
00023000
02030000
,
13000000
00000000
00000000
00010000
10000000
00000000
00000000
00010000
,
01000000
00000000
00000000
00001000
00010000
00000000
00000000
00000100
,
00001000
00000000
00000000
00000001
00001000
00000000
00000000
00000010
,
00010000
00000000
00000000
00001000
01000000
00000000
00000000
00010000
,
20000000
31000000
00200000
00310000
,
02000000
03100000
00020000
00031000
,
00000100
00001001
00000000
00000000
00000010
00001001
00000000
00000000
,
00000001
00000100
00000001
00000000
00000010
00000000
00000100
00000000
,
00001000
00000010
00001000
00000000
00000100
00000000
00010000
00000000
,
00001000
00010000
00001000
00000000
01000000
00000000
00100000
00000000
,
10000000
00100000
00000000
01000000
00010000
01000000
00000000
00100000
,
10000000
01000000
10000000
00000000
00100000
00000000
01000000
00000000
,
00010000
00100000
00010000
00000000
01000000
00000000
00001000
00000000
,
00010000
00001000
00010000
00000000
00000100
00000000
00000010
00000000
,
00000001
00000100
00000000
00000010
00001000
00000010
00000000
00000100
,
00000001
00000010
00000001
00000000
00000100
00000000
00000010
00000000
,
00001000
00000100
00001000
00000000
00000010
00000000
00010000
00000000
,
00001000
00010000
00001000
00000000
00100000
00000000
01000000
00000000
,
10000000
01000000
00000000
00100000
00010000
00100000
00000000
01000000
,
10000000
00100000
10000000
00000000
01000000
00000000
00100000
00000000
,
00010000
01000000
00010000
00000000
00100000
00000000
00001000
00000000
,
00010000
00001000
00010000
00000000
00000010
00000000
00000100
00000000
,
00000001
00000010
00000000
00000100
00001000
00000100
00000000
00000010
,
00001001
00000000
00000000
00000000
;

//---------------dance-double - ----------------
#NOTES:
     dance-double:
     :
     Hard:
     8:
     :
00000000
00000000
00000000
00000000
,
00000000
00000000
00000000
00000000
,
00000000
00000000
00000000
00000000
,
00000000
00000000
00000000
00000000
,
00000000
00000000
00000000
00000000
,
00010000
00001000
00010000
00000000
00000100
00001000
00000010
00000100
,
00000001
00001000
00000001
00000000
00000010
00000100
00001000
00000010
,
00010000
00001000
00010000
00000000
00001000
00100000
00010000
01000000
,
00100000
10000000
00100000
00000000
00010000
00100000
01000000
00010000
,
00100000
00001000
00100000
00000000
00001000
00010000
00000010
00001000
,
00000001
00000010
00000001
00000000
00001000
00000100
00000010
00001000
,
00010000
00000100
00010000
00000000
00001000
01000000
00010000
00100000
,
02000000
23000000
30200000
02300000
,
13000000
01000000
00010000
00000000
10000000
00100000
00010000
00000000
,
00001000
00000100
00000001
00000000
00001000
00000010
00000001
00000000
,
00000010
00000001
00000100
00000000
00000010
00001000
00000100
00000000
,
00010000
00000100
00001000
00000000
00000010
00010000
00001000
00000000
,
00100000
00001000
00010000
00000000
00001000
01000000
00010000
00000000
,
00100000
00010000
01000000
00000000
00100000
10000000
01000000
00000000
,
00010000
01000000
10000000
00000000
00010000
00100000
10000000
00000000
,
00010000
00000000
01000000
00010000
01000000
00010000
00100000
00010000
00100000
00000000
00001000
00000000
00010000
00001000
00010000
00001000
,
00010000
00001000
00010000
00000000
00000010
00001000
00000100
00000010
,
00000001
00001000
00000001
00000000
00000100
00000010
00001000
00000100
,
00010000
00001000
00010000
00000000
00001000
01000000
00010000
00100000
,
01000000
10000000
01000000
00000000
00010000
01000000
00100000
00010000
,
01000000
00001000
01000000
00000000
00001000
00010000
00000100
00001000
,
00000001
00000100
00000001
00000000
00001000
00000010
00000100
00001000
,
00010000
00000010
00010000
00000000
00001000
00100000
00010000
01000000
,
01100000
10010000
11000000
01010000
,
10000000
00100000
00010000
00000000
10000000
01000000
00010000
00000000
,
00001000
00000010
00000001
00000000
00001000
00000100
00000001
00000000
,
00000100
00000001
00000010
00000000
00000100
00001000
00000010
00000000
,
00010000
00000010
00001000
00000000
00000010
00010000
00001000
00000000
,
01000000
00001000
00010000
00000000
00001000
00100000
00010000
00000000
,
01000000
00010000
00100000
00000000
01000000
10000000
00100000
00000000
,
00010000
00100000
10000000
00000000
00010000
01000000
10000000
00000000
,
00010000
00000000
10000000
00010000
10000000
00010000
01000000
00010000
01000000
00000000
00001000
00000000
00010000
00000100
00010000
00000100
,
00001000
00001000
00000100
00000000
00000001
00000001
00000100
00000000
,
00001000
00001000
00000010
00000000
00000001
00000001
00000010
00000000
,
00000100
00000100
00001000
00000000
00010000
00010000
01000000
00000000
,
10000000
10000000
01000000
00000000
00100000
00100000
00010000
00000000
,
01000000
01000000
10000000
00000000
01000000
01000000
00010000
00010000
,
00100000
00100000
00001000
00000000
00010000
00010000
00000100
00000100
,
00001000
00001000
00000101
00000000
00000001
00000001
00001100
00000000
,
00000010
00000000
00001000
00000000
00000100
00000000
00000000
00000000
00001000
00000010
00000000
00000010
00001000
00000000
00000100
00000000
,
00010000
00000000
00001000
00000000
01000000
00000000
00000000
00000000
00010000
00100000
00000000
00100000
00010000
00000000
01000000
00000000
,
00001000
00000000
00010000
00000000
00000010
00000000
00000000
00000000
00001000
00000100
00000000
00000100
00001000
00000000
00000010
00000000
,
00010000
00000000
00001000
00000000
00100000
00000000
00000000
00000000
00010000
01000000
00000000
01000000
00010000
00000000
00100000
00000000
,
01000000
00000000
10000000
00000000
01000000
00000000
00000000
00000000
10000000
01000000
00000000
00100000
00010000
00000000
00100000
00000000
,
00001000
00000000
00010000
00000000
00001000
00000000
00000000
00000000
00010000
00000100
00000000
00001000
00000010
00000000
00001000
00000000
,
00000001
00000000
00000100
00000000
00000001
00000000
00000000
00000000
00000010
00000001
00000000
00001000
00000100
00000000
00001000
00000000
,
00000100
00000000
00010000
00000000
00000100
00000000
00000000
00000000
00010000
00001000
00000000
00001000
01000000
00000000
00010000
00000000
,
01000000
00100000
10000000
00010000
01000000
00100000
10000000
00010000
,
01000000
00100000
00010000
00001000
00000100
00000010
00001000
00000001
,
00000010
00000100
00001000
00000001
00000010
00000100
00001000
00000001
,
00000100
00000010
00000100
00001000
00010000
01000000
00100000
00010000
,
10000000
00100000
00010000
00100000
01000000
00100000
10000000
00010000
,
00100000
01000000
10000000
01000000
00100000
01000000
00010000
01000000
,
00100000
00001000
01000000
00001000
00010000
00001000
00000100
00000010
,
00010000
00001000
01000000
00001000
00010000
00001000
00000100
00000010
,
00001001
00000000
00000000
00000000
;
