#TITLE:Youngmen Blues;
#ARTIST:Round Table;
#BANNER:Youngmen Blues.png;
#BACKGROUND:Youngmen Blues-bg.png;
#CDTITLE:./CDTITLES/Dance Dance Revolution UNIVERSE.png;
#MUSIC:Youngmen Blues.ogg;
#SAMPLESTART:48.194;
#SAMPLELENGTH:15;
#DISPLAYBPM:113;
#BPMS:0=114.48,36=114.72,42=113.44,56=115.64,61=113.94,91.5=114.2,135.5=113,148.75=114.12,154.5=121.98,159=114,184=96;

//---------------dance-single - ----------------
#NOTES:
     dance-single:
     :
     Beginner:
     1:
     :
0000
0000
0000
0000
,
0000
0000
0000
0000
,
0000
0000
0000
0000
,
0000
0000
0000
0000
,
0000
0000
0000
0000
,
0010
0000
0000
1000
,
0000
0000
0000
0000
,
0000
0000
0000
0000
,
0000
0000
0000
0000
,
1001
0000
0010
0000
,
0100
0000
0010
0000
,
0001
0000
1000
0000
,
0001
0000
0000
0000
,
0010
0000
0100
0000
,
0010
0000
1000
0000
,
0001
0000
1000
0000
,
0100
0000
0000
0000
,
0010
0000
0010
0000
,
0000
0100
0000
0000
,
0010
0000
1000
0000
,
0100
0000
0000
0000
,
0001
0000
1000
0000
,
0001
0000
0000
0000
,
1001
0000
0000
0000
,
0001
0000
0000
0000
,
1000
0000
0000
0000
,
0100
0000
0000
0000
,
0001
0000
0000
0000
,
0010
0000
0000
0000
,
0100
0000
0000
0000
,
0010
0000
0000
0000
,
0110
0000
0000
0000
,
1001
0000
0000
0000
,
1001
0000
0000
0000
,
0110
0000
0000
0000
,
0010
0000
0000
0000
,
1000
0000
0000
0000
,
0100
0000
0000
0000
,
0010
0000
0000
0000
,
0001
0000
0000
0000
,
1000
0000
0000
0000
,
0001
0000
0000
0000
,
1000
0000
0000
0000
,
0001
0000
0001
0000
,
0001
0000
0000
0000
,
1000
0000
0000
0000
,
1001
0000
0000
0000
,
0000
0000
0000
0000
,
0000
0000
0000
0000
,
1001
0000
0000
0000
;

//---------------dance-single - ----------------
#NOTES:
     dance-single:
     :
     Easy:
     2:
     :
0000
0000
0000
0000
,
0000
0000
0000
0000
,
0000
0000
0000
0000
,
0000
0000
0000
0000
,
0000
0000
0000
0000
,
0010
1000
0000
1000
,
0000
0000
0000
0000
0000
0001
0000
0000
0000
0000
0000
0000
0000
0001
0000
0000
,
0000
0000
0000
0000
0000
0100
0000
0000
0000
0000
0000
0000
0000
0100
0000
0000
,
0000
0000
0000
0000
,
1001
0000
0010
0000
,
0100
0000
0010
0000
,
0001
0000
1000
0000
,
0001
0000
0000
0000
,
0010
0000
0100
0000
,
0010
0000
1000
0000
,
0001
0000
1000
0000
,
0200
0000
0000
0300
,
0010
0010
0010
0000
,
0000
0100
0000
0000
,
0010
0000
1000
0000
,
0100
0000
0000
0000
,
0001
0000
1000
0000
,
0001
0000
0000
0000
,
1001
0000
0000
0000
,
0001
0000
0000
0000
,
1000
0000
0000
0000
,
0100
0000
0000
0000
,
0001
0000
0000
0000
,
0010
0000
0000
0000
,
0100
0000
0000
0000
,
0010
0000
0000
0000
,
0110
0000
0000
0000
,
1001
0000
0000
0000
,
1001
0000
0000
0000
,
0110
0000
0000
0000
,
0010
0000
0000
0000
,
1000
0000
0000
0000
,
0100
0000
0000
0000
,
0010
0000
0000
0000
,
0001
0000
0000
0000
,
1000
0000
0000
0000
,
0001
0000
0000
0000
,
1000
0000
0000
0000
,
0001
0000
0001
0000
,
0001
0000
0000
0000
,
1000
0000
0000
0000
,
1001
0000
0000
0000
,
0000
0000
0000
0000
,
0000
0000
0000
0000
,
1001
0000
0000
0000
;

//---------------dance-single - ----------------
#NOTES:
     dance-single:
     :
     Medium:
     5:
     :
0000
0000
0000
0000
,
0000
0000
0000
0000
,
0000
0000
0000
0000
,
0000
0000
0000
0000
,
0000
0000
0000
0000
,
1001
0000
0000
0000
0000
0000
0000
0000
0000
0000
0000
0000
0000
0110
0000
0000
,
0000
0000
0000
0000
0000
0011
0000
0000
0000
0000
0000
0000
0000
1100
0000
0000
,
0000
0000
0000
0000
0000
0011
0000
0000
0000
0000
0000
0000
0000
1001
0000
0000
,
0000
0001
0000
0000
0000
0110
0000
0000
0000
0000
0000
0000
0000
0010
0000
0000
,
0001
0010
0001
0010
,
1000
0000
1000
1000
1000
0000
0001
0001
,
0001
0010
0100
0010
,
0100
0000
0001
0000
1000
1000
1000
0000
,
1001
1000
0001
0001
,
1000
0000
0010
0010
0010
0000
0100
0100
,
0100
0010
0100
0001
,
1000
0001
1000
1000
,
2001
0000
0000
0010
3010
0000
0000
1000
,
0001
0000
1000
1000
0001
0001
0010
0010
,
0002
0000
0000
0100
0103
0000
0000
0000
,
1000
0100
1000
0010
,
0002
0000
0000
0010
0013
0000
0000
1000
,
0001
0000
1000
1000
0001
0001
0010
0010
,
0001
0000
1000
0000
0001
0000
1000
0000
0001
0000
0000
0000
1000
0000
0000
1000
,
0000
0000
0000
0000
0000
0010
0000
0000
0000
0001
0000
0000
0000
1000
0000
0000
,
0000
0100
0000
0000
0000
0010
0000
0000
0000
0001
0000
0000
0000
0100
0000
0000
,
0000
0010
0000
0000
0000
1000
0000
0000
0000
0100
0000
0010
0000
0100
0000
0000
,
1000
0000
0000
0001
0101
0000
0000
0000
,
1000
0000
1010
0000
,
0001
0000
0000
1000
1100
0000
0000
0000
,
1000
1000
1000
1000
,
0001
1000
0001
0000
1000
0001
1000
0000
,
0010
0100
0010
0000
1000
0000
0100
0010
,
0100
0010
0100
0000
1000
0001
1000
0000
,
0001
1000
0001
0000
0100
0100
0100
0000
,
0010
0100
0010
0100
,
0001
0000
1000
0000
0001
0000
1000
1000
,
1000
0010
0100
0001
,
1000
0001
1000
0001
0220
0000
0000
0330
,
1001
0000
0000
1000
1100
0000
0000
0001
,
0101
0000
1010
0000
,
0011
0000
0000
0100
0110
0000
0000
0001
,
1001
0000
1100
0000
,
0101
0000
0000
0001
0011
0000
0000
1000
,
1010
0000
0110
0000
,
1001
0000
0000
0010
0110
0000
0000
0000
,
1002
0000
0000
0000
,
0000
0000
0000
0000
,
0000
0000
0000
0000
,
0013
0000
0000
0000
;

//---------------dance-single - ----------------
#NOTES:
     dance-single:
     :
     Hard:
     7:
     :
0000
0000
0000
0000
,
0000
0000
0000
0000
,
0000
0000
0000
0000
,
0000
0000
0000
0000
,
0000
0000
0000
0000
,
0110
0000
0000
0000
0000
1001
0000
0010
0000
1000
0000
0000
0000
1001
0000
0010
,
0000
0001
0000
0000
0000
1001
0000
0100
0000
1000
0000
0000
0000
1001
0000
0100
,
0000
0001
0000
0000
0000
1001
0000
0001
0000
1001
0000
0000
0000
0110
0000
0000
,
0000
0100
0000
0000
0000
0110
0000
0000
0000
0000
0000
0000
0000
0010
0000
0000
,
0012
0000
0000
0000
0000
1003
0000
0200
0000
0000
0000
0000
1300
0000
0000
0000
,
0000
0000
0010
0000
0100
0001
0000
0010
0000
0000
0100
0000
1000
0000
0100
0000
,
2000
0000
0000
0000
0000
3001
0000
0200
0000
0000
0000
0000
0310
0000
1000
0001
,
1000
0000
0100
0100
0010
0010
0001
0001
,
2000
0000
0000
0000
0000
3001
0000
0200
0000
0000
0000
0000
0301
0000
0000
0000
,
0000
0000
0010
0000
0001
0100
0000
0010
0000
0000
0100
0000
0001
0000
1000
0000
,
0002
0000
0000
0000
0000
1003
0000
0200
0000
0000
0000
0000
0310
0000
0001
1000
,
0001
0000
0100
0010
0010
0100
1000
1000
,
0002
0000
0000
0000
0000
1000
0003
0002
0000
0000
0000
0000
0103
0000
1000
0000
,
0020
0000
0000
0000
0031
1000
0000
0020
0000
0000
0230
0000
0001
0000
0001
0300
,
0020
0000
0000
0000
0000
1000
0030
0020
0000
0000
0000
0030
0010
0000
0000
1000
,
0000
0000
0001
0000
0000
0100
0000
0000
0001
0000
0000
0010
0000
0000
0001
0000
,
2000
0000
0000
0000
0000
0001
3000
2000
0000
0000
0000
0000
3100
0000
0001
0000
,
0020
0000
0000
0000
1030
0001
0000
1000
0000
0000
0001
0000
0001
0000
0100
0000
,
1000
0000
0000
0000
0001
0000
0000
0000
1000
0000
0000
0000
0001
0000
0000
0000
0100
0000
0000
0000
0010
0000
0000
1000
0000
0000
0000
0000
0001
0000
1000
0000
,
0000
0011
0000
1100
,
0010
0100
1000
0100
0010
0001
0100
0010
,
1000
0100
0010
0001
0010
0100
1000
0010
,
0100
0000
0000
1001
1001
0000
0000
0110
,
0110
1000
0010
0100
,
0001
0000
0000
0110
0110
0000
0000
0000
,
0120
0000
0000
0000
1000
0000
0000
0000
0001
0000
0000
0000
1000
0000
0000
0030
,
0010
0000
0000
0000
0010
0000
0000
0000
0000
0000
0000
0000
0001
0000
0000
0001
0000
0000
0100
0000
0010
0000
0100
0000
0010
0000
1000
0000
0001
0000
1000
0000
,
0001
0000
0100
0000
0000
0010
0000
1000
0000
0000
0001
0000
0100
0000
0001
0000
,
1000
0000
0100
0000
1000
0000
0010
0000
0100
0000
0001
0000
0010
0000
0000
0001
,
1000
0001
0100
0000
0000
0001
0000
1000
0000
1000
0100
0000
1100
0000
0000
0000
,
1000
0000
0001
0000
1000
0100
1000
0000
0001
0000
1000
0000
0001
0100
0001
0000
,
0010
0000
0100
0000
1000
0001
0100
0010
0000
0000
0000
0000
0100
0000
0001
0000
,
2000
3002
0023
0230
,
1300
0001
0000
1000
0000
0001
0000
2000
0000
0000
0000
0000
0000
0000
3000
0000
,
1001
0000
0000
0001
0101
0000
0000
1000
,
1010
0100
0001
0010
1000
0001
0100
1000
,
0110
0000
0000
0100
1100
0000
0000
0010
,
1010
0100
0001
1000
0010
0100
0001
1000
,
1001
0000
0000
1000
1100
0000
0000
0001
,
0101
0010
1000
0001
0100
0010
1000
0100
,
0110
0000
0000
0000
0000
0000
0110
0000
1001
0000
1000
0001
1000
0001
1000
0001
,
0200
0000
0000
0000
,
0000
0000
0000
0000
,
0000
0000
0000
0000
0000
0000
0000
0000
0000
0000
0000
0000
0000
0000
0000
0300
,
1001
0000
0000
0000
;

//---------------dance-double - ----------------
#NOTES:
     dance-double:
     :
     Beginner:
     1:
     :
00000000
00000000
00000000
00000000
,
00000000
00000000
00000000
00000000
,
00000000
00000000
00000000
00000000
,
00000000
00000000
00000000
00000000
,
00000000
00000000
00000000
00000000
,
10000000
00000000
00000000
01000000
,
00000000
00000000
00000000
00000000
,
00000000
00000000
00000000
00000000
,
00000000
00000000
00000000
00000000
,
00001001
00000000
00000010
00000000
,
00000100
00000000
00000010
00000000
,
00010000
00000000
00001000
00000000
,
00000000
00000000
00000000
00000000
,
00100000
00000000
01000000
00000000
,
00100000
00000000
00010000
00000000
,
10000000
00000000
00010000
00000000
,
00001000
00000000
00000000
00000000
,
00010000
00000000
00010000
00000000
,
00000000
00000100
00000000
00000000
,
00000010
00000000
00000001
00000000
,
00000000
00000000
00000000
00000000
,
00001000
00000000
00010000
00000000
,
00001000
00000000
00000000
00000000
,
10010000
00000000
00000000
00000000
,
00100000
00000000
00000000
00000000
,
01000000
00000000
00000000
00000000
,
00010000
00000000
00000000
00000000
,
00001000
00000000
00000000
00000000
,
00000010
00000000
00000000
00000000
,
00000100
00000000
00000000
00000000
,
00000001
00000000
00000000
00000000
,
00011000
00000000
00000000
00000000
,
10010000
00000000
00000000
00000000
,
00011000
00000000
00000000
00000000
,
00001001
00000000
00000000
00000000
,
00000010
00000000
00000000
00000000
,
00000100
00000000
00000000
00000000
,
00001000
00000000
00000000
00000000
,
00010000
00000000
00000000
00000000
,
00001000
00000000
00001000
00000000
,
00010000
00000000
00000000
00000000
,
00010000
00000000
00010000
00000000
,
00001000
00000000
00000000
00000000
,
00000001
00000000
00000001
00000000
,
00000001
00000000
00000000
00000000
,
00001000
00000000
00000000
00000000
,
00001001
00000000
00000000
00000000
,
00000000
00000000
00000000
00000000
,
00000000
00000000
00000000
00000000
,
10010000
00000000
00000000
00000000
;

//---------------dance-double - ----------------
#NOTES:
     dance-double:
     :
     Easy:
     2:
     :
00000000
00000000
00000000
00000000
,
00000000
00000000
00000000
00000000
,
00000000
00000000
00000000
00000000
,
00000000
00000000
00000000
00000000
,
00000000
00000000
00000000
00000000
,
10000000
10000000
00000000
01000000
,
00000000
00000000
00000000
00000000
00000000
00010000
00000000
00000000
00000000
00000000
00000000
00000000
00000000
00001000
00000000
00000000
,
00000000
00000000
00000000
00000000
00000000
00000100
00000000
00000000
00000000
00000000
00000000
00000000
00000000
00000001
00000000
00000000
,
00000000
00000000
00000000
00000000
,
00001001
00000000
00000010
00000000
,
00000100
00000000
00000010
00000000
,
00010000
00000000
00001000
00020000
,
00000000
00000000
00030000
00000000
,
00100000
00000000
01000000
00000000
,
00100000
00000000
00010000
00000000
,
10000000
00000000
00010000
00000000
,
00002000
00000000
00003000
00000000
,
00010000
00010000
00010000
00000000
,
00000000
00000100
00000000
00000000
,
00000010
00000000
00000001
00000000
,
00000000
00000000
00000000
00000000
,
00001000
00000000
00010000
00000000
,
00001000
00000000
00000000
00000000
,
10010000
00000000
00000000
00000000
,
00100000
00000000
00000000
00000000
,
01000000
00000000
00000000
00000000
,
00010000
00000000
00000000
00000000
,
00001000
00000000
00000000
00000000
,
00000010
00000000
00000000
00000000
,
00000100
00000000
00000000
00000000
,
00000001
00000000
00000000
00000000
,
00011000
00000000
00000000
00000000
,
10010000
00000000
00000000
00000000
,
00011000
00000000
00000000
00000000
,
00001001
00000000
00000000
00000000
,
00000010
00000000
00000000
00000000
,
00000100
00000000
00000000
00000000
,
00001000
00000000
00000000
00000000
,
00010000
00000000
00000000
00000000
,
00001000
00000000
00001000
00000000
,
00010000
00000000
00000000
00000000
,
00010000
00000000
00010000
00000000
,
00001000
00000000
00000000
00000000
,
00000001
00000000
00000001
00000000
,
00000001
00000000
00000000
00000000
,
00001000
00000000
00000000
00000000
,
00001001
00000000
00000000
00000000
,
00000000
00000000
00000000
00000000
,
00000000
00000000
00000000
00000000
,
10010000
00000000
00000000
00000000
;

//---------------dance-double - ----------------
#NOTES:
     dance-double:
     :
     Medium:
     5:
     :
00000000
00000000
00000000
00000000
,
00000000
00000000
00000000
00000000
,
00000000
00000000
00000000
00000000
,
00000000
00000000
00000000
00000000
,
00000000
00000000
00000000
00000000
,
10010000
00000000
00000000
00000000
00000000
00000000
00000000
00000000
00000000
00000000
00000000
00000000
00000000
01100000
00000000
00000000
,
00000000
00000000
00000000
00000000
00000000
00110000
00000000
00000000
00000000
00000000
00000000
00000000
00000000
00011000
00000000
00000000
,
00000000
00000000
00000000
00000000
00000000
00001100
00000000
00000000
00000000
00000000
00000000
00000000
00000000
00000101
00000000
00000000
,
00000000
00001000
00000000
00000000
00000000
00000110
00000000
00000000
00000000
00000000
00000000
00000000
00000000
00000010
00000000
00000000
,
00000001
00001000
00000100
00010000
,
00001000
00000000
00010000
00010000
00010000
00000000
00001000
00001000
,
00001000
00100000
00010000
10000000
,
01000000
00000000
00010000
00000000
10000000
10000000
10000000
00000000
,
10010000
01000000
00010000
00010000
,
00001000
00000000
00010000
00010000
00010000
00000000
00001000
00001000
,
00001000
00000010
00000100
00000001
,
00001000
00000010
00001000
00010000
,
00012000
00000000
00000000
00100000
00103000
00000000
00000000
00010000
,
10000000
00000000
01000000
01000000
00010000
00010000
00001000
00001000
,
00020000
00000000
00000000
00000100
00030100
00000000
00000000
00000000
,
00000001
00000100
00000001
00000100
,
00000020
00000000
00000000
00001000
00001030
00000000
00000000
00010000
,
00001000
00000000
00100000
00100000
10000000
10000000
00010000
00010000
,
01000000
00000000
00100000
00000000
01000000
00000000
00100000
00000000
10000000
00000000
00000000
00000000
01000000
00000000
00000000
00010000
,
00000000
00000000
00000000
00000000
00000000
00001000
00000000
00000000
00000000
00010000
00000000
00000000
00000000
00000010
00000000
00000000
,
00000000
00001000
00000000
00000000
00000000
00000001
00000000
00000000
00000000
00000100
00000000
00000000
00000000
00000001
00000000
00000000
,
00000000
00001000
00000000
00000000
00000000
00000010
00000000
00000000
00000000
00010000
00000000
00001000
00000000
00010000
00000000
00000000
,
00100000
00000000
00000000
10000000
11000000
00000000
00000000
00000000
,
00010000
00000000
00011000
00000000
,
00000001
00000000
00000000
00000100
00000110
00000000
00000000
00000000
,
00010000
00001000
00100000
00010000
,
10000000
01000000
10000000
00000000
00010000
00100000
00010000
00000000
,
00001000
00010000
00001000
00000000
00000010
00000000
00001000
00000001
,
00001000
00000001
00001000
00000000
00010000
00001000
00010000
00000000
,
00100000
00010000
00100000
00000000
01000000
01000000
01000000
00000000
,
00010000
00001000
00000100
00000001
,
00001000
00000000
00000010
00000000
00000100
00000000
00001000
00001000
,
00001000
00010000
01000000
10000000
,
10000000
01000000
00010000
00001000
00022000
00000000
00000000
00033000
,
00011000
00000000
00000000
00000001
00000101
00000000
00000000
00010000
,
00010100
00000000
10100000
00000000
,
00110000
00000000
00000000
00001000
00001010
00000000
00000000
00000001
,
00000101
00000000
00001100
00000000
,
00011000
00000000
00000000
00100000
00110000
00000000
00000000
10000000
,
11000000
00000000
01100000
00000000
,
00011000
00000000
00000000
00001000
00011000
00000000
00000000
00000000
,
00002001
00000000
00000000
00000000
,
00000000
00000000
00000000
00000000
,
00000000
00000000
00000000
00000000
,
00003010
00000000
00000000
00000000
;

//---------------dance-double - ----------------
#NOTES:
     dance-double:
     :
     Hard:
     8:
     :
00000000
00000000
00000000
00000000
,
00000000
00000000
00000000
00000000
,
00000000
00000000
00000000
00000000
,
00000000
00000000
00000000
00000000
,
00000000
00000000
00000000
00000000
,
00001001
00000000
00000000
00000000
00000000
00000000
00000000
00000000
00000000
00000000
00000000
00000000
00000000
00001001
00000000
00000000
,
00000000
00001000
00000000
00000000
00000000
00001100
00000000
00000000
00000000
00000000
00000000
00000000
00000000
00001001
00000000
00000000
,
00000000
00000001
00000000
00000000
00000000
00000101
00000000
00000000
00000000
00000000
00000000
00000000
00000000
00001001
00000000
00000000
,
00000000
00000100
00000000
00000000
00000000
00000110
00000000
00000000
00000000
00000000
00000000
00000000
00000000
00000010
00000000
00000000
,
00000002
00000000
00000000
00000000
00000000
00000013
00000000
00000200
00000000
00000000
00000000
00000000
00010300
00000000
00000000
00000000
,
00000000
00000000
00001000
00000000
00010000
00000100
00000000
00000010
00000000
00000000
00000001
00000000
00000100
00000000
00001000
00000000
,
00020000
00000000
00000000
00000000
00000000
00031000
00000000
02000000
00000000
00000000
00000000
00000000
03100000
00000000
10000000
01000000
,
00100000
00001000
00010000
01000000
,
20000000
00000000
00000000
00000000
00000000
30100000
00000000
02000000
00000000
00000000
00000000
00000000
03001000
00000000
00000000
00000000
,
00000000
00000000
00010000
00000000
00000100
00001000
00000000
00000010
00000000
00000000
00000100
00000000
00000001
00000000
00000010
00000000
,
00002000
00000000
00000000
00000000
00000000
00013000
00000000
00200000
00000000
00000000
00000000
00000000
10300000
00000000
01000000
00100000
,
00010000
10000000
00100000
01000000
,
00100000
00000000
00000000
01000000
00000000
00000000
00001000
00000000
00000000
00100000
00000000
00000000
01000000
00000000
10000000
00000000
,
00010000
00000000
00000000
01000000
00000000
00000000
00001000
00000000
00000000
00000100
00000000
00000000
00000001
00000000
00000010
00000000
,
00000100
00000000
00000000
00010000
00000000
00000000
01000000
00000000
00000000
00010000
00000000
00000000
00001000
00000000
00000000
00100000
,
00000000
00000000
01000000
00000000
00000000
10000000
00000000
00000000
00010000
00000000
00000000
00100000
00000000
00000000
00010000
00000000
,
00000010
00000000
00000000
00000001
00000000
00000000
00001000
00000000
00000000
00000010
00000000
00000000
00000100
00000000
00000001
00000000
,
00000010
00000000
00000000
00001000
00000000
00000000
00010000
00000000
00000000
00001000
00000000
00000000
01000000
00000000
00100000
00000000
,
10000000
00000000
00000000
00000000
01000000
00000000
00000000
00000000
10000000
00000000
00000000
00000000
00010000
00000000
00000000
00000000
01000000
00000000
00000000
00000000
00100000
00000000
00000000
10000000
00000000
00000000
00000000
00000000
00010000
00000000
10000000
00000000
,
00000000
11000000
00000000
01010000
,
00100000
10000000
01000000
00010000
00001000
00000010
00000001
00000100
,
00001000
00010000
00100000
10000000
01000000
00010000
00001000
00000010
,
00000001
00000000
00000000
00000101
00001100
00000000
00000000
01010000
,
11000000
10000000
00100000
01000000
,
00010000
00000000
00000000
10100000
00110000
00000000
00000000
00000000
,
00011000
00010000
00001000
00010000
,
00000100
00000000
00000000
00000000
00000100
00000000
00000000
00000000
00000000
00000000
00000000
00000000
00001000
00000000
00000000
00000010
00000000
00000000
00000100
00000000
00000001
00000000
00000100
00000000
00000010
00000000
00001000
00000000
00000100
00000000
00001000
00000000
,
00000001
00000000
00000100
00000000
00000000
00000010
00000000
00010000
00000000
00000000
00001000
00000000
01000000
00000000
00100000
00000000
,
10000000
00000000
01000000
00000000
00100000
00000000
10000000
00000000
00100000
00000000
00001000
00000000
00010000
00000000
00000000
00001000
,
00010000
00000100
00001000
00000000
00000000
00000100
00000000
00001000
00000000
00000010
00001000
00000000
00001001
00000000
00000000
00000000
,
00000001
00000000
00000100
00000000
00000010
00010000
00000010
00000000
00001000
00000000
00100000
00000000
00010000
01000000
00010000
00000000
,
00100000
00000000
10000000
00000000
01000000
00100000
01000000
00100000
00000000
00000000
00000000
00000000
00001000
00000000
00010000
00000000
,
02000000
23000000
30200000
00310000
,
00001000
00010000
00000000
00001000
00000000
00000100
00000002
00000000
00000000
00000000
00000000
00000000
00000000
00000000
00000003
00000000
,
00001001
00000000
00000000
00000110
00001001
00000000
00000000
00000110
,
00001001
00000001
00000100
00000010
00010000
00001000
00000100
00000001
,
00001001
00000000
00000000
00011000
00010100
00000000
00000000
00011000
,
01001000
01000000
00100000
10000000
01000000
00100000
00001000
00010000
,
00011000
00000000
00000000
00001100
00001001
00000000
00000000
00000101
,
00001001
00001000
00000001
00000100
00001000
00010000
01000000
10000000
,
10010000
00000000
00000000
00000000
00000000
00000000
01100000
00000000
10010000
00000000
10000000
00010000
10000000
00010000
10000000
00010000
,
02000000
00000000
00000000
00000000
,
00000000
00000000
00000000
00000000
,
00000000
00000000
00000000
00000000
00000000
00000000
00000000
03000000
,
10010000
00000000
00000000
00000000
;
