#TITLE:White Hot;
#ARTIST:R.A.S.T.;
#BANNER:White Hot.png;
#BACKGROUND:White Hot-bg.png;
#CDTITLE:./CDTITLES/Dance Dance Revolution UNIVERSE DLC.png;
#MUSIC:White Hot.ogg;
#SAMPLESTART:9.266;
#SAMPLELENGTH:15;
#BPMS:0=129;

//---------------dance-single - ----------------
#NOTES:
     dance-single:
     :
     Beginner:
     1:
     :
0000
0000
0000
0000
,
0000
0000
0000
0000
,
0000
0000
0000
0000
,
0000
0000
0000
0000
,
0000
0000
0000
0000
,
1000
0000
0000
0001
,
0001
0000
0000
1000
,
1000
0000
0000
0100
,
0100
0100
0100
0100
,
0100
0000
0000
0010
,
0010
0000
0000
0001
,
0000
0000
0000
0000
,
1000
1000
1000
1000
,
1000
0000
0010
0000
,
0100
0000
0001
0000
,
1000
0000
0001
0000
,
0010
0010
0010
0000
,
1000
0000
0001
0000
,
1000
0000
0001
0000
,
0100
0000
0010
0000
,
0010
0010
0010
0010
,
0010
0000
0010
0000
,
1000
0000
0001
0000
,
0010
0000
0100
0000
,
1000
0000
0010
0000
,
0100
0000
0000
0010
,
0010
0000
0000
1000
,
1000
0000
0000
0001
,
0001
0001
0001
0001
,
0001
0000
0000
0000
,
1000
0000
0000
0000
,
0010
0000
0000
0000
,
0100
0000
0000
0000
,
0100
0000
0010
0000
,
1000
0000
0001
0000
,
0010
0000
0100
0000
,
0010
0000
1000
0000
,
0001
0000
0100
0000
,
0001
0000
1000
0000
,
0010
0000
0100
0000
,
1000
0000
0010
0000
,
0100
0000
0001
0000
,
1000
0000
0001
0000
,
0010
0000
0001
0000
,
0010
0000
0001
0000
,
0100
0000
1000
0000
,
0010
0000
0000
0000
,
0010
0000
0000
0010
,
0010
0000
0000
1000
,
1000
0000
0000
0001
,
0001
0001
0001
0001
,
0001
0000
0000
0000
,
0100
0000
0100
0000
,
0010
0000
0010
0000
,
1000
1000
1000
1000
,
1000
0000
0000
0000
;

//---------------dance-single - ----------------
#NOTES:
     dance-single:
     :
     Easy:
     3:
     :
0000
0000
0000
0000
,
0000
0000
0000
0000
,
0000
0000
0000
0000
,
0000
0000
0000
0000
,
0000
0000
0000
0000
,
0010
0100
0010
0110
,
0100
0000
0010
1000
,
0001
1000
0001
0100
,
0010
0000
0010
0000
,
0100
0010
0100
0110
,
0010
0000
0100
0001
,
0010
0001
1000
0100
,
0010
0010
0010
0000
,
1000
0001
0100
0100
,
0001
0010
0100
0000
,
1000
0010
0100
0100
,
0001
1000
0001
0000
,
1000
0001
1000
0010
,
0010
0100
0100
0001
,
0001
1000
0000
0001
,
1000
0100
0000
0100
,
1000
0010
0000
0100
,
0001
0010
0001
0100
,
0010
0010
0010
0010
,
0010
0000
0100
0000
,
0010
0100
0010
0110
,
0100
0000
0001
0000
,
0001
0100
1000
1000
,
0000
0100
0000
0010
,
0010
1000
0000
0000
,
0010
0001
0000
0000
,
0100
0001
0000
0000
,
1000
1000
1000
1000
,
0010
1000
0010
1000
,
0010
0100
0010
0100
,
0010
0001
0010
0001
,
0010
0100
0010
0100
,
0100
0000
0100
0000
,
0100
1000
0001
0010
,
0100
1000
0100
1000
,
0010
0100
0001
0000
,
1000
1000
0001
0001
,
1000
0001
1000
0001
,
0100
0100
0010
0010
,
0100
0100
0001
0010
,
0100
1000
0010
0100
,
0001
0000
0000
0000
,
0010
0100
0010
0110
,
0010
0000
1000
0100
,
0001
0100
1000
0100
,
0001
0010
0100
1000
,
0001
0001
1000
1000
,
0001
0000
1000
0000
,
0010
1000
0100
0010
,
0001
0001
1000
1000
,
1001
0000
0000
0000
;

//---------------dance-single - ----------------
#NOTES:
     dance-single:
     :
     Medium:
     6:
     :
0000
0000
0000
0000
,
0000
0000
0000
0000
,
0000
0000
0000
0000
,
0000
0000
0000
0000
,
0000
0000
0000
0000
,
1000
0001
0010
1001
,
1000
0000
0001
0000
0010
0001
0010
0000
,
0100
1000
0010
0100
,
0001
0100
1000
0010
,
0100
0001
0010
0110
,
1000
0000
0001
0000
0010
0100
1000
0000
,
0001
1000
0010
0010
,
0100
0100
0001
0001
,
1000
0000
0001
0000
1000
0100
0010
0000
,
0001
0010
0100
0000
0001
0100
1000
0000
,
0010
0100
0001
0010
,
0100
0000
1000
0000
0001
0010
0001
0000
,
1000
0100
1000
0000
0010
0100
0010
0000
,
0001
0010
0001
0000
0001
1000
0001
0000
,
0100
1000
0100
0001
,
0010
1000
0010
0001
,
1000
0001
1000
0100
,
0010
0001
0010
0100
,
1000
0100
0010
0000
1000
0100
0010
0000
,
0001
0010
0100
0000
0001
0000
0000
0000
,
1000
0001
0010
0110
,
1000
0000
0001
0000
0010
0100
0010
0000
,
1000
0000
0001
0000
0010
0100
0010
0000
,
0010
0010
0010
0000
,
1000
0000
0001
0010
0001
0010
0000
0000
,
1000
0000
0001
0100
0001
0100
0000
0000
,
1000
0000
0010
1000
0010
1000
0000
0000
,
1000
0100
0010
0000
0000
0000
0010
0000
,
1000
0100
1000
0010
,
0001
0010
0001
0010
,
0100
1000
0100
0001
,
0010
0001
0010
1000
,
0010
1000
0100
0000
0010
1000
0100
0000
,
0010
0001
0100
0000
0010
0001
0100
0000
,
0001
1000
0001
0000
0001
1000
0001
0000
,
0100
1000
0010
0010
,
0100
0100
0001
0100
,
1000
0010
1000
0100
,
0010
0001
1000
0001
,
0010
0100
1000
0100
,
1000
0100
1000
0100
,
1000
0000
0000
1001
,
1000
0100
0010
1001
,
0001
0000
0100
0000
0010
1000
0100
0000
,
1000
0010
0100
0001
,
0010
0001
0100
0000
0010
0000
0010
0000
,
1000
0001
0100
0010
,
1000
0100
0010
0001
,
1000
0001
0010
0100
,
1000
0100
1000
0010
1000
0001
0010
0000
,
0220
0000
0000
0000
,
0000
0000
0000
0330
;

//---------------dance-single - ----------------
#NOTES:
     dance-single:
     :
     Hard:
     9:
     :
0000
0000
0000
0000
,
0000
0000
0000
0000
,
0000
0000
0000
0000
,
0000
0000
0000
0000
,
0000
0000
0000
0000
,
1000
0001
0000
0010
0001
0000
0100
0000
0010
0000
0000
0000
0110
0000
0000
0000
,
1000
0010
1000
0010
1000
0010
0110
0000
,
1000
0100
0010
0001
0020
0130
1000
0000
,
1000
0000
0001
0000
0100
0010
0100
0000
0010
0000
1000
0010
0000
0000
0000
0000
,
1000
0010
0000
0100
0001
0000
0010
0000
0100
0000
0000
0000
0110
0000
0000
0000
,
1000
0010
0100
0001
0010
0100
0110
0000
,
1000
0001
0010
0200
0000
0010
0310
0000
,
1000
0001
0000
0100
0000
0010
0110
0000
,
1001
0000
1000
0010
0000
0000
0100
0000
0010
0000
1000
0100
1000
0000
0001
0000
,
0100
0000
0010
0100
0000
0000
0010
0000
1000
0000
0010
0000
0100
0000
0000
0000
,
0110
0000
0100
0001
0000
0000
0010
0000
0100
0000
1000
0000
0100
0000
1000
0000
,
0001
0000
1000
0001
1000
0000
0010
0000
0100
0000
0001
0000
0010
0000
0100
0000
,
1000
0000
0010
0000
0100
0000
0100
0000
0010
0100
0010
0100
0001
0000
0010
0000
,
0100
1000
0100
0000
0010
0000
0010
0000
1000
0001
0010
0001
0100
0000
0001
0000
,
1000
0000
0100
0000
1100
0000
0000
0000
0010
0100
0010
0000
0100
0001
0100
0000
,
0010
0000
1000
0000
1010
0000
0000
0000
0001
0000
0010
0100
0010
0000
0100
1000
,
0100
0010
0110
0000
1000
0100
0020
0130
,
0001
0100
0110
0000
1000
0001
0100
0001
,
0010
0100
1000
0000
0010
0000
0100
0001
0010
0000
0001
0000
0001
0000
1000
0000
,
1000
0000
0001
0100
0000
0010
1000
0000
0010
0000
0000
0000
0000
0000
0000
0000
,
0001
1000
0000
0100
1000
0000
0010
0000
0100
0000
0000
0000
0110
0000
0000
0000
,
0001
0100
0001
0100
0001
0100
0110
0000
,
0000
2000
0000
3002
0000
1003
0100
0020
,
0000
0200
0000
0000
0000
0000
0330
0000
,
1001
0000
0000
0010
0000
0000
0100
0000
1000
0001
1000
0001
1000
0000
0000
0000
,
0110
0000
0000
1000
0000
0000
0001
0000
0010
0100
0010
0100
0010
0000
0000
0000
,
1001
0000
0000
0100
0000
0000
0010
0000
0001
1000
0001
1000
0001
0000
0000
0000
,
1000
0001
1000
0001
1000
0000
0000
0000
0110
0000
0000
0000
0000
0000
0100
0000
,
1000
0010
0100
0001
1000
0100
1000
0010
,
0100
0001
0010
0001
1000
0100
0010
1000
,
0001
0000
0010
0000
0001
0000
1000
0000
0010
1000
0010
1000
0010
1000
0100
0000
,
0010
0000
0001
1000
0000
0001
1000
0001
1000
0000
0001
1000
0000
0100
0000
0000
,
0011
0000
0001
0000
1000
0000
0100
0000
1000
0000
0010
0100
0001
0000
0001
0000
,
0100
0000
0100
0000
0010
0000
0010
1000
0001
0100
0010
0100
0001
0000
1000
0000
,
0010
0100
0010
0000
1000
0000
0001
0010
0001
0000
1000
0000
0010
0100
0001
0100
,
0001
0000
1000
0000
0001
0000
0010
0000
0100
0010
0100
0010
0100
0000
1000
0000
,
0001
0100
0010
0000
0100
0000
0010
1000
0100
0010
0001
0000
0100
0000
0010
0000
,
0110
0000
0001
0000
0110
0000
1000
0000
0001
1000
0001
0000
0001
1000
0001
0000
,
0100
0001
0010
0000
0000
0011
0000
1100
,
1000
0010
0100
0001
0010
0001
0100
0001
,
0100
0010
0100
0010
1000
0000
1000
0000
,
1000
0000
0000
0000
1000
0000
0000
0000
1000
0010
0100
0001
1000
0100
0010
0000
,
0001
0100
0000
0010
1000
0000
0100
0000
0010
0000
0000
0000
0110
0000
0000
0000
,
0001
0100
0010
1000
0100
0010
0110
0000
,
0001
0010
0100
1000
0200
0310
0001
0000
,
0001
0000
1000
0000
0010
0100
0010
0000
0100
0000
0001
0100
0000
0000
0000
0000
,
0020
2030
3200
0320
,
0031
1000
0001
1000
0000
0000
0010
0000
0100
0000
0001
0000
0001
0000
1001
0000
,
1000
0000
0001
0100
0000
0000
0001
0000
0010
0000
0100
1000
0000
0000
1100
0000
,
0010
0001
0100
1000
0100
0001
0011
0000
,
1001
0000
0000
0100
0000
0000
0010
0000
1000
0001
1000
0001
1000
0000
0000
0000
,
0110
0000
0000
0001
0000
0000
1000
0000
0100
0000
0000
0000
0000
0000
0000
0000
;

//---------------dance-double - ----------------
#NOTES:
     dance-double:
     :
     Beginner:
     1:
     :
00000000
00000000
00000000
00000000
,
00000000
00000000
00000000
00000000
,
00000000
00000000
00000000
00000000
,
00000000
00000000
00000000
00000000
,
00000000
00000000
00000000
00000000
,
00000001
00000000
00000000
00001000
,
00001000
00000000
00000000
00000010
,
00000010
00000000
00000000
00010000
,
00010000
00010000
00010000
00010000
,
00010000
00000000
00000000
00000100
,
00000100
00000000
00000000
00001000
,
00000000
00000000
00000000
00000000
,
00100000
00100000
00100000
00100000
,
00100000
00000000
00010000
00000000
,
10000000
00000000
01000000
00000000
,
10000000
00000000
00100000
00000000
,
01000000
01000000
01000000
00000000
,
00001000
00000000
00010000
00000000
,
00000100
00000000
00000010
00000000
,
00001000
00000000
00000001
00000000
,
00000100
00000100
00000100
00000100
,
00000100
00000000
00000100
00000000
,
00000010
00000000
00001000
00000000
,
00000100
00000000
00010000
00000000
,
00001000
00000000
01000000
00000000
,
00010000
00000000
00000000
10000000
,
10000000
00000000
00000000
00100000
,
00100000
00000000
00000000
01000000
,
01000000
01000000
01000000
01000000
,
01000000
00000000
00000000
00000000
,
00010000
00000000
00000000
00000000
,
00100000
00000000
00000000
00000000
,
00001000
00000000
00000000
00000000
,
00010000
00000000
00000100
00000000
,
00001000
00000000
00000010
00000000
,
00001000
00000000
00000100
00000000
,
00000010
00000000
00000001
00000000
,
00001000
00000000
00000010
00000000
,
00000100
00000000
00000001
00000000
,
00001000
00000000
00000100
00000000
,
00010000
00000000
00001000
00000000
,
01000000
00000000
00100000
00000000
,
01000000
00000000
00010000
00000000
,
10000000
00000000
01000000
00000000
,
10000000
00000000
00100000
00000000
,
00010000
00000000
00100000
00000000
,
00001000
00000000
00000000
00000000
,
00010000
00000000
00000000
00000010
,
00000010
00000000
00000000
00001000
,
00001000
00000000
00000000
00000001
,
00000001
00000001
00000001
00000001
,
00000001
00000000
00000000
00000000
,
00000100
00000000
00000100
00000000
,
00000010
00000000
00000010
00000000
,
00010000
00010000
00010000
00010000
,
00010000
00000000
00000000
00000000
;

//---------------dance-double - ----------------
#NOTES:
     dance-double:
     :
     Easy:
     4:
     :
00000000
00000000
00000000
00000000
,
00000000
00000000
00000000
00000000
,
00000000
00000000
00000000
00000000
,
00000000
00000000
00000000
00000000
,
00000000
00000000
00000000
00000000
,
00000100
00000010
00000100
00000110
,
00000010
00000000
00001000
00000100
,
00010000
00001000
00010000
00001000
,
01000000
00000000
00010000
00000000
,
10000000
00010000
10000000
10010000
,
00010000
00000000
01000000
00100000
,
01000000
00001000
00010000
00000100
,
00001000
00001000
00001000
00000000
,
00000010
00000100
00000001
00000001
,
00000010
00000100
00001000
00000000
,
00000010
00010000
00001000
00001000
,
00100000
00010000
00100000
00000000
,
01000000
00010000
01000000
00100000
,
00100000
10000000
10000000
00010000
,
00010000
00100000
00000000
00001000
,
00010000
00000010
00000000
00000100
,
00000010
00001000
00000000
00000001
,
00000100
00000010
00001000
00000100
,
00010000
00010000
00010000
00010000
,
00010000
00000000
00001000
00000000
,
01000000
00100000
01000000
01100000
,
00100000
00000000
10000000
00000000
,
00100000
01000000
00010000
00010000
,
00000000
00100000
00000000
00001000
,
00001000
00010000
00000000
00000000
,
00000100
00001000
00000000
00000000
,
00000010
00001000
00000000
00000000
,
00000001
00000001
00000001
00000001
,
00000100
00000010
00000100
00000010
,
00001000
00000010
00001000
00000010
,
00010000
00001000
00010000
00001000
,
00100000
00010000
00100000
00010000
,
00010000
00000000
00010000
00000000
,
00010000
01000000
10000000
01000000
,
00100000
01000000
00100000
01000000
,
10000000
00010000
00100000
00000000
,
00001000
00001000
00010000
00010000
,
00001000
00010000
00001000
00010000
,
00000100
00000100
00000010
00000010
,
00001000
00001000
00000001
00000100
,
00000010
00001000
00000010
00000100
,
00000001
00000000
00000000
00000000
,
00001000
00000001
00001000
00001001
,
00000001
00000000
00001000
00000100
,
00010000
00000010
00001000
00000100
,
00010000
00001000
01000000
00100000
,
10000000
10000000
00010000
00010000
,
01000000
00000000
00010000
00000000
,
00100000
00001000
00010000
00001000
,
00010000
00010000
00001000
00001000
,
00011000
00000000
00000000
00000000
;

//---------------dance-double - ----------------
#NOTES:
     dance-double:
     :
     Medium:
     6:
     :
00000000
00000000
00000000
00000000
,
00000000
00000000
00000000
00000000
,
00000000
00000000
00000000
00000000
,
00000000
00000000
00000000
00000000
,
00000000
00000000
00000000
00000000
,
01000000
10000000
00100000
01010000
,
00100000
00000000
00001000
00000000
01000000
00010000
01000000
00000000
,
00001000
00000000
00010000
00000000
00000010
00001000
00000010
00000000
,
00000100
00000000
00000001
00000000
00000010
00000100
00000010
00000000
,
00000001
00001000
00000010
00000101
,
00001000
00000000
00000100
00000000
00010000
00001000
00010000
00000000
,
01000000
00100000
00010000
01000000
,
00100000
00000000
10000000
00010000
10000000
00010000
00100000
00000000
,
01000000
00000000
00010000
00000000
00001000
00000000
00010000
00010000
,
00010000
00001000
00000100
00000001
,
00000100
00000000
00000010
00000000
00001000
00000000
00000100
00000100
,
00000100
00000000
00000010
00000000
00001000
00000000
00010000
00010000
,
00010000
00001000
01000000
00100000
,
10000000
00000000
01000000
00000000
00010000
00000000
01000000
01000000
,
01000000
10000000
00100000
01000000
,
00010000
00000000
00100000
00000000
00001000
00001000
00001000
00000000
,
00010000
00000000
00001000
00000000
00000100
00000000
00000001
00000001
,
00000001
00000100
00000010
00001000
,
00000100
00000000
00001000
00000000
00000010
00000000
00000100
00000100
,
00000100
00000000
00001000
00000000
00010000
00000000
00100000
00100000
,
00100000
10000000
01000000
00110000
,
01000000
00000000
10000000
00000000
00010000
01000000
00010000
00000000
,
00100000
00001000
00010000
00000010
,
00000100
00000000
00000001
00000000
00001000
00000001
00001000
00000001
,
00000200
00000010
00000000
00000001
,
00000000
00000000
00000010
00000000
00000000
00000000
00001300
00001000
,
00020000
00001000
00000000
00100000
,
00000000
00000000
00001000
00000000
00000000
00000000
00130000
00100000
,
10100000
01010000
00100000
10000000
,
00010000
10000000
01000000
00000000
00100000
00000000
01010000
00000000
,
00001000
00000000
00010000
00000100
00010000
00000000
00001000
00000000
,
00100000
00001000
00010000
00000000
00000100
00010000
00001000
00000000
,
00010000
00000100
00001000
00000010
,
00000001
00000000
00000010
00000000
00001000
00000100
00001000
00000000
,
00000010
00010010
00001000
00101000
,
00010000
00000000
01010000
00000000
00100000
10000000
00010000
10000000
,
00010000
00100000
00010000
01000000
,
00100000
10000000
10000000
00000000
00010000
01000000
01000000
00000000
,
00001000
00010000
00000100
00001000
,
00000100
00000010
00000010
00000000
00000002
00001000
00000000
00000100
,
00000000
00001000
00000000
00000200
00000000
00000000
00000303
00000000
,
00000001
00000100
00000001
00000100
00001000
00000000
00011000
00000000
,
00100000
10000000
01000000
00110000
,
01000000
00000000
00001000
00000000
00100000
00010000
00100000
00000000
,
00001000
00000000
00010000
00000000
00000100
00001000
00000100
00000000
,
00000010
00000000
00000001
00000000
00000100
00000010
00000100
00000000
,
00000001
00001000
00000100
00000011
,
00001000
00000000
00000010
00000000
00010000
00001000
00010000
00000000
,
00100000
01000000
00010000
00100000
,
01000000
00000000
10000000
00010000
10000000
00010000
01000000
00000000
,
00100000
00010000
00001000
00000100
,
00000010
00000001
00000010
00000100
;

//---------------dance-double - ----------------
#NOTES:
     dance-double:
     :
     Hard:
     8:
     :
00000000
00000000
00000000
00000000
,
00000000
00000000
00000000
00000000
,
00000000
00000000
00000000
00000000
,
00000000
00000000
00000000
00000000
,
00000000
00000000
00000000
00000000
,
00010000
10000000
00100000
10000000
01000000
00000000
01010000
00000000
,
00001000
00010000
00000100
00001000
00000010
00000010
00000100
00000000
,
00001000
00000001
00000010
00000100
00001000
00000000
00011000
00000000
,
00100000
00010000
10000000
00100000
01000000
00010000
00010000
00000000
,
10000000
00010000
00100000
00001000
00010000
00000000
00001000
00000000
,
00010000
00000010
00001000
00000001
00000100
00000100
00000010
00000000
,
00000100
00001000
00010000
01000000
10000000
00000000
10000000
00000000
,
00100000
00010000
00001000
00000100
00000001
00001000
00000001
00001000
,
00000110
00000000
00001000
00000100
00000010
00000001
00000100
00000000
,
00001000
00010000
00000100
00010000
00001000
00100000
00010000
00000000
,
00010000
00100000
00010000
10000000
01000000
10000000
01000000
00010000
,
00001000
00010000
00000100
00000010
00000100
00001000
00000010
00000100
,
00000001
00001000
00000100
00000010
00000001
00000100
00001000
00010000
,
01000000
10000000
00020000
00030000
10000000
00100000
10000000
00010000
,
10000000
01000000
00010000
00000000
00001000
00100000
00001000
00010000
,
00001000
00000100
00000010
00000000
00001000
00000001
00000100
00000010
,
00010000
00010000
00001000
00000000
20010000
00000000
30100000
00000000
,
10000000
00010000
01000000
00010000
10000000
00010000
00100000
00001000
,
00010000
00001000
00000100
00000010
00001000
00000001
00000100
00000010
,
00000100
00000001
00000010
00001000
00010000
00010000
00001000
00000000
,
00010000
00001000
00000000
00001000
00100000
00000000
00010000
00000000
10000000
00000000
00000000
00000000
01010000
00000000
00000000
00000000
,
00100000
10000000
01000000
00010000
00001000
00000100
00000110
00000000
,
00001200
00000010
00000301
00001001
,
00000010
00000100
00010000
00001000
01000000
00100000
01000000
00100000
,
10020000
01030000
20010000
30100000
,
01020000
00031000
00012000
00003100
,
00000210
00001300
00000120
00000031
,
00002002
00000000
00000000
00003000
00000000
00000000
00000003
00000000
,
00000010
00000001
00000100
00000001
00001000
00000010
00001000
00000100
,
00010000
00001000
00100000
00010000
01000000
00100000
01000000
00010000
,
10000000
00010000
00100000
01000000
10000000
00010000
10000000
00100000
,
01000000
00010000
10000000
01000000
00010000
00001000
00010000
00000000
,
00000010
00001000
00000001
00000001
00000010
00000001
00001000
00001000
,
00000001
00000100
00001000
00010000
00100000
00010000
00001000
00000000
,
00100000
00010000
10000000
01000000
00010000
00001000
00010000
00010000
,
00000010
00001000
00000001
00000100
00001000
00010000
00001000
00010000
,
00011000
00000000
00000010
00000100
00000001
00001000
00000100
00000010
,
00000001
00000100
00001000
00010000
00001000
00100000
00010000
01000000
,
00100000
10000000
01000000
00100000
00000000
00011000
00000000
00000100
,
00001000
00000001
00000100
00000100
00001000
00001000
00010000
00010000
,
02000000
13000000
00200000
00310000
,
00001000
00000010
00000100
00001000
00000001
00000000
00000000
00000000
,
00001000
00000100
00000000
00000100
00000010
00000000
00000001
00000000
00000100
00000000
00000000
00000000
00001001
00000000
00000000
00000000
,
00000010
00001000
00010000
01000000
00100000
00010000
10000000
00000000
,
00010000
10000000
00100000
01000000
00001000
00010000
00011000
00000000
,
00010000
00000010
00001000
00000001
00000100
00000010
00001000
00000000
,
00000001
00001000
00000010
00010000
00002000
00000000
00013000
00000000
,
00001000
00100000
00001000
00010000
01000000
10000000
01000000
00000000
,
10000000
00100000
10000000
00010000
01000000
00100000
10000000
00000000
,
01000000
00010000
00001000
00000100
00000001
00000000
00001100
00000000
,
00020100
00000000
00032000
00000000
,
00203000
00000000
00320000
00000000
,
00030000
00000000
00000000
00000000
;
