#TITLE:What Have Her;
#ARTIST:Chris Fortier;
#BANNER:What Have Her.png;
#BACKGROUND:What Have Her-bg.png;
#CDTITLE:./CDTITLES/Dance Dance Revolution UNIVERSE.png;
#MUSIC:What Have Her.ogg;
#SAMPLESTART:1.849;
#SAMPLELENGTH:15;
#BPMS:0=130;

//---------------dance-single - ----------------
#NOTES:
     dance-single:
     :
     Beginner:
     1:
     :
0000
0000
0000
0000
,
0000
0000
0000
0000
,
0000
0000
0000
0000
,
0000
0000
0000
0000
,
0000
0000
0000
0000
,
0001
0000
0000
0000
,
0100
0000
0000
0000
,
0010
0000
0000
0000
,
1000
0000
0000
0000
,
0010
0000
0010
0000
,
0100
0000
0100
0000
,
0010
0000
0010
0000
,
0100
0000
0100
0000
,
0001
0000
0001
0000
,
1000
0000
1000
0000
,
0001
0000
0001
0000
,
1000
0000
1000
0000
,
1001
0000
0000
0100
,
0100
0000
0010
0000
,
0100
0000
0000
0001
,
0001
0000
1000
0000
,
0001
0000
0000
0100
,
0100
0000
0010
0000
,
0100
0000
0000
0001
,
0001
0000
1000
0000
,
0001
0000
0000
0000
,
1001
0000
0000
0000
,
0100
0000
0000
0000
,
1001
0000
0000
0000
,
0100
0000
0000
0000
,
0010
0000
0000
0000
,
1000
0000
0000
0000
,
0001
0000
0000
0000
,
1000
0000
1000
0000
,
0001
0000
0001
0000
,
1001
0000
0000
0000
,
0000
0000
0000
0000
,
1000
0000
1000
0000
,
0001
0000
0001
0000
,
0001
0000
0000
0000
,
0000
0000
0000
0000
,
0100
0100
0100
0000
,
0100
0000
0000
0000
,
0010
0010
0010
0000
,
0010
0000
0000
0000
,
1000
1000
1000
0000
,
1000
0000
0000
0000
,
0001
0001
0001
0000
,
0001
0000
1000
0000
,
1001
0000
0000
0000
;

//---------------dance-single - ----------------
#NOTES:
     dance-single:
     :
     Easy:
     2:
     :
0000
0000
0000
0000
,
0000
0000
0000
0000
,
0000
0000
0000
0000
,
0000
0000
0000
0000
,
0000
0000
0000
0000
,
1000
0000
0001
0000
,
1000
0000
0001
0000
,
0100
0000
0010
0000
,
0100
0000
0001
0000
,
2000
0000
0000
3000
,
0002
0000
0000
0003
,
0200
0000
0000
0300
,
0002
0000
0000
0003
,
2000
0000
0000
3000
,
0020
0000
0000
0030
,
2000
0000
0000
3000
,
0200
0000
0000
0300
,
0010
0000
0001
0000
,
0100
0000
1001
0000
,
0010
0000
1000
0000
,
0100
0000
0110
0000
,
0010
0000
0001
0000
,
0100
0000
1001
0000
,
0010
0000
1000
0000
,
0100
0000
0110
0000
,
0001
1000
0001
1000
,
0001
0000
0000
0000
,
1000
0100
1000
0100
,
1000
0000
0000
0000
,
0001
1000
0001
1000
,
0001
0000
0000
0000
,
1000
0100
1000
0100
,
1000
0000
0000
0000
,
0010
0000
0001
0000
,
0100
0000
1000
0000
,
0200
0000
0000
0000
,
0000
0000
0000
0300
,
0010
0000
1000
0000
,
0100
0000
0001
0000
,
0020
0000
0000
0000
,
0000
0000
0000
0030
,
0001
0000
0001
0000
,
0010
0000
0100
0000
,
1000
0000
1000
0000
,
0010
0000
0100
0000
,
0001
0000
0001
0000
,
1000
0000
0001
0000
,
0100
0000
0100
0000
,
0010
0100
0100
0100
,
1001
0000
0000
0000
;

//---------------dance-single - ----------------
#NOTES:
     dance-single:
     :
     Medium:
     5:
     :
0000
0000
0000
0000
,
0000
0000
0000
0000
,
0000
0000
0000
0000
,
0000
0000
0000
0000
,
0000
0000
0000
0000
,
1000
0100
0010
0001
,
0100
0010
0100
0010
,
1000
0100
0001
0100
,
1000
0001
1000
0001
,
1000
0000
0010
0000
0100
0000
0001
0100
,
0001
0000
0100
0000
0010
0000
1000
0001
,
1000
0000
0100
0000
0001
0000
0100
0010
,
0100
0000
1000
0000
0001
0000
1000
0100
,
1000
0000
0010
0000
0100
0000
0001
0100
,
0001
0000
0100
0000
0010
0000
1000
0001
,
1000
0000
0100
0000
0001
0000
0100
0010
,
0100
1000
0001
1000
,
0101
1000
0100
0010
,
0001
0100
1000
0100
,
0110
0010
0100
0001
,
0010
0100
1000
0010
,
1001
0100
0001
1000
,
0010
0100
0001
0100
,
1010
0001
0100
1000
,
0100
0001
0010
0100
,
1000
0100
0020
0000
0030
0000
0002
0000
,
0003
0200
0000
0300
0000
0000
0020
0000
,
1030
0100
2000
0000
3000
0000
0020
0000
,
0030
0200
0300
0002
,
0103
0010
0200
0000
0300
0000
0002
0000
,
0003
2000
3000
0020
,
1030
0001
0200
0000
0300
0000
0020
0000
,
2030
0001
0100
3001
,
0100
0000
0010
1000
0000
0110
0000
1000
,
0010
0000
0100
0001
0000
0000
0010
0000
,
1000
0000
0100
0010
0000
1001
0000
0010
,
0100
0000
0001
0100
0000
0000
1000
0000
,
0100
0000
0010
0001
0000
0110
0000
0001
,
0010
0000
0100
1000
0000
0000
0010
0000
,
0001
0000
0100
0010
0000
1001
0000
0010
,
0100
0000
1000
0100
0000
0000
0001
0000
,
0100
0001
0100
0000
0100
0000
0010
0000
,
1000
0100
1000
0000
1000
0000
0010
0000
,
0100
0001
0100
0000
0100
0000
0001
0000
,
0010
0001
0010
0000
0010
0000
0100
0000
,
1000
0001
0100
0000
0010
0000
0100
0000
,
0001
0100
0010
0000
1000
0000
0001
0000
,
1000
0100
0010
0000
0100
0000
0010
0000
,
0001
1000
0100
0000
0010
0000
0100
0000
,
1001
0000
0000
0000
;

//---------------dance-single - ----------------
#NOTES:
     dance-single:
     :
     Hard:
     9:
     :
0000
0000
0000
0000
,
0000
0000
0000
0000
,
0000
0000
0000
0000
,
0000
0000
0000
0000
,
0000
0000
0000
0000
,
0010
1000
0100
0000
0010
0001
0100
0000
,
0010
1000
0100
0010
1000
0010
0001
0000
,
0100
0001
1000
0000
0100
0010
0001
0000
,
0100
0010
0001
0010
1000
0001
0100
0000
,
1001
0000
1001
0000
0010
1000
0100
1000
,
1001
0000
1001
0000
0010
0001
0100
0001
,
1001
0000
0110
0000
0100
1000
0010
0100
,
0110
0000
0110
0000
0100
0001
0010
0100
,
0110
0000
1100
0000
1000
0010
0100
0001
,
1001
0000
0101
0000
0001
0100
0010
1000
,
1001
0000
1001
0000
1000
0010
0001
0100
,
0110
0000
0000
0000
0110
0000
0000
0000
0010
1000
0010
0000
1000
0001
1000
0000
,
0100
0000
0010
0000
0001
0000
0100
0000
1000
0000
0100
0000
0000
0001
0000
0000
,
0010
0000
0100
0000
1000
0000
0100
0000
0001
0000
0100
0000
0000
0010
0000
0000
,
0001
0000
0100
0000
0010
0000
1000
0000
0100
0000
1000
0000
0000
0010
0000
0000
,
0100
0000
0001
0000
0010
0000
0001
0000
1000
0000
0010
0000
0000
0100
0000
0000
,
1000
0000
0100
0000
0001
0000
1000
0000
0010
0000
0001
0000
0000
0010
0000
0000
,
0100
0000
0001
0000
1000
0000
0100
0000
0001
0000
1000
0000
0000
0010
0000
0000
,
0001
0000
0100
0000
0010
0000
0100
0000
0001
0000
1000
0000
0000
0100
0000
0000
,
0010
0000
0001
0000
1000
0000
0010
0000
1000
0000
0001
0000
0000
0100
0000
0000
,
0010
0000
0100
0000
0010
0000
1000
0100
0000
0100
0010
0000
0001
0100
0000
0000
,
0010
0000
0010
0000
1000
0000
0100
0010
0000
0010
0001
0000
1000
0100
0000
0000
,
1000
0000
1000
0000
0010
0000
0100
0001
0000
0001
1000
0000
0100
0010
0000
0000
,
0001
0000
0001
0000
1000
0000
0010
1000
0000
1000
0010
0000
0100
0001
0100
0000
,
0001
0000
1000
0000
0100
0000
0100
0010
0000
0010
0001
0000
0001
1000
0000
0000
,
0010
0000
0100
0000
0001
0000
0010
0100
0000
0100
1000
0000
1000
0010
0000
0000
,
0100
0000
0001
0000
1000
0000
0001
0010
0000
0010
1000
0000
1000
0010
0000
0000
,
0001
0000
0100
0000
0010
0000
1000
0100
0000
0100
0001
0000
0100
0000
0010
0000
,
0001
0100
1000
0100
0001
0100
1000
0100
,
0001
0010
1000
0010
0001
0010
1000
0010
,
0001
0100
0010
1000
0001
0100
0010
1000
,
1000
0100
0010
0001
1000
0100
0010
0001
,
1000
0100
0001
0100
1000
0100
0001
0100
,
1000
0010
0001
0010
1000
0010
0001
0010
,
1000
0100
0010
0001
1000
0100
0010
0001
,
0001
0100
0010
1000
0001
0100
0010
1000
,
0010
0000
0000
0000
0100
0000
0001
0010
0000
0010
0001
0000
0100
0001
0000
0001
,
0100
0000
0010
0000
1000
0000
0010
0001
0000
0001
0010
0000
0100
0001
0000
0001
,
0100
0000
0100
0000
0010
0000
1000
0001
0000
0001
1000
0000
0001
0100
0000
0100
,
0001
0000
0100
0000
0010
0000
0100
0001
0000
0001
0100
0000
0010
1000
0000
1000
,
0010
0000
0100
0000
0001
0000
1000
0010
0000
0010
1000
0000
0100
0010
0000
0010
,
0100
0000
1000
0000
0010
0000
0100
0001
0000
0001
0100
0000
0001
0010
0000
0010
,
0001
0000
0100
0000
1000
0000
0100
0010
0000
0010
0100
0000
0001
1000
0000
1000
,
0001
0000
1000
0000
0010
0000
0100
0000
0001
1000
0001
0000
0010
0100
0010
0000
,
0100
0000
0000
0000
;

//---------------dance-double - ----------------
#NOTES:
     dance-double:
     :
     Beginner:
     1:
     :
00000000
00000000
00000000
00000000
,
00000000
00000000
00000000
00000000
,
00000000
00000000
00000000
00000000
,
00000000
00000000
00000000
00000000
,
00000000
00000000
00000000
00000000
,
00000001
00000000
00000000
00000000
,
00000010
00000000
00000000
00000000
,
00000100
00000000
00000000
00000000
,
00001000
00000000
00000000
00000000
,
00000010
00000000
00000010
00000000
,
00000001
00000000
00000001
00000000
,
00000100
00000000
00000100
00000000
,
00001000
00000000
00001000
00000000
,
00010000
00000000
00010000
00000000
,
01000000
00000000
01000000
00000000
,
10000000
00000000
10000000
00000000
,
00100000
00000000
00100000
00000000
,
10010000
00000000
00000000
00010000
,
00010000
00000000
10000000
00000000
,
10000000
00000000
00000000
01000000
,
01000000
00000000
00010000
00000000
,
00010000
00000000
00000000
00001000
,
00001000
00000000
00000100
00000000
,
00000100
00000000
00000000
00000001
,
00000001
00000000
00000010
00000000
,
00000010
00000000
00000000
00000000
,
00001001
00000000
00000000
00000000
,
00000100
00000000
00000000
00000000
,
00001001
00000000
00000000
00000000
,
00000100
00000000
00000000
00000000
,
00001000
00000000
00000000
00000000
,
00010000
00000000
00000000
00000000
,
00010000
00000000
00000000
00000000
,
00100000
00000000
00100000
00000000
,
01000000
00000000
01000000
00000000
,
10010000
00000000
00000000
00000000
,
00000000
00000000
00000000
00000000
,
10000000
00000000
10000000
00000000
,
00010000
00000000
00010000
00000000
,
00010000
00000000
00000000
00000000
,
00000000
00000000
00000000
00000000
,
00000100
00000100
00000100
00000000
,
00000100
00000000
00000000
00000000
,
00000010
00000010
00000010
00000000
,
00000010
00000000
00000000
00000000
,
00001000
00001000
00001000
00000000
,
00001000
00000000
00000000
00000000
,
00010000
00010000
00010000
00000000
,
00010000
00000000
00001000
00000000
,
00011000
00000000
00000000
00000000
;

//---------------dance-double - ----------------
#NOTES:
     dance-double:
     :
     Easy:
     3:
     :
00000000
00000000
00000000
00000000
,
00000000
00000000
00000000
00000000
,
00000000
00000000
00000000
00000000
,
00000000
00000000
00000000
00000000
,
00000000
00000000
00000000
00000000
,
00000001
00000000
00000000
00000000
,
00001000
00000000
00000000
00000000
,
00010000
00000000
00000000
00000000
,
10000000
00000000
00000000
00000000
,
00010000
00000000
00010000
00000000
,
10000000
01000000
00010000
00000000
,
01000000
00000000
01000000
00000000
,
00010000
00001000
00000100
00000000
,
00000001
00000000
00000001
00000000
,
00000010
00000001
00000100
00000000
,
00001000
00000000
00001000
00000000
,
00011000
00000000
00000000
00000000
,
10000000
01000000
00100000
00000000
,
10000000
01000000
00100000
00000000
,
10010000
00000000
00000000
00000000
,
01100000
00000000
00000000
00000000
,
00100000
00010000
00001000
00000000
,
00010000
00001000
00000100
00000000
,
00000110
00000000
00000000
00000000
,
00001001
00000000
00000000
00000000
,
00000001
00001000
00000000
00000100
,
00000000
00000010
00000000
00000001
,
00000100
00001000
00000000
00010000
,
00000000
00001000
00000000
00010000
,
01000000
10000000
00000000
00100000
,
00000000
01000000
00000000
00010000
,
00100000
01000000
00000000
10000000
,
01000000
00010000
00001000
00000100
,
00000001
00000000
00000100
00000000
,
00001000
00000000
00000100
00000001
,
00000010
00000000
00000100
00000000
,
00001000
00000000
00000001
00000100
,
00001000
00000000
00010000
00000000
,
01000000
00000000
10000000
01000000
,
00100000
00000000
00010000
00000000
,
10010000
00000000
00000000
00000000
,
10000000
01000000
10000000
00000000
,
00010000
01000000
00010000
00000000
,
00001000
00010000
00001000
00000000
,
00000100
00000001
00000100
00000000
,
00000010
00000001
00000010
00000000
,
00000001
00000100
00000001
00000000
,
00001000
00000100
00001000
00000000
,
00010000
00001000
00010000
00001000
,
00011000
00000000
00000000
00000000
;

//---------------dance-double - ----------------
#NOTES:
     dance-double:
     :
     Medium:
     6:
     :
00000000
00000000
00000000
00000000
,
00000000
00000000
00000000
00000000
,
00000000
00000000
00000000
00000000
,
00000000
00000000
00000000
00000000
,
00000000
00000000
00000000
00000000
,
00010000
10000000
00010000
00100000
,
00001000
00010000
00001000
00000100
,
00000001
00001000
00000001
00000010
,
00000100
00010000
00000100
00001000
,
00001010
00000000
00000101
00000000
00000001
00000100
00000000
00001000
,
00010000
00000000
00001000
00000000
00010000
01000000
00000000
01000000
,
10000000
00000000
01010000
00000000
00100000
10000000
00000000
01000000
,
00010000
00000000
00001000
00000000
00010000
00001000
00000000
00001000
,
00000010
00000000
00001001
00000000
00001000
00000001
00000000
00000010
,
00000001
00000000
00000100
00000000
00000001
00000100
00000000
00001000
,
00010000
00000000
00011000
00000000
00010000
01000000
00000000
10000000
,
00100000
01000000
00010000
01000000
,
00100000
10000000
00010000
10000000
,
01000000
00010000
00001000
00000100
,
00000001
00000010
00000100
00000010
,
00000001
00001000
00000100
00010000
,
01000000
10000000
00010000
10000000
,
01000000
00010000
00001000
00000100
,
00000001
00000010
00000100
00000010
,
00000001
00001000
00000100
00010000
,
00001000
00010000
01000000
00000000
00010000
00000000
00001000
00000000
,
00001000
00010000
01000000
00000000
00000000
00000000
10010000
00000000
,
00100000
10000000
01000000
00000000
10000000
00000000
00100000
00000000
,
00100000
10000000
01000000
00000000
00000000
00000000
01010000
00000000
,
01000000
00010000
00001000
00000000
00010000
00000000
01000000
00000000
,
01000000
00010000
00001000
00000000
00000000
00000000
00000110
00000000
,
00000010
00000001
00000100
00000000
00000001
00000000
00000010
00000000
,
00000010
00000001
00000100
00000000
00000000
00000000
00001100
00000000
,
00000001
00000000
00000100
00001000
00000000
00000100
00000001
00000000
,
00000100
00001000
00010000
01000000
,
10000000
00000000
00100000
01000000
00000000
00010000
00100000
00000000
,
10000000
01000000
00100000
00010000
,
01000000
00000000
00001000
00010000
00000000
00001000
00000100
00000000
,
00010000
00001000
00000100
00000001
,
00000100
00000000
00001000
00010000
00000000
00010000
01000000
00000000
,
10000000
00100000
01000000
00010000
,
10000000
00100000
01000000
00000000
00010000
00100000
00010000
00000000
,
00100000
00001000
00010000
00000000
00001000
00000000
00000100
00000000
,
00000001
00000010
00000100
00000000
00001000
00000100
00001000
00000000
,
00000100
00010000
00001000
00000000
00010000
00000000
01000000
00000000
,
10000000
00010000
00100000
00000000
01000000
10000000
00100000
00000000
,
01000000
00010000
00100000
00000000
00001000
00000000
00001000
00000000
,
00000100
00000001
00001000
00000000
00000010
00001000
00000100
00000000
,
00000010
00000001
00000100
00000000
00001000
00000000
00010000
00000000
,
00011000
00000000
00000000
00000000
;

//---------------dance-double - ----------------
#NOTES:
     dance-double:
     :
     Hard:
     8:
     :
00000000
00000000
00000000
00000000
,
00000000
00000000
00000000
00000000
,
00000000
00000000
00000000
00000000
,
00000000
00000000
00000000
00000000
,
00000000
00000000
00000000
00000000
,
10010000
00000000
01000000
00000000
00100000
10000000
00100000
01000000
,
00001000
00000000
00010000
00000000
00001000
00000010
00000100
00000001
,
00000100
00000000
00010000
00000000
00000100
00000010
00000001
00000100
,
00000010
00000000
00001000
00000000
00000001
00000100
00001000
00010000
,
00100000
00000000
00000000
00000000
02000000
00000000
00000000
00010000
00000000
00000000
00001000
00000000
00000000
03010000
00000000
00000000
,
00010000
00000000
10000000
00000000
01000000
00000000
00000000
01010000
00000000
00000000
00010000
00000000
00000000
00011000
00000000
00000000
,
00001000
00000000
00000100
00000000
00000020
00000000
00000000
00010000
00000000
00000000
00001000
00000000
00000000
00010030
00000000
00000000
,
00000100
00000000
00000001
00000000
00000010
00000000
00000000
00001001
00000000
00000000
00001000
00000000
00000000
00000110
00000000
00000000
,
00000001
00000000
00000100
00000000
00002000
00000000
00000000
01000000
00000000
00000000
00010000
00000000
00000000
01003000
00000000
00000000
,
00010000
00000000
10000000
00000000
00100000
00000000
00000000
01100000
00000000
00000000
00010000
00000000
00000000
11000000
00000000
00000000
,
00010000
00000000
10000000
00000000
02000000
00000000
00000000
00100000
00000000
00000000
10000000
00000000
00000000
03100000
00000000
00000000
,
10000000
00000000
01000000
00000000
00010000
00000000
00000000
00011000
00000000
00000000
00000100
00000000
00000000
00001100
00000000
00000000
,
00000100
00000010
00000001
00000000
00001000
00000010
00000100
00000000
,
00001000
00010000
00000100
00000000
00010000
00001000
01000000
00000000
,
00100000
10000000
01000000
00000000
00010000
00100000
00001000
00000000
,
01000000
00100000
10000000
00000000
00010000
00100000
00001000
00000000
,
00000100
00001000
00000001
00000000
00000100
00000001
00000010
00000000
,
00001000
00000001
00000100
00000000
00001000
00000010
00010000
00000000
,
00001000
00100000
00010000
00000000
01000000
00010000
10000000
00000000
,
01000000
00100000
10000000
00000000
00100000
00001000
00010000
00001000
,
00000100
00000000
00001000
00000000
00010000
00000000
00000000
00000000
00000000
00000000
00000100
00000000
00000000
00000110
00000000
00000000
,
00000001
00000000
00001000
00000000
00000100
00000000
00000000
00000000
00000000
00000000
00010000
00000000
00000000
00011000
00000000
00000000
,
01000000
00000000
00100000
00000000
10000000
00000000
00000000
00000000
00000000
00000000
00100000
00000000
00000000
01100000
00000000
00000000
,
10000000
00010000
10000000
00000000
01000000
00010000
00001000
00010000
,
00001000
00000000
00000100
00000000
00000010
00000000
00000000
00000000
00000000
00000000
00000100
00000000
00000000
00000110
00000000
00000000
,
00000001
00000000
00001000
00000000
00000100
00000000
00000000
00000000
00000000
00000000
00010000
00000000
00000000
00011000
00000000
00000000
,
01000000
00000000
00100000
00000000
10000000
00000000
00000000
00000000
00000000
00000000
01000000
00000000
00000000
01100000
00000000
00000000
,
10000000
00010000
10000000
01000000
00100000
00001000
00100000
00010000
,
00100000
00001000
00000100
00000010
00001000
00000100
00000010
00000001
,
00001000
00000100
00010000
01000000
00010000
00001000
00100000
00010000
,
00100000
10000000
00100000
00010000
01000000
00010000
00100000
00001000
,
00010000
00001000
00100000
00001000
00000100
00000010
00001000
00000100
,
00000010
00000001
00000010
00001000
00000010
00000100
00010000
00001000
,
00100000
01000000
10000000
00100000
01000000
10000000
01000000
00100000
,
00010000
00001000
00000100
00000001
00000100
00001000
00010000
00100000
,
10000000
00000000
00000000
00100000
10000000
00000000
00000000
00100000
01000000
00000000
00000000
00100000
10000000
00000000
00000000
00000000
,
00100000
10000000
01000000
00010000
00001000
00000100
00001000
00000000
,
00010000
00100000
00010000
00001000
00000100
00001000
00010000
00000000
,
00000100
00000010
00000001
00000010
00000001
00000100
00000001
00000000
,
00000010
00000001
00000100
00001000
00010000
01000000
00010000
00000000
,
00001000
00010000
00100000
10000000
01000000
00100000
00001000
00010000
,
00000010
00000100
00000001
00000010
00001000
00010000
00100000
00010000
,
00001000
00000010
00000001
00001000
00000100
00000010
00000001
00000010
,
00000100
00000000
00000000
00001000
00000100
00000000
00000000
00001000
00000001
00000000
00000000
00001000
00000100
00000000
00010000
00000000
,
00011000
00000000
00000000
00000000
;
