#TITLE:We Are Connected (Overdrive Mix);
#ARTIST:Jondi & Spesh;
#BANNER:We Are Connected (Overdrive Mix).png;
#BACKGROUND:We Are Connected (Overdrive Mix)-bg.png;
#CDTITLE:./CDTITLES/Dance Dance Revolution UNIVERSE.png;
#MUSIC:We Are Connected (Overdrive Mix).ogg;
#SAMPLESTART:8.51;
#SAMPLELENGTH:15;
#BPMS:0=140;

//---------------dance-single - ----------------
#NOTES:
     dance-single:
     :
     Beginner:
     1:
     :
0000
0000
0000
0000
,
0000
0000
0000
0000
,
0000
0000
0000
0000
,
0000
0000
0000
0000
,
0000
0000
0000
0000
,
1000
0000
1000
0000
,
0001
0000
0001
0000
,
0100
0000
0100
0000
,
0001
0000
0001
0000
,
1000
0000
1000
0000
,
0001
0000
0001
0000
,
0010
0000
0010
0000
,
0001
0000
0001
0000
,
1000
0000
1000
0000
,
1000
0000
0000
0000
,
0010
0000
0010
0000
,
0010
0000
0000
0000
,
0100
0000
0100
0000
,
0100
0000
0000
0000
,
0001
0000
0001
0000
,
0001
0000
0000
0000
,
2000
0000
0000
3000
,
1000
0000
0000
0000
,
0020
0000
0000
0030
,
0010
0000
0000
0000
,
0200
0000
0000
0300
,
0100
0000
0000
0000
,
0002
0000
0000
0003
,
0001
0000
0001
0000
,
1000
0000
0000
0000
,
0001
0000
0000
0000
,
1000
0000
0000
0000
,
0001
0000
0000
0000
,
0100
0000
0000
0000
,
0010
0000
0000
0000
,
0100
0000
0000
0000
,
0010
0010
0010
0000
,
1001
0000
0000
0000
,
0100
0000
0001
0000
,
0100
0000
0000
0000
,
1000
0000
0100
0000
,
1000
0000
0000
0000
,
0001
0000
0010
0000
,
0001
0000
0000
0000
,
1000
0000
0010
0000
,
1000
0000
1000
0000
,
1000
0000
1000
0000
,
0001
0000
0001
0000
,
0001
0000
0001
0000
,
0010
0000
0010
0000
,
0100
0000
0100
0000
,
0010
0000
0010
0000
,
0100
0000
0100
0000
,
1000
0000
1000
0000
,
0001
0000
0001
0000
,
1000
0000
1000
0000
,
0100
0000
0100
0000
,
1000
0000
1000
0000
,
0001
0000
0001
0000
,
1000
0000
1000
0000
,
0010
0000
0010
0000
,
0100
0000
0000
0000
;

//---------------dance-single - ----------------
#NOTES:
     dance-single:
     :
     Easy:
     2:
     :
0000
0000
0000
0000
,
0000
0000
0000
0000
,
0000
0000
0000
0000
,
0000
0000
0000
0000
,
0000
0000
0000
0000
,
1000
0000
0100
0000
,
1000
0000
0100
0000
,
0010
0000
0001
0000
,
0020
0000
0030
0000
,
0001
0000
0100
0000
,
0001
0000
0100
0000
,
0010
0000
1000
0000
,
0020
0000
0030
0000
,
1000
0000
0001
0000
,
1000
0000
1000
0000
,
0001
0000
1000
0000
,
0001
0000
0001
0000
,
0010
0000
0100
0000
,
0010
0000
0100
0000
,
0020
0000
0030
0000
,
0200
0000
0300
0000
,
1000
0000
0000
0000
,
0001
0000
0000
0000
,
0010
0000
0000
0000
,
0100
0000
0000
0000
,
1000
0000
0000
0000
,
0001
0000
0000
0000
,
0010
0000
0000
0000
,
0100
0000
0000
0000
,
1000
0000
0010
0000
,
1000
0000
0000
0000
,
0001
0000
0010
0000
,
0001
0000
0000
0000
,
1000
0000
0100
0000
,
1000
0000
0000
0000
,
0001
0000
0100
0000
,
0001
0000
0000
0000
,
1000
1000
0001
0000
,
0001
0001
1000
0000
,
1000
1000
0100
0000
,
0001
0001
0100
0000
,
1000
0001
1000
0000
,
0001
1000
0001
0000
,
0010
0010
0010
0000
,
0100
0100
0100
0000
,
1000
0000
0100
0000
,
1000
0000
0100
0000
,
0001
0000
0010
0000
,
0001
0000
0010
0000
,
0001
0000
0100
0000
,
0001
0000
0100
0000
,
1000
0000
0010
0000
,
1000
0000
0010
0000
,
1000
0001
1000
0000
,
0001
0000
0100
0000
,
0001
1000
0001
0000
,
1000
0000
0100
0000
,
1000
0001
1000
0000
,
0010
0000
1000
0000
,
0001
1000
0001
0000
,
0010
0000
0001
0000
,
1001
0000
0000
0000
;

//---------------dance-single - ----------------
#NOTES:
     dance-single:
     :
     Medium:
     5:
     :
0000
0000
0000
0000
,
0000
0000
0000
0000
,
0000
0000
0000
0000
,
0000
0000
0000
0000
,
0000
0000
0000
0000
,
0001
0000
1000
0010
0100
0000
0001
0000
,
1000
0000
0001
0010
0100
0000
1000
0000
,
0010
0000
0001
0010
0100
0000
0001
0000
,
0010
0000
1000
0010
0100
0000
1000
0000
,
0001
0000
1000
0100
0010
0000
0001
0000
,
1000
0000
0001
0100
0010
0000
1000
0000
,
0100
0000
0001
0100
0010
0000
0001
0000
,
0100
0000
1000
0100
0010
0000
1000
0000
,
0001
0000
0001
0000
0010
0001
0010
0000
,
0100
0000
0100
0000
1000
0100
1000
0000
,
0010
0000
0010
0000
1000
0001
1000
0000
,
0100
0000
0100
0000
1000
0001
1000
0000
,
0010
0000
0010
0000
0100
0001
0100
0000
,
0010
0000
0010
0000
1000
0100
1000
0000
,
0100
0000
0100
0000
0010
0001
0010
0000
,
0100
0000
0100
0000
1000
0010
1000
0000
,
1001
0001
0001
0001
,
1000
1000
1000
1000
,
0010
1000
0100
0001
,
0010
1000
0100
0001
,
1000
1000
1000
1000
,
0001
0001
0001
0001
,
0010
1000
0100
0001
,
0010
1000
0100
0001
,
1000
0010
0100
0000
0100
0000
0100
0000
,
0001
0010
0100
0000
0100
0000
0100
0000
,
1000
0100
0010
0000
0010
0000
0010
0000
,
0001
0100
0010
0000
0010
0000
0010
0000
,
1000
0001
0100
0000
0010
0000
0100
0000
,
0001
1000
0100
0000
0010
0000
0100
0000
,
1000
0100
1000
0000
0001
0100
0001
0000
,
1000
0000
0001
0000
1000
0001
1000
0000
,
1001
0000
1000
0010
1000
0010
1000
0000
,
0010
0100
0001
0010
,
0100
1000
0100
0000
0010
0001
0010
0000
,
0001
0100
0010
1000
,
0100
1000
0100
1000
0100
0000
0010
0000
,
0001
0100
0010
1000
,
0001
0010
0001
0000
1000
0010
1000
0000
,
0100
0010
0001
1000
,
0010
0100
0010
0100
0010
0000
1000
0000
,
0001
1100
1000
0101
,
0010
1000
0010
0000
0100
0001
0100
0000
,
0001
0011
1000
1010
,
0001
0010
0001
0010
0001
0000
1000
0000
,
0100
1001
0010
1001
,
0001
0100
0001
0000
1000
0100
1000
0000
,
0010
0101
0010
1100
,
0001
0000
1000
0010
0100
0000
0001
0000
,
1000
0000
0001
0010
0100
0000
1000
0000
,
0010
0000
0001
0010
0100
0000
0001
0000
,
0010
0000
1000
0010
0100
0000
1000
0000
,
0001
0000
1000
0100
0010
0000
0001
0000
,
1000
0000
0001
0100
0010
0000
1000
0000
,
0100
0000
0001
0100
0010
0000
0001
0000
,
0100
0000
1000
0100
0010
0000
1000
0000
,
2002
0000
0000
0000
,
0000
3003
0000
0000
;

//---------------dance-single - ----------------
#NOTES:
     dance-single:
     :
     Hard:
     8:
     :
0000
0000
0000
0000
,
0000
0000
0000
0000
,
0000
0000
0000
0000
,
0000
0000
0000
0000
,
0000
0000
0000
0000
,
1000
0010
0000
0000
0100
0000
0010
0100
0000
0000
0001
0000
0100
0000
0000
0000
,
0001
0010
0000
0000
0100
0000
0010
0100
0000
0000
1000
0000
0100
0000
0000
0000
,
0010
0001
0000
0000
0100
0000
0001
0010
0000
0000
0100
0000
1000
0000
0000
0000
,
0010
1000
0000
0000
0100
0000
1000
0010
0000
0000
0100
0000
0001
0000
0000
0000
,
1000
0100
0000
0000
0010
0000
0100
1000
0000
0000
0010
0000
0100
0000
0000
0000
,
0001
0100
0000
0000
0010
0000
0100
0001
0000
0000
0010
0000
0100
0000
0000
0000
,
0010
0001
0000
0000
1000
0000
0100
0010
0000
0000
0001
0000
0100
0000
0000
0000
,
0010
1000
0000
0000
0001
0000
0100
0010
0000
0000
1000
0000
0100
0000
0010
0000
,
0001
1000
0000
0000
0100
0000
0000
0000
1000
0001
0000
0001
0100
0000
0000
0000
,
0010
0100
0000
0000
0001
0000
0000
0000
0100
0010
0000
0010
1000
0000
0000
0000
,
0100
1000
0000
0000
0001
0000
0000
0000
1000
0100
0000
0100
0010
0000
0000
0000
,
0001
1000
0000
0000
0010
0000
0000
0000
1000
0001
0000
0001
0010
0000
0100
0000
,
1000
0000
0001
0000
0001
0000
0000
0000
0010
0001
0000
0100
0001
0000
0010
0000
,
0100
0000
1000
0000
1000
0000
0000
0000
0010
1000
0000
0100
1000
0000
0010
0000
,
0100
0000
0001
0000
0001
0000
0000
0000
1000
0100
0000
0010
0001
0000
1000
0000
,
0010
0000
0100
0000
0100
0000
0000
0000
0001
0100
0000
0010
1000
0000
0001
0000
,
2002
0000
0000
3000
,
0200
0000
0000
0003
,
0020
0000
0000
0300
,
2000
0000
0000
0000
0000
0000
0000
0000
0000
0000
3030
0000
0000
0000
0010
1000
,
0020
0000
0000
0000
0000
0000
0000
0000
0000
0000
0000
0000
0030
0000
0100
0001
,
0200
0000
0000
0000
0000
0000
0000
0000
0000
0000
0000
0000
0300
0000
0001
0010
,
0002
0000
0000
0000
0000
0000
0000
0000
0000
0000
0000
0000
0003
0000
1000
0100
,
1000
0000
0000
0000
0000
0000
0001
0100
0001
0000
0000
0000
0000
0000
0001
0000
,
1000
0000
0100
0000
0010
0000
0000
0010
0100
0000
1000
0000
0000
0000
0010
0001
,
0010
0000
1000
0000
0100
0000
0000
0100
1000
0000
0010
0000
0000
0000
0100
1000
,
0100
0000
0001
0000
0010
0000
0000
0010
0001
0000
0200
0000
0000
0000
0000
0000
,
1300
0000
0100
0000
0010
0000
0000
0010
0100
0000
0001
0000
0000
0000
1000
0001
,
1000
0000
0000
0100
0000
0000
0001
0000
0000
0100
0000
0000
1000
0000
0001
1000
,
0001
0000
1000
0000
0000
0010
0000
0000
0001
0000
0000
0010
0000
0000
1000
0001
,
0000
0100
0001
0000
0010
0001
0000
1000
0100
0000
1000
0001
0000
1000
0010
0000
,
0100
0001
0000
0010
0100
0000
1000
0010
0000
0100
0001
0000
0010
0000
0100
0000
,
1000
0010
0100
0001
1000
0100
0010
0001
,
0100
0010
0100
0001
1000
0100
0010
0100
,
1000
0001
0010
0100
1000
0010
0100
0001
,
1000
0100
0001
0100
0010
1000
0010
0001
,
1000
0010
0100
0001
1000
0100
0010
0001
,
0100
0010
1000
0010
0100
0001
0100
0010
,
1000
0100
0010
0001
0100
0010
1000
0001
,
0010
0100
0010
0001
1000
0010
0100
0010
,
1000
0000
0000
1000
0000
0000
0100
0000
0001
0000
0000
0001
0000
0000
0100
0000
,
0010
0000
0000
0010
0000
0000
0001
0000
0100
0000
0000
0100
0000
0000
0010
0000
,
1000
0000
0000
1000
0000
0000
0010
0000
0001
0000
0000
0001
0000
0000
0010
0000
,
1000
0100
0000
0010
0001
0000
1000
0000
0001
0100
0000
0010
1000
0000
0100
0000
,
0001
0000
0000
0001
0000
0000
0010
0000
1000
0000
0000
1000
0000
0000
0010
0000
,
0100
0000
0000
0100
0000
0000
1000
0000
0010
0000
0000
0010
0000
0000
0100
0000
,
0001
0000
0000
0001
0000
0000
0100
0000
1000
0000
0000
1000
0000
0000
0100
0000
,
0001
0010
0000
0100
1000
0000
0001
0000
1000
0010
0000
0100
0001
0000
0010
0000
,
0001
0100
0000
0000
0010
0000
0100
0010
0000
0000
1000
0000
0010
0000
0000
0000
,
1000
0100
0000
0000
0010
0000
0100
0010
0000
0000
0001
0000
0010
0000
0000
0000
,
0100
1000
0000
0000
0010
0000
1000
0100
0000
0000
0010
0000
0001
0000
0000
0000
,
0100
0001
0000
0000
0010
0000
0001
0100
0000
0000
0010
0000
1000
0000
0000
0000
,
0001
0010
0000
0000
0100
0000
0010
0001
0000
0000
0100
0000
0010
0000
0000
0000
,
1000
0010
0000
0000
0100
0000
0010
1000
0000
0000
0100
0000
0010
0000
0000
0000
,
0100
1000
0000
0000
0001
0000
0010
0100
0000
0000
1000
0000
0010
0000
0000
0000
,
0100
0001
0000
0000
1000
0000
0010
0100
0000
0000
0001
0000
0010
0000
0100
0000
,
2002
0000
0000
0000
,
0000
3003
0000
0000
;

//---------------dance-double - ----------------
#NOTES:
     dance-double:
     :
     Beginner:
     1:
     :
00000000
00000000
00000000
00000000
,
00000000
00000000
00000000
00000000
,
00000000
00000000
00000000
00000000
,
00000000
00000000
00000000
00000000
,
00000000
00000000
00000000
00000000
,
01000000
00000000
01000000
00000000
,
00100000
00000000
00100000
00000000
,
01000000
00000000
01000000
00000000
,
00010000
00000000
00010000
00000000
,
00001000
00000000
00001000
00000000
,
00000100
00000000
00000100
00000000
,
00000010
00000000
00000010
00000000
,
00000100
00000000
00000100
00000000
,
00000001
00000000
00000001
00000000
,
00000001
00000000
00000000
00000000
,
00001000
00000000
00001000
00000000
,
00001000
00000000
00000000
00000000
,
00000100
00000000
00000100
00000000
,
00000100
00000000
00000000
00000000
,
00010000
00000000
00010000
00000000
,
00010000
00000000
00000000
00000000
,
00002000
00000000
00000000
00003000
,
00001000
00000000
00000000
00000000
,
00200000
00000000
00000000
00300000
,
00100000
00000000
00000000
00000000
,
00020000
00000000
00000000
00030000
,
00010000
00000000
00000000
00000000
,
02000000
00000000
00000000
03000000
,
01000000
00000000
00100000
00000000
,
10000000
00000000
00000000
00000000
,
01000000
00000000
00000000
00000000
,
00010000
00000000
00000000
00000000
,
00001000
00000000
00000000
00000000
,
00000100
00000000
00000000
00000000
,
00000001
00000000
00000000
00000000
,
00000010
00000000
00000000
00000000
,
00001000
00001000
00001000
00000000
,
00011000
00000000
00000000
00000000
,
01000000
00000000
00100000
00000000
,
01000000
00000000
00000000
00000000
,
10000000
00000000
01000000
00000000
,
10000000
00000000
00000000
00000000
,
00010000
00000000
01000000
00000000
,
00010000
00000000
00000000
00000000
,
00001000
00000000
00010000
00000000
,
00001000
00000000
00001000
00000000
,
00001000
00000000
00001000
00000000
,
00010000
00000000
00010000
00000000
,
00010000
00000000
00010000
00000000
,
00000100
00000000
00000100
00000000
,
00001000
00000000
00001000
00000000
,
00000010
00000000
00000010
00000000
,
00000100
00000000
00000100
00000000
,
00000001
00000000
00000001
00000000
,
00001000
00000000
00001000
00000000
,
00000100
00000000
00000100
00000000
,
00010000
00000000
00010000
00000000
,
00001000
00000000
00001000
00000000
,
00100000
00000000
00100000
00000000
,
00010000
00000000
00010000
00000000
,
01000000
00000000
01000000
00000000
,
10000000
00000000
00000000
00000000
;

//---------------dance-double - ----------------
#NOTES:
     dance-double:
     :
     Easy:
     2:
     :
00000000
00000000
00000000
00000000
,
00000000
00000000
00000000
00000000
,
00000000
00000000
00000000
00000000
,
00000000
00000000
00000000
00000000
,
00000000
00000000
00000000
00000000
,
00000001
00000000
00000100
00000000
,
00000001
00000000
00000010
00000000
,
00001000
00000000
00010000
00000000
,
00002000
00000000
00003000
00000000
,
00010000
00000000
00001000
00000000
,
00010000
00000000
00100000
00000000
,
10000000
00000000
01000000
00000000
,
20000000
00000000
30000000
00000000
,
01000000
00000000
00010000
00000000
,
00001000
00000000
00000100
00000000
,
00001000
00000000
00010000
00000000
,
01000000
00000000
00010000
00000000
,
00001000
00000000
00000010
00000000
,
00001000
00000000
00010000
00000000
,
00002000
00000000
00003000
00000000
,
00020000
00000000
00030000
00000000
,
00000100
00000000
00000000
00000000
,
00000010
00000000
00000000
00000000
,
00000100
00000000
00000000
00000000
,
00000010
00000000
00000000
00000000
,
00000001
00000000
00000000
00000000
,
00001000
00000000
00000000
00000000
,
00000001
00000000
00000000
00000000
,
00001000
00000000
00000000
00000000
,
00000001
00000000
00000100
00000000
,
00001000
00000000
00000000
00000000
,
00010000
00000000
01000000
00000000
,
10000000
00000000
00000000
00000000
,
10000000
00000000
00100000
00000000
,
00010000
00000000
00000000
00000000
,
00001000
00000000
00000010
00000000
,
00000001
00000000
00000000
00000000
,
00000100
00000100
00000100
00000000
,
00001000
00000000
00010000
00000000
,
01000000
01000000
01000000
00000000
,
00010000
00000000
00001000
00000000
,
00000010
00000010
00000010
00000000
,
00001000
00000000
00010000
00000000
,
00100000
00100000
00100000
00000000
,
00010000
00000000
00001000
00000000
,
00000100
00000000
00000001
00000000
,
00001000
00000000
00000100
00000000
,
00000010
00000000
00000001
00000000
,
00001000
00000000
00000010
00000000
,
00010000
00000000
00001000
00000000
,
00010000
00000000
00001000
00000000
,
00010000
00000000
00010000
00000000
,
00001000
00000000
00001000
00000000
,
00100000
00010000
00100000
00000000
,
01000000
00000000
10000000
00000000
,
00100000
10000000
00100000
00000000
,
01000000
00000000
00010000
00000000
,
10000000
00000000
01000000
00000000
,
00010000
00000000
00001000
00000000
,
00000100
00000000
00000001
00000000
,
00000010
00000000
00001000
00000000
,
00011000
00000000
00000000
00000000
;

//---------------dance-double - ----------------
#NOTES:
     dance-double:
     :
     Medium:
     6:
     :
00000000
00000000
00000000
00000000
,
00000000
00000000
00000000
00000000
,
00000000
00000000
00000000
00000000
,
00000000
00000000
00000000
00000000
,
00000000
00000000
00000000
00000000
,
00011000
00000000
00001000
00000100
00001000
00000000
00010000
00000000
,
01000000
00000000
10000000
00100000
10000000
00000000
01000000
00000000
,
00010000
00000000
00001000
00000010
00001000
00000000
00010000
00000000
,
00001000
00000000
00000100
00000001
00000100
00000000
00001000
00000000
,
00011000
00000000
00010000
00100000
00010000
00000000
00001000
00000000
,
00000010
00000000
00000001
00000100
00000001
00000000
00000010
00000000
,
00001000
00000000
00010000
01000000
00010000
00000000
00001000
00000000
,
00010000
00000000
00100000
10000000
00100000
00000000
00010000
00000000
,
00011000
00001000
00000100
00000010
,
00001000
00000001
00001000
00000000
00000100
00000010
00000100
00000000
,
00000010
00001000
00010000
01000000
,
10000000
00010000
10000000
00000000
00100000
01000000
00100000
00000000
,
10000000
01000000
00010000
00001000
,
00000100
00000001
00000100
00000000
00000010
00001000
00000010
00000000
,
00001000
00000100
00010000
00001000
,
00100000
00010000
00100000
00000000
01000000
10000000
01000000
00000000
,
10010000
00010000
00010000
00010000
,
10000000
10000000
10000000
10000000
,
00100000
10000000
01000000
00010000
,
00001000
00000100
00000001
00000010
,
00000001
00000001
00000001
00000001
,
00001000
00001000
00001000
00001000
,
00000010
00000100
00001000
00010000
,
00001000
00010000
01000000
00100000
,
00010000
10000000
00010000
00000000
00010000
00000000
00010000
00000000
,
10000000
00010000
10000000
00000000
10000000
00000000
10000000
00000000
,
00100000
01000000
00010000
00100000
,
00001000
00010000
00000100
00001000
,
00000001
00001000
00000001
00000000
00000001
00000000
00000001
00000000
,
00001000
00000001
00001000
00000000
00001000
00000000
00001000
00000000
,
00000001
00000100
00001000
00010000
,
01000000
10000000
00100000
00010000
,
00001000
00010000
00001000
00010000
00001000
00000000
00000100
00000000
,
00000110
00000001
00001001
00001000
,
00000100
00010000
00000100
00000000
00010000
00000100
00010000
00000000
,
00001000
00011000
00100000
01100000
,
01000000
10000000
01000000
10000000
01000000
00000000
00010000
00000000
,
00011000
00000100
00001100
00000010
,
00000001
00000100
00000001
00000000
00001000
00000100
00001000
00000000
,
00000010
00001010
00010000
00011000
,
00100000
10000000
00010000
00100000
,
00001000
01000000
00010000
10000000
,
00100000
00001000
00000010
00000100
,
00000001
00001000
00000100
00000010
,
00001000
00100000
10000000
01000000
,
00010000
00000100
00000001
00000010
,
00001000
00100000
01000000
00010000
,
10000000
01000000
00010000
00001000
,
00011000
00000000
00001000
00000100
00001000
00000000
00010000
00000000
,
01000000
00000000
10000000
00100000
10000000
00000000
01000000
00000000
,
00010000
00000000
00001000
00000010
00001000
00000000
00010000
00000000
,
00001000
00000000
00000100
00000001
00000100
00000000
00001000
00000000
,
00011000
00000000
00010000
00100000
00010000
00000000
00001000
00000000
,
00000010
00000000
00000001
00000100
00000001
00000000
00000010
00000000
,
00001000
00000000
00010000
01000000
00010000
00000000
00001000
00000000
,
00010000
00000000
00100000
10000000
00100000
00000000
00010000
00000000
,
00022000
00000000
00000000
00000000
,
00000000
00033000
00000000
00000000
;

//---------------dance-double - ----------------
#NOTES:
     dance-double:
     :
     Hard:
     8:
     :
00000000
00000000
00000000
00000000
,
00000000
00000000
00000000
00000000
,
00000000
00000000
00000000
00000000
,
00000000
00000000
00000000
00000000
,
00000000
00000000
00000000
00000000
,
10010000
00000000
00000000
00000000
01000000
00000000
00010000
10000000
00000000
00000000
00010000
00000000
01000000
00000000
00100000
00000000
,
10000000
00000000
00000000
00000000
01000000
00000000
10000000
00010000
00000000
00000000
10000000
00000000
01000000
00000000
00100000
00000000
,
00010000
00000000
00000000
00000000
00100000
00000000
00001000
00010000
00000000
00000000
00000100
00000000
00001000
00000000
00000010
00000000
,
00000100
00000000
00000000
00000000
00000001
00000000
00001000
00000001
00000000
00000000
00000010
00000000
00000100
00000000
00001000
00000000
,
00000010
00000000
00000000
00000000
00001000
00000000
00000001
00001000
00000000
00000000
00000100
00000000
00000010
00000000
00001000
00000000
,
00010000
00000000
00000000
00000000
00001000
00000000
00100000
00010000
00000000
00000000
10000000
00000000
00100000
00000000
01000000
00000000
,
00010000
00000000
00000000
00000000
10000000
00000000
01000000
00100000
00000000
00000000
01000000
00000000
10000000
00000000
00100000
00000000
,
01000000
00000000
00000000
00000000
00100000
00000000
00010000
00001000
00000000
00000000
00000100
00000000
00000001
00000000
00000000
00000000
,
00000101
00000000
00000000
00000000
00000011
00000000
00000000
00000000
00000001
00000100
00000000
00000001
00000010
00000000
00001000
00000000
,
00001010
00000000
00000000
00000000
00011000
00000000
00000000
00000000
00001000
00000010
00000000
00001000
00010000
00000000
01000000
00000000
,
01010000
00000000
00000000
00000000
11000000
00000000
00000000
00000000
01000000
00010000
00000000
01000000
10000000
00000000
00100000
00000000
,
10100000
00000000
00000000
00000000
00110000
00000000
00000000
00000000
00100000
10000000
00000000
00100000
00010000
00000000
00001000
00000000
,
00010000
00000000
00000100
00000000
00001000
00000000
00000000
00000000
00000010
00000001
00000000
00000010
00001000
00000000
00000100
00000000
,
00000010
00000000
00000001
00000000
00000001
00000000
00000000
00000000
00000100
00001000
00000000
00000100
00000001
00000000
00001000
00000000
,
00000100
00000000
00010000
00000000
00001000
00000000
00000000
00000000
00100000
10000000
00000000
00100000
00010000
00000000
01000000
00000000
,
00100000
00000000
10000000
00000000
10000000
00000000
00000000
00000000
01000000
00010000
00000000
01000000
10000000
00000000
00010000
00000000
,
20010000
00000000
02000000
30000000
,
00020000
03030000
00011000
00001100
,
00000002
00000000
00000020
00000003
,
00002000
00003030
00011000
01010000
,
10000000
00100000
00000000
01000000
00000000
00100000
00000000
00010000
,
00000000
00001000
00000000
00000100
00000000
00000010
00000000
00000100
,
00000000
00000001
00000000
00000010
00000000
00000100
00000000
00000010
,
00000000
00001000
00000000
00010000
00000000
01000000
00000000
00100000
,
00000000
01000000
10000000
00100000
00000000
01000000
00100000
10000000
,
00000000
00010000
01000000
00100000
00000000
00010000
00001000
00000100
,
00000000
00000010
00000100
00000001
00000000
00000010
00000100
00001000
,
00000000
00000001
00000010
00000100
00000000
00001000
00000010
00000100
,
00000001
00000000
00000000
00000010
00000000
00000000
00001000
00000000
00000000
00010000
00000000
00000000
00100000
00000000
00000000
10000000
,
00000000
00000000
00100000
00000000
00000000
00010000
00000000
00000000
00001000
00000000
00000000
00000100
00000000
00000000
00000001
00000000
,
00000010
00001000
00010000
01000000
10000000
01000000
00100000
10000000
,
00100000
00010000
00001000
00000100
00000001
00000100
00000010
00000000
,
00000001
00001000
00000100
00000010
00000001
00000010
00001000
00000000
,
00010000
01000000
10000000
01000000
00100000
00010000
10000000
00000000
,
00100000
00010000
00100000
01000000
00010000
00100000
00010000
00001000
,
00000100
00001000
00000010
00000100
00001000
00000100
00000001
00000000
,
00000001
00001000
00000010
00000100
00000001
00000100
00001000
00000000
,
00010000
00100000
10000000
00100000
01000000
00010000
10000000
00000000
,
01000000
00010000
01000000
00100000
00010000
01000000
00010000
00001000
,
00000010
00001000
00000100
00000010
00001000
00000010
00000100
00000000
,
00001000
00000000
00000000
00000001
00000000
00000000
00001000
00000000
00000001
00000000
00000000
00001000
00000000
00000000
00000001
00000000
,
00000100
00000000
00000000
00001000
00000000
00000000
00010000
00000000
00100000
00000000
00000000
10000000
00000000
00000000
00010000
00000000
,
10000000
00000000
00000000
00010000
00000000
00000000
10000000
00000000
00010000
00000000
00000000
10000000
00000000
00000000
00010000
00000000
,
00100000
00001000
00010000
00000100
00001000
00000010
00000100
00000001
,
00000010
00000000
00000000
00001000
00000000
00000000
00000010
00000000
00000001
00000000
00000000
00000100
00000000
00000000
00000010
00000000
,
00001000
00000000
00000000
00000100
00000000
00000000
00010000
00000000
00001000
00000000
00000000
00100000
00000000
00000000
00010000
00000000
,
10000000
00000000
00000000
00100000
00000000
00000000
00010000
00000000
00100000
00000000
00000000
10000000
00000000
00000000
01000000
00000000
,
00010000
00001000
00000100
00001000
00010000
00100000
00010000
00001000
,
00000010
00000000
00000000
00000000
00000100
00000000
00001000
00000001
00000000
00000000
00001000
00000000
00000100
00000000
00000010
00000000
,
00000001
00000000
00000000
00000000
00000100
00000000
00000001
00001000
00000000
00000000
00000001
00000000
00000100
00000000
00000010
00000000
,
00001000
00000000
00000000
00000000
00000010
00000000
00010000
00001000
00000000
00000000
00100000
00000000
00010000
00000000
01000000
00000000
,
00100000
00000000
00000000
00000000
10000000
00000000
00010000
10000000
00000000
00000000
00100000
00000000
01000000
00000000
00010000
00000000
,
00100000
00000000
00000000
00000000
00010000
00000000
10000000
00010000
00000000
00000000
01000000
00000000
00100000
00000000
00010000
00000000
,
00001000
00000000
00000000
00000000
00010000
00000000
00000010
00001000
00000000
00000000
00000001
00000000
00000010
00000000
00000100
00000000
,
00001000
00000000
00000000
00000000
00000001
00000000
00000100
00000010
00000000
00000000
00000100
00000000
00000001
00000000
00000010
00000000
,
00000100
00001000
00000000
00000100
00010000
00000000
00001000
00000000
00100000
00010000
00000000
00100000
01000000
00000000
10000000
00000000
,
20020000
00000000
00000000
00000000
,
00000000
30030000
00000000
00000000
;
