#TITLE:Treble, Bass and Attitude;
#ARTIST:The Acolyte;
#BANNER:Treble, Bass and Attitude.png;
#BACKGROUND:Treble, Bass and Attitude-bg.png;
#MUSIC:Treble, Bass and Attitude.ogg;
#SAMPLESTART:34.86;
#SAMPLELENGTH:15;
#BPMS:0=172;

//---------------dance-single - ----------------
#NOTES:
     dance-single:
     :
     Beginner:
     1:
     :
0000
0000
0000
0000
,
0000
0000
0000
0000
,
0000
0000
0000
0000
,
0000
0000
0000
0000
,
0000
0000
0000
0000
,
0000
1000
0000
0000
,
0000
1000
0000
0000
,
0000
0001
0000
0000
,
0000
0001
0000
0000
,
1001
0000
0000
0000
,
0000
0000
0000
0000
,
0001
0000
0000
0000
,
1000
0000
0000
0000
,
0001
0000
0000
0000
,
0100
0000
0000
0000
,
0100
0000
0000
0000
,
0010
0000
0000
0000
,
2000
0000
0000
3000
,
0000
0000
0000
0000
,
0001
0000
0000
0000
,
1000
0000
0000
0000
,
0002
0000
0000
0003
,
0000
0000
0000
0000
,
0200
0000
0000
0300
,
0000
0000
0000
0000
,
0001
0000
0001
0000
,
0001
0000
0000
0000
,
1000
0000
0000
0000
,
1001
0000
0000
0000
,
0100
0000
0100
0000
,
0100
0000
0000
0000
,
0010
0000
0000
0000
,
0110
0000
0000
0000
,
0001
0001
0000
0000
,
0000
0000
0000
0000
,
0010
0000
0010
0000
,
0010
0000
0000
0000
,
1000
1000
0000
0000
,
0000
0000
0000
0000
,
0100
0000
0100
0000
,
0100
0000
0000
0000
,
2000
0000
0000
3000
,
0000
0000
0000
0000
,
0002
0000
0000
0003
,
0000
0000
0000
0000
,
1000
0000
0001
0000
,
1000
0000
0000
0000
,
0010
0000
0100
0000
,
0010
0000
0000
0000
,
1001
0000
0000
0000
,
0000
0000
0000
0000
,
0110
0000
0000
0000
,
0000
0000
0000
0000
,
1001
0000
0000
0000
,
0000
0000
0000
0000
,
0110
0000
0000
0000
,
0001
0000
0001
0000
,
1000
0000
0000
0000
,
1000
0000
0000
0000
,
0010
0000
0000
0000
,
0100
0000
0000
0000
,
0010
0000
0000
0000
,
1000
0000
0000
0000
,
0001
0000
0000
0000
,
1000
1000
1000
0000
;

//---------------dance-single - ----------------
#NOTES:
     dance-single:
     :
     Easy:
     3:
     :
0000
0000
0000
0000
,
0000
0000
0000
0000
,
0000
0000
0000
0000
,
0000
0000
0000
0000
,
0000
0000
0000
0000
,
0001
0100
0000
0010
,
0000
0100
0000
1000
,
0000
0001
0000
0010
,
0001
0100
1000
0100
,
0001
0000
0000
0000
,
0000
0000
0000
0000
,
0200
0000
0000
0300
,
0020
0000
0000
0030
,
1000
0001
0000
0100
,
0000
0010
0000
1000
,
0000
0001
0000
0100
,
0000
0001
0000
1000
,
0001
1000
0000
0100
,
0000
0010
0000
0001
,
0000
0010
0000
1000
,
0000
0100
0000
0001
,
1000
0001
0000
0000
,
0000
0010
0000
0010
,
1000
0100
0001
0100
,
1000
0000
0000
0000
,
1000
1000
0001
0000
,
1000
1000
0001
0000
,
0001
0000
1000
0000
,
0200
0000
0000
0300
,
0010
0010
0100
0000
,
0100
0100
0010
0000
,
0020
0030
0200
0300
,
2000
0000
0000
3000
,
0001
0001
1000
0000
,
1000
1000
0001
0000
,
0002
0003
2000
3000
,
0020
0000
0000
0030
,
0100
0100
0010
0000
,
0010
0010
0100
0000
,
0200
0300
0020
0030
,
2000
0000
0000
3000
,
1001
0000
0000
0000
,
0110
0000
0000
0000
,
1001
0000
0000
0000
,
0110
0000
0000
0000
,
1000
0001
1000
0000
,
0001
0100
0001
0000
,
1000
0100
1000
0000
,
1001
0000
0000
0000
,
1000
0000
0001
0000
,
1000
0000
0100
0000
,
1000
0000
0010
0000
,
1000
0000
0001
0000
,
0100
0000
0001
0000
,
0010
0000
1000
0000
,
0100
0000
0001
0000
,
1001
0000
0000
0000
,
0001
0001
1000
0000
,
1000
1000
0001
0000
,
0002
0003
2000
3000
,
0200
0000
0000
0300
,
0010
0100
0100
0000
,
0100
0010
0010
0000
,
0100
1000
0100
0001
,
0200
0300
2000
3000
,
0002
0000
0000
0003
;

//---------------dance-single - ----------------
#NOTES:
     dance-single:
     :
     Medium:
     6:
     :
0000
0000
0000
0000
,
0000
0000
0000
0000
,
0000
0000
0000
0000
,
0000
0000
0000
0000
,
0000
0000
0000
0000
,
0100
0000
0010
0000
0000
0100
0000
0010
,
1000
0000
0100
0000
0000
0010
0000
0100
,
1000
0000
0010
0000
0000
0100
0000
0010
,
1000
0000
0100
0000
0001
1000
0010
0000
,
0200
0000
0000
0000
,
0000
0000
0000
0000
,
0020
0000
0000
0300
,
2000
0000
0000
3030
,
1000
1010
1000
1001
,
0100
1100
0100
0110
,
0001
0011
0001
1001
,
0010
1010
0010
0110
,
2000
0100
0001
3001
,
0200
0010
1000
1300
,
0002
1000
0100
0103
,
0020
0100
0001
0031
,
0001
0100
0010
0000
0000
0000
0110
0000
,
0000
1010
0000
0101
,
0001
0010
0100
1000
0001
0010
0100
1000
,
0002
0000
0000
0003
,
1000
0100
0001
0010
,
1000
0010
0001
0100
,
0010
0000
0100
1000
0000
0010
0000
0000
,
0100
0000
0001
0010
0000
0100
0000
0000
,
1000
0100
0001
0100
,
1000
0100
0010
0100
,
1000
0000
0001
0100
0000
0010
0000
0000
,
0100
0000
0001
1000
0000
0100
0000
0000
,
0010
0001
0010
1000
,
0010
0001
0100
0001
,
0010
0000
1000
0100
0000
0010
0000
0000
,
0001
0000
1000
0010
0000
0100
0000
0000
,
0001
0100
1000
0100
,
0010
1000
0100
0001
,
0100
0000
1000
0010
0000
0100
0000
0000
,
0010
0000
0001
1000
0000
0100
0000
0000
,
0001
1000
0001
0000
0100
0000
0010
0000
,
0000
1000
0001
0000
0100
0000
0000
0000
,
0100
0010
0100
0000
0001
0000
1000
0000
,
0000
0010
0100
0000
0001
0000
0000
0000
,
1000
0000
0100
0000
0010
0000
0001
0010
,
0100
0000
0010
0000
0001
0000
1000
0100
,
0010
0000
0100
0000
1000
0000
0100
0001
,
2000
0000
0000
3000
,
0010
0001
0010
0000
0100
0000
1000
0000
,
1000
0100
0100
0010
,
0100
1000
0100
0000
0010
0000
0001
0000
,
0001
1000
0001
0000
0110
0000
0000
0000
,
1000
0100
1000
0000
0001
0000
0010
0000
,
0010
0100
0100
1000
,
0010
0100
0010
0000
0100
0000
0001
0000
,
0001
0101
0000
1100
,
0100
0000
1000
0010
0000
0100
0000
0000
,
0001
0000
0100
0010
0000
0100
0000
0000
,
0001
0000
1000
0010
0000
0100
0000
0000
,
0010
0000
1000
0100
0000
1000
0000
0000
,
0001
0010
0100
1000
,
0001
0010
0100
1000
,
0100
0010
0100
0000
0010
0001
0010
0000
,
0001
0100
1000
0100
0001
0000
0010
0000
,
1001
0000
0000
0000
;

//---------------dance-single - ----------------
#NOTES:
     dance-single:
     :
     Hard:
     8:
     :
0000
0000
0000
0000
,
0000
0000
0000
0000
,
0000
0000
0000
0000
,
0000
0000
0000
0000
,
0000
0000
0000
0000
,
1000
0000
0011
0000
1000
0100
1001
0000
,
0001
0000
1100
0000
0001
1000
0110
0000
,
1000
0000
0011
0000
1000
0100
1001
0000
,
0001
0100
1000
0100
0001
0010
0100
1000
,
0110
0000
0000
0000
,
0000
0000
0000
0000
,
1000
0000
1000
0100
0000
0001
0000
0100
,
1000
0000
1000
0100
0000
0001
0000
0000
,
0100
1001
0101
1100
,
0010
1001
1010
0011
,
1000
0100
0010
0000
0010
0001
0100
0000
,
0010
0100
1000
0000
0010
1000
0100
0000
,
0100
1001
0101
1100
,
0010
1001
0011
1010
,
0001
0010
0100
0000
0100
1000
0010
0000
,
1000
0100
0010
0000
0010
0001
0100
0000
,
1000
1001
0110
1001
,
0010
0110
1001
0110
,
0100
0010
0100
0010
0001
1000
0001
1000
,
0101
0000
0000
0000
,
1001
0000
1000
0010
0000
0010
0000
0001
,
0010
0000
0010
1000
0000
1000
0000
0001
,
0100
0000
0100
0010
0000
0010
0000
1000
,
0001
0000
0001
0010
0000
0010
0000
1000
,
0010
0000
0010
0100
0000
0100
0000
1000
,
0010
0000
0010
0100
0000
0100
0000
0001
,
0010
0000
0010
0100
0000
0100
0000
0001
,
0100
0000
0100
1000
0000
1000
0000
0100
,
0010
0001
0010
0100
1000
0100
0010
0000
,
0001
0100
0001
1000
0001
0100
0001
0000
,
1100
0000
0100
0010
0000
0010
0000
0001
,
0100
0000
0100
1000
0000
1000
0000
0100
,
0010
0001
0010
0100
0010
0001
0010
0000
,
1000
0100
1000
0001
1000
0010
1000
0000
,
0101
0001
0100
0010
1000
0100
0010
0001
,
1100
0000
1000
0010
0000
0010
0000
0000
,
0011
0000
1100
0000
0001
0100
0000
0010
,
0100
0000
1001
0000
1000
0010
0000
0100
,
0010
0000
0101
0000
0100
0001
0000
1000
,
0100
0000
1001
0000
0001
0101
0001
0000
,
1000
0000
0100
0000
0010
0000
0000
0001
0010
0000
0100
0000
0010
0000
0000
0000
,
0001
0000
0100
0000
0001
0000
0000
1000
0001
0000
0100
0000
0001
0000
0000
0000
,
0100
0000
0010
0000
0001
0000
0000
0010
0100
0000
0010
0000
0001
0000
0000
0000
,
0220
0000
0000
0330
,
1000
0000
0010
0000
0100
0000
0001
1000
0001
0000
0100
0000
0000
0000
0001
0000
,
0001
0010
0100
1000
0100
0000
0000
0000
,
0010
0000
0001
0000
0100
0000
0010
1000
0010
0000
0100
0000
0000
0000
0010
0000
,
0010
1000
0100
0010
0001
0000
0000
0000
,
0001
0000
0100
0000
0010
0000
1000
0100
1000
0000
0001
0000
0000
0000
0010
0000
,
0001
0010
0100
1000
0100
0000
0000
0000
,
0010
0000
1000
0000
0100
0000
0010
0001
0010
0000
0100
0000
0000
0000
0010
0000
,
0002
0100
0100
0103
,
1001
0000
1000
0010
0000
0010
0000
0001
,
0010
0000
0010
1000
0000
1000
0000
0100
,
0010
0000
0010
0001
0000
0001
0000
1000
,
0100
0000
0100
1000
0000
1000
0000
0010
,
0001
0010
1000
0010
0001
0010
0100
0000
,
0010
0100
1000
0100
0001
0100
0010
0000
,
1000
0010
0100
0001
0100
0010
1000
0010
,
0100
1000
0100
0001
0010
0001
0100
0010
,
0110
0000
0000
0000
;

//---------------dance-single - ----------------
#NOTES:
     dance-single:
     :
     Challenge:
     9:
     :
0000
0000
0000
0000
,
0000
0000
0000
0000
,
0000
0000
0000
0000
,
0000
0000
0000
0000
,
0000
0000
0000
0000
,
1000
0000
0001
0000
0100
0000
0001
0000
0010
0000
0000
0001
0100
0000
0001
0000
,
0100
0000
1000
0000
0100
0000
0001
0000
0100
0000
0000
1000
0100
0000
0010
0000
,
1000
0000
0100
0000
1000
0000
0010
0000
1000
0000
0000
0100
1000
0000
0100
0000
,
0010
0000
0001
0000
1000
0000
0001
0000
0100
0001
0100
0001
0100
0001
0100
0001
,
0100
0000
0000
0000
,
0000
0000
0000
0000
,
0100
0000
0101
0001
0000
1000
0000
0110
,
0010
0000
1001
1000
0000
0100
0000
1000
,
0002
0100
0100
0010
,
0100
0010
0010
0103
,
0100
0000
0000
0001
1000
0000
0000
0010
0100
0000
0000
0001
1000
0000
0000
0001
,
0100
0000
0000
0010
1000
0000
0000
0001
0100
0000
0000
0001
1000
0000
0000
0001
,
0200
1000
1000
0001
,
1000
0001
0001
1300
,
1000
0000
0000
0100
0001
0000
0000
1000
0010
0000
0000
0100
0001
0000
0000
0100
,
0010
0000
0000
1000
0001
0000
0000
0100
0010
0000
0000
0100
0001
0000
0000
0100
,
0020
0001
0001
1000
,
0001
1000
1000
0031
,
0001
0010
1000
0100
0001
0100
1000
0010
,
1000
0001
1000
0000
0001
0100
0001
0000
1000
0001
1000
0000
0001
0100
0001
0000
,
1000
0100
1000
0010
0000
0100
0000
0001
,
0010
0001
0010
0100
0000
1000
0000
0010
,
0100
0010
0100
0001
0000
0100
0000
0010
,
1000
0010
1000
0001
0000
0010
0000
0001
,
0010
0100
1000
1001
0000
0011
0000
0100
,
0010
1000
0100
0110
0000
1001
0000
1000
,
0100
0010
0001
1001
0000
1100
0000
0010
,
0100
0001
0010
0110
0000
1001
0000
0100
,
1000
0010
0001
0010
0100
1000
0100
0001
,
0010
1000
0010
0100
0001
0100
1000
0010
,
1000
0100
1000
0200
0000
0010
0000
1000
,
1000
0000
1000
1000
0000
0310
0000
1000
,
0001
0010
0100
1000
0100
0001
0100
1000
,
0010
0001
0010
1000
0100
0010
0001
0100
,
0200
0000
0010
0010
0000
0010
0000
0001
,
0001
0000
0001
0001
0000
0310
0000
0010
,
1000
0000
0100
0000
0001
0000
0000
0100
0000
0000
0100
0000
0000
1001
0000
0000
,
1000
0000
0100
0000
0010
0000
0000
0001
0000
0000
0001
0000
0000
0011
0000
0000
,
0100
0000
0010
0000
1000
0000
0000
0100
0000
0000
0100
0000
0000
1100
0000
0000
,
0010
0000
0001
0000
0100
0000
0000
0010
0000
0000
0010
0000
0000
1001
0000
0000
,
1000
0010
1000
0100
1000
0010
0100
0001
,
1000
0001
0010
1000
0010
0001
0010
1000
,
0010
0001
0100
0010
1000
0001
0100
0010
,
2002
0000
0000
3003
,
0001
0000
0100
0010
0100
0000
0010
0000
1000
0000
1000
0000
0010
0000
0100
0000
,
0010
0000
1000
0100
1000
0000
0100
0000
0010
0000
0010
0000
0001
0000
1000
0000
,
0001
0000
0100
0010
0100
0000
0010
0000
1000
0000
1000
0000
0100
0000
0001
0000
,
0100
0000
0100
1000
0100
0000
0100
0000
0100
1000
0100
0000
1000
0000
1000
0000
,
0001
0000
0100
0010
0100
0000
0010
0000
1000
0000
1000
0000
0010
0000
0100
0000
,
0010
0000
1000
0100
1000
0000
0100
0000
0010
0000
0010
0000
0001
0000
1000
0000
,
0001
0000
0100
0010
0100
0000
0010
0000
1000
0000
1000
0000
0100
0000
0001
0000
,
0100
0000
0100
1000
0100
0000
0100
0000
0100
1000
0100
0000
1000
0000
1000
0000
,
0001
0000
1001
0001
0000
0100
0000
0110
,
0010
0000
1100
1000
0000
0100
0000
0011
,
0001
0000
1001
1000
0000
0100
0000
1100
,
0100
0000
0011
0010
0000
0001
0000
1001
,
1000
0000
0001
0100
0001
0000
0100
0000
0001
1000
0001
0000
1000
0000
0100
0000
,
0010
0000
0100
1000
0100
0000
1000
0000
0100
1000
0100
0000
1000
0000
0010
0000
,
0100
0000
0010
1000
0010
0000
1000
0000
0010
0100
0010
0000
0100
0000
0010
0000
,
1000
0000
0100
0000
0010
0000
0001
0000
0100
0010
0100
0010
0100
0010
0100
0010
,
0100
0000
0000
0000
;

//---------------dance-double - ----------------
#NOTES:
     dance-double:
     :
     Beginner:
     1:
     :
00000000
00000000
00000000
00000000
,
00000000
00000000
00000000
00000000
,
00000000
00000000
00000000
00000000
,
00000000
00000000
00000000
00000000
,
00000000
00000000
00000000
00000000
,
00000000
00000001
00000000
00000000
,
00000000
00001000
00000000
00000000
,
00000000
00010000
00000000
00000000
,
00000000
10000000
00000000
00000000
,
00020000
00000000
00000000
00030000
,
00000000
00000000
00000000
00000000
,
00100000
00000000
00000000
00000000
,
01000000
00000000
00000000
00000000
,
00002000
00000000
00000000
00003000
,
00000000
00000000
00000000
00000000
,
00010000
00000000
00000000
00000000
,
00001000
00000000
00000000
00000000
,
00000200
00000000
00000000
00000300
,
00000000
00000000
00000000
00000000
,
00000001
00000000
00000000
00000000
,
00001000
00000000
00000000
00000000
,
00010000
00000000
00000000
00000000
,
10000000
00000000
00000000
00000000
,
10000000
00000000
01000000
00000000
,
00010000
00000000
00000000
00000000
,
00010000
00000000
00010000
00000000
,
00001000
00000000
00001000
00000000
,
00000100
00000000
00000000
00000000
,
00000001
00000000
00000000
00000000
,
00000001
00000000
00000001
00000000
,
00000100
00000000
00000100
00000000
,
00001000
00000000
00000000
00000000
,
00010000
00000000
00000000
00000000
,
10000000
00000000
10000000
00000000
,
01000000
00000000
01000000
00000000
,
00010000
00000000
00000000
00000000
,
00001000
00000000
00000000
00000000
,
00000100
00000000
00000100
00000000
,
00000001
00000000
00000001
00000000
,
00000010
00000000
00000000
00000000
,
00000100
00000000
00000000
00000000
,
00011000
00000000
00000000
00000000
,
00000000
00000000
00000000
00000000
,
01100000
00000000
00000000
00000000
,
00000000
00000000
00000000
00000000
,
00010000
00010000
00000000
00000000
,
00001000
00001000
00000000
00000000
,
00010000
00010000
00000000
00000000
,
00001000
00000000
00000000
00000000
,
00000110
00000000
00000000
00000000
,
00000000
00000000
00000000
00000000
,
00011000
00000000
00000000
00000000
,
00010000
00000000
10000000
00000000
,
10010000
00000000
00000000
00000000
,
00000000
00000000
00000000
00000000
,
00011000
00000000
00000000
00000000
,
00001000
00000000
00010000
00000000
,
00001000
00000000
00001000
00000000
,
00000100
00000000
00000100
00000000
,
00000001
00000000
00000000
00000000
,
00000010
00000000
00000000
00000000
,
00000001
00000000
00000001
00000000
,
00000100
00000000
00000100
00000000
,
00001000
00000000
00000000
00000000
,
00010000
00000000
00010000
00000000
;

//---------------dance-double - ----------------
#NOTES:
     dance-double:
     :
     Easy:
     4:
     :
00000000
00000000
00000000
00000000
,
00000000
00000000
00000000
00000000
,
00000000
00000000
00000000
00000000
,
00000000
00000000
00000000
00000000
,
00000000
00000000
00000000
00000000
,
00001000
00010000
00000000
00001000
,
00000100
00000100
00000000
00000001
,
00001000
00001000
00000000
00000100
,
00010000
00010000
00001000
00001000
,
00011000
00000000
00000000
00000000
,
00000000
00000000
00000000
00000000
,
02000000
00000000
00000000
03000000
,
00200000
00000000
00000000
00300000
,
10000000
10000000
00010000
00010000
,
10000000
01000000
00010000
00001000
,
00000200
00000000
00000000
00000300
,
00000002
00000000
00000000
00000003
,
00000001
00000001
00001000
00001000
,
00000001
00000100
00001000
00010000
,
02000000
00000000
00000000
03000000
,
20000000
00000000
00000000
30000000
,
00100000
00100000
01000000
01000000
,
00010000
10000000
01000000
00010000
,
00002000
00003000
00000200
00000300
,
00000002
00000000
00000000
00000003
,
00000001
00000100
00001000
00010000
,
00010000
01000000
10000000
00100000
,
00200000
00300000
02000000
03000000
,
00020000
00030000
00200000
00300000
,
00001000
00010000
01000000
00010000
,
00010000
00001000
00000100
00000001
,
00000002
00000003
00002000
00003000
,
00000200
00000300
00020000
00030000
,
01000000
10000000
00100000
00010000
,
00010000
00001000
00000010
00000001
,
00000002
00000003
00000020
00000030
,
00002000
00003000
00020000
00030000
,
10000000
01000000
00010000
00001000
,
00001000
00000100
00000001
00000010
,
00000020
00000030
00000200
00000300
,
00002000
00003000
00000020
00000030
,
00001001
00000000
00000000
00000000
,
00000100
00000000
00001000
00010000
,
00011000
00000000
00000000
00000000
,
01000000
00000000
10000000
00010000
,
10010000
10000000
01000000
00100000
,
01000000
01000000
00010000
00001000
,
00000100
00000010
00000100
00000100
,
00000001
00000010
00000100
00000000
,
00001000
00000001
00001000
00000100
,
00000010
00000001
00000100
00001000
,
00010000
01000000
10000000
00010000
,
20000000
30000000
00020000
00030000
,
00010000
10000000
00010000
00100000
,
01000000
10000000
01000000
00010000
,
00001000
00000100
00000001
00001000
,
00000002
00000003
00002000
00003000
,
00000001
00000100
00001000
00010000
,
00010000
01000000
10000000
00100000
,
00200000
00300000
02000000
03000000
,
00020000
00030000
00200000
00300000
,
00010000
10000000
01000000
00010000
,
00010000
00001000
00000100
00000001
,
00000001
00000100
00001000
00010000
,
00010000
00001000
00010000
01000000
,
02000000
00000000
00000000
03000000
;

//---------------dance-double - ----------------
#NOTES:
     dance-double:
     :
     Medium:
     6:
     :
00000000
00000000
00000000
00000000
,
00000000
00000000
00000000
00000000
,
00000000
00000000
00000000
00000000
,
00000000
00000000
00000000
00000000
,
00000000
00000000
00000000
00000000
,
00010000
00001000
00000100
00000001
,
00000010
00001000
00010000
00001000
,
00000100
00000001
00000010
00001000
,
00010000
01000000
10000000
00100000
,
01100000
00000000
00000000
00000000
,
00000000
00000000
00000000
00000000
,
00000110
00000000
00000000
00000000
,
00001100
00000000
00000000
00000000
,
00000100
00000001
00000100
00001000
,
00010000
00001000
00000100
00001000
,
00010000
01000000
10000000
00100000
,
00010000
00001000
00010000
00100000
,
10000000
01000000
10000000
00000000
00000000
00000000
01010000
00000000
,
00000000
00001000
00010000
00001000
,
00000100
00000001
00000100
00000000
00000000
00000000
00001010
00000000
,
00000000
00000100
00001000
00010000
,
00001000
00010000
00001000
00000000
00000100
00000000
00001000
00000000
,
00010000
00100000
00010000
00000000
00001000
00000000
00010000
00000000
,
01000000
10000000
00100000
00000000
01000000
10000000
00100000
00000000
,
10010000
00000000
00000000
00000000
,
10000000
01000000
00010000
00001000
,
00010000
01000000
00010000
00001000
,
00000100
00000000
00000001
00001000
00000000
00000001
00000000
00000000
,
00000100
00000000
00001000
00010000
00000000
00001000
00000000
00000000
,
00000010
00000100
00001000
00010000
,
01000000
00010000
00001000
00010000
,
01000000
00000000
10000000
00010000
00000000
10000000
00000000
00000000
,
01000000
00000000
00010000
00001000
00000000
00010000
00000000
00000000
,
00001000
00000100
00001000
00000000
00000000
00000000
00000110
00000000
,
00000010
00000001
00000010
00000000
00000000
00000000
00001010
00000000
,
00001000
00000000
00000010
00000100
00000000
00000010
00000000
00000000
,
00000100
00000000
00001000
00010000
00000000
00001000
00000000
00000000
,
00010000
01000000
00010000
00000000
00000000
00000000
01100000
00000000
,
01000000
10000000
01000000
00000000
00000000
00000000
00110000
00000000
,
10000000
01000000
00010000
00001000
,
00010000
01000000
00010000
00000000
00001000
00010000
00001000
00000000
,
00011000
00000000
00001100
00000000
00001000
00000100
00000000
00000020
,
00000000
00000000
00000000
00000000
00000031
00000100
00000000
00002000
,
00000000
00000000
00000000
00000000
00013000
00100000
00000000
02000000
,
00000000
00000000
03010000
00020000
00000000
00100000
00130000
00000000
,
10000000
00000000
00010000
00000000
01000000
01000000
01000000
00000000
,
00001000
00000000
00010000
00000000
00001000
00001000
00001000
00000000
,
00000100
00000000
00000001
00000000
00000010
00000010
00000010
00000000
,
00000200
00000000
00000000
00000300
,
00010000
00001000
00010000
00001000
,
01000000
00100000
01000000
00100000
,
10000000
00010000
10000000
00010000
,
01000000
00000000
00001000
00000000
00010000
00001000
00000000
00000000
,
00000100
00000010
00000100
00000010
,
00010000
00001000
00010000
00001000
,
00100000
00010000
00100000
00010000
,
10000000
00100000
00000000
01100000
,
10000000
01000000
00010000
00001000
,
00010000
01000000
00010000
00001000
,
00000100
00000000
00000001
00001000
00000000
00000001
00000000
00000000
,
00000100
00000000
00001000
00010000
00000000
00001000
00000000
00000000
,
00000010
00000100
00001000
00010000
,
01000000
00010000
00001000
00010000
,
00001000
00000100
00001000
00000000
00010000
00000000
01000000
00000000
,
10000000
01000000
00010000
00001000
00000100
00000000
00001000
00000000
,
00001001
00000000
00000000
00000000
;

//---------------dance-double - ----------------
#NOTES:
     dance-double:
     :
     Hard:
     8:
     :
00000000
00000000
00000000
00000000
,
00000000
00000000
00000000
00000000
,
00000000
00000000
00000000
00000000
,
00000000
00000000
00000000
00000000
,
00000000
00000000
00000000
00000000
,
00001000
00000001
00000100
00000000
00000010
00010000
00001000
00000000
,
01000000
00010000
10000000
00000000
00100000
01000000
00010000
00000000
,
10000000
01000000
00100000
00000000
00001000
00010000
00000100
00000000
,
00001000
00000010
00000100
00000001
00001000
00000010
00000100
00000001
,
00002001
00000000
00000000
00000000
,
00000000
00000000
00000000
00000000
,
00010000
00000000
01000000
00000000
,
00010000
00000000
01000000
00003000
,
02000000
10000000
10000000
00010000
,
00010000
10000000
10000000
03010000
,
00020000
01000000
00100000
01030000
,
00002000
00010000
00010000
00013000
,
00001000
00000100
00000001
00000000
00000010
00000000
00001000
00000000
,
00000010
00000001
00000100
00000000
00001000
00000000
00010000
00000000
,
01000000
10000000
00100000
00000000
00010000
00000000
00100000
00000000
,
10000000
01000000
00010000
00000000
00001000
00000000
00000100
00000000
,
00000001
00000010
00000100
00010000
00001000
00010000
00001000
00000000
,
01000000
00100000
10000000
00010000
01000000
00010000
01000000
00000000
,
10000000
01000000
00100000
00001000
00010000
00001000
00010000
00001000
,
00010000
00000000
00000000
00000000
,
00000110
00000000
00000101
00000000
00000010
00000001
00001000
00000100
,
00001100
00000000
00001100
00000000
00010000
00001000
01000000
00010000
,
01010000
00000000
00110000
00000000
00100000
00010000
10000000
01000000
,
11000000
00000000
11000000
00000000
10000000
01000000
00010000
00001000
,
00011000
00000000
00011000
00000000
00010000
00001000
00000010
00000001
,
00000011
00000000
00000101
00000000
00000001
00000100
00001000
00010000
,
00011000
00000000
00011000
00000000
00001000
00010000
01000000
10000000
,
11000000
00000000
00000000
00000000
,
10100000
10000000
01000000
00000000
00010000
00001000
00010000
00000000
,
00010000
00001000
00000100
00000000
00000001
00000010
00000001
00000000
,
00001010
00001000
00000100
00000000
00010000
00001000
00010000
00000000
,
00010000
01000000
10000000
00000000
01000000
00100000
01000000
00000000
,
00011000
00010000
01000000
00000000
00010000
00001000
00010000
00000000
,
00010000
00001000
00000100
00000000
00000001
00000010
00000001
00000000
,
00001010
00001000
00000100
00000000
00010000
00001000
00010000
00000000
,
00010000
01000000
10000000
01000000
00010000
01000000
00010000
00000000
,
00002000
00000000
00000000
00000000
00000000
00000000
00000000
00003100
00000000
00000000
00000002
00000000
00000000
00000000
00000000
00000000
,
00002003
00000000
00000000
00000000
00000000
00000000
00000000
00003100
00000000
00000000
00020000
00000000
00000000
00000000
00000000
00000000
,
02030000
00000000
00000000
00000000
00000000
00000000
00000000
03100000
00000000
00000000
00020000
00000000
00000000
00000000
00000000
00000000
,
10000000
00000000
20030000
00000000
00000000
00000000
00000000
30100000
00000000
00000000
02000000
00000000
00000000
00000000
00000000
00000000
,
03010000
00000000
00000000
00000000
10010000
00000000
00000000
10000000
01000000
00000000
00010000
00000000
00001000
00000000
00000000
00000000
,
00000100
00000000
00000000
00000000
00001001
00000000
00000000
00000010
00000001
00000000
00000100
00000000
00000001
00000000
00000000
00000000
,
00001000
00000000
00000000
00000000
00001001
00000000
00000000
00000001
00000100
00000000
00001000
00000000
00010000
00000000
00000000
00000000
,
01001000
00000000
00000000
00000000
,
00010000
00100000
01000000
00000000
10000000
01000000
00010000
00000000
,
00100000
00100000
00001000
00010000
00010000
00000000
00000000
00000000
,
00000100
00001000
00000001
00000000
00000100
00001000
00010000
00000000
,
00000100
00000100
00010000
00001000
00001000
00000000
00000000
00000000
,
00010000
01000000
00100000
00000000
00001000
00010000
00000100
00000000
,
00001000
00001000
00000001
00000010
00000010
00000000
00000000
00000000
,
00000001
00000010
00000100
00000000
00001000
00000100
00010000
00000000
,
00001000
00000100
00000001
00000100
00001000
00010000
01000000
01000000
,
20000000
00000000
32000000
00000000
03010000
00001000
00010000
00001000
,
00000200
00000000
00000302
00000000
00000013
00001000
00000010
00001000
,
00020000
00000000
00230000
00000000
00310000
00001000
00010000
00001000
,
00000200
00000000
00002300
00000000
00013000
01000000
00010000
01000000
,
10000000
00100000
01000000
00010000
10000000
00100000
01000000
00010000
,
00100000
00001000
00010000
00001000
00000100
00000001
00000100
00000000
,
00000001
00000100
00000010
00001000
00000001
00000100
00000010
00001000
,
00000100
00010000
00001000
00010000
01000000
10000000
01000000
00100000
,
00011000
00000000
00000000
00000000
;

//---------------dance-double - ----------------
#NOTES:
     dance-double:
     :
     Challenge:
     9:
     :
00000000
00000000
00000000
00000000
,
00000000
00000000
00000000
00000000
,
00000000
00000000
00000000
00000000
,
00000000
00000000
00000000
00000000
,
00000000
00000000
00000000
00000000
,
10000000
01000000
00100000
01000000
00100000
01000000
00010000
00000000
,
00010000
00001000
00000010
00001000
00010000
00100000
00010000
00000000
,
00001000
00000100
00000010
00000100
00000010
00000100
00000001
00000010
,
00000001
00000100
00001000
00010000
00001000
00000100
00001000
00010000
,
00002000
00000000
00000000
00000000
,
00000000
00000000
00000000
00000000
,
00020000
00000000
00000000
00003000
,
00200000
00000000
00000000
00330000
,
10000000
00000000
01000000
00010000
00000000
00001000
00000000
00000100
,
00000001
00000000
00000010
00001000
00000000
00010000
00000000
00100000
,
00010000
00000000
00001000
00000010
00000000
00001000
00000000
00010000
,
00100000
00000000
00010000
00001000
00000000
00010000
00000000
00100000
,
10000000
00000000
01000000
00010000
00000000
00001000
00000000
00000100
,
00000001
00000000
00000010
00001000
00000000
00010000
00000000
00100000
,
00010000
00000000
00001000
00000010
00000000
00001000
00000000
00010000
,
00100000
00000000
00010000
00001000
00000000
00010000
00000000
01000000
,
10000000
00000000
01000000
10000000
01000000
00000000
00000000
00000000
00100000
00000000
00010000
00000000
10000000
00000000
01000000
00000000
,
00010000
00000000
00001000
00010000
00001000
00000000
00000000
00000000
00010000
00000000
00001000
00000000
00000100
00000000
00000001
00000000
,
00000010
00000000
00000001
00000010
00000001
00000000
00000100
00000000
00001000
00000000
00010000
00000000
01000000
00000000
00010000
00000000
,
00011000
00000000
00000000
00000000
,
00010000
01000000
10000000
00100000
01000000
00100000
01000000
00100000
,
00010000
00100000
00010000
00001000
00010000
00001000
00000010
00001000
,
00000010
00000001
00000100
00000000
00000100
00001000
00010000
00000000
,
00010000
01000000
10000000
00000000
10000000
01000000
00010000
00000000
,
00001000
00000100
00000001
00000010
00000100
00000010
00000100
00000010
,
00001000
00000010
00001000
00010000
00001000
00010000
00100000
00010000
,
00100000
10000000
01000000
00000000
01000000
00010000
00001000
00000000
,
00001000
00000100
00000001
00000000
00000001
00000100
00001000
00000000
,
00001000
00010000
01000000
10000000
01000000
00100000
01000000
10000000
,
01000000
00100000
01000000
00010000
00001000
00010000
01000000
00010000
,
00001000
00000100
00000001
00000000
00000001
00000100
00001000
00000000
,
00010000
01000000
10000000
00000000
10000000
01000000
00010000
00000000
,
00010000
00001000
00000100
00000001
00000010
00000100
00000010
00000001
,
00000010
00000100
00000010
00001000
00010000
00001000
00000010
00000000
,
00000110
00000000
00000001
00000100
00001000
00000000
00000100
00000010
,
00000100
00000000
00000010
00000000
00000100
00000000
00000001
00000000
00001000
00000001
00001000
00000001
00000000
00000000
00000000
00000000
,
00001001
00000000
00000010
00001000
00001000
00000000
00000100
00010000
,
00000000
00001000
00100000
00100000
00100000
00000000
00010000
01000000
,
00000000
00100000
10000000
10000000
10000000
00000000
01000000
00010000
,
00000000
00000000
00001000
00000000
00000200
00000000
00000000
00000000
00000000
00000300
00001000
00000000
00020000
00000000
00000000
00000000
,
00031000
00000000
00000000
00000000
00000100
00000000
00000000
00000100
00000001
00001000
00000000
00000001
00001000
00000000
00000000
00000000
,
00001000
00000000
00000000
00000000
00000001
00000000
00000000
00000001
00001000
00000100
00000000
00001000
00000100
00000000
00000000
00000000
,
00010000
00000000
00000000
00000000
01000000
00000000
00000000
01000000
10000000
00010000
00000000
10000000
00010000
00000000
00000000
00000000
,
10010000
00000000
00000000
00000000
,
00100000
10000000
00010000
01000000
00001000
00010000
00001000
00010000
,
00001000
00010000
00001000
00000100
00000010
00001000
00000100
00010000
,
00001000
00100000
00010000
01000000
00100000
10000000
00100000
10000000
,
00100000
10000000
00100000
10000000
10010000
00000000
00000000
00000000
,
00010000
00001000
00000100
00000010
00001000
00000100
00001000
00000100
,
00001000
00000100
00001000
00000100
00010000
00001000
00000100
00000010
,
00010000
00001000
00100000
01000000
00100000
01000000
00100000
01000000
,
00100000
00000000
01000000
10000000
00010000
00000000
00000000
00000000
00000000
00000000
00000000
00000000
10010000
00000000
00000000
00000000
,
10000000
00000000
01000000
00010000
00000000
00001000
00000000
00000100
,
00000001
00000000
00000010
00001000
00000000
00010000
00000000
00100000
,
00010000
00000000
00001000
00000010
00000000
00001000
00000000
00010000
,
00100000
00000000
00010000
00001000
00000000
00010000
00000000
01000000
,
10000000
01000000
00010000
00001000
00000010
00001000
00000010
00000001
,
00000100
00001000
00010000
01000000
10000000
01000000
10000000
00100000
,
01000000
00000000
00100000
00000000
10000000
00000000
00000000
01000000
00010000
00000000
00000000
00001000
00010000
00000000
00001000
00000000
,
00000100
00000000
00001000
00000000
00010000
00000000
00001000
00000000
00010000
00001000
00010000
00001000
00010000
00001000
00010000
00001000
,
00010000
00000000
00000000
00000000
;
