#TITLE:Tir na n'Og;
#ARTIST:WORLD SEQUENCE;
#BANNER:Tir na n'Og.png;
#BACKGROUND:Tir na n'Og-bg.png;
#CDTITLE:./CDTITLES/Dance Dance Revolution UNIVERSE.png;
#MUSIC:Tir na n'Og.ogg;
#SAMPLESTART:2.162;
#SAMPLELENGTH:15;
#DISPLAYBPM:54:112;
#BPMS:0=110,100=54.9,109=110,115=91.18,116=110;

//---------------dance-single - ----------------
#NOTES:
     dance-single:
     :
     Beginner:
     1:
     :
0000
0000
0000
0000
,
0000
0000
0000
0000
,
0000
0000
0000
0000
1000
0000
0000
1000
,
0000
0010
0000
0000
,
1000
0000
0000
0001
,
0000
0000
0000
0000
0100
0000
0000
0100
,
0000
0010
0000
0000
,
1000
0000
0000
1000
,
0000
0000
0100
0000
,
0000
0100
0000
0000
,
0010
0000
0000
0010
,
0000
0000
0100
0000
,
0000
1000
0000
0000
,
1000
0000
0000
1000
0000
0000
0001
0000
,
0000
0001
0000
0000
1000
0000
0000
0000
,
0000
0001
0000
0000
,
0100
0000
0000
0100
0000
0000
0010
0000
,
0000
0010
0000
0000
0100
0000
0000
0000
,
0000
0010
0000
0000
,
1000
0000
0000
0001
,
0000
0000
0100
0000
,
0000
0000
0000
0000
,
0010
0000
0000
0100
,
0000
0000
0002
0000
,
0000
0003
0000
0000
,
1000
0000
0000
0100
0000
0000
1000
0000
,
0000
0001
0000
0000
0010
0000
0000
0100
,
0000
1000
0000
0000
,
0002
0000
0000
0000
0000
0003
0000
0000
,
0000
1000
0000
0000
0000
0000
0000
0000
0000
0000
0000
0000
0000
0001
0000
0000
,
0000
0000
0000
0000
0000
0000
0000
0000
0000
1000
0000
0000
0000
0000
0000
0000
,
0000
0000
0000
0000
0000
0010
0000
0000
0000
0000
0000
0000
0000
0000
0000
0000
,
0000
1000
0000
0000
0000
0000
0000
0000
0000
0000
0000
0000
0000
0001
0000
0000
,
0000
0000
0000
0000
0000
0000
0000
0000
0000
1000
0000
0000
0000
0000
0000
0000
,
0000
0000
0000
0000
0000
0100
0000
0000
0000
0000
0000
0000
0000
0000
0000
0000
,
0000
0010
0000
0000
0000
0000
0000
0010
0000
0000
0000
0000
0000
0001
0000
0000
,
0000
0000
0000
0000
0000
0000
0000
0000
0000
0001
0000
0000
0000
0000
0000
0001
,
0000
0000
0000
0000
0000
1000
0000
0000
0000
0000
0000
0000
0000
0000
0000
0000
,
0000
1000
0000
0000
0000
0000
0000
1000
0000
0000
0000
0000
0000
0010
0000
0000
,
0000
0000
0000
0000
0000
0000
0000
0000
0000
0100
0000
0000
0000
0000
0000
0100
,
0000
0000
0000
0000
0000
0010
0000
0000
0000
0000
0000
0000
0000
0000
0000
0000
,
0000
1000
0000
0000
0000
0000
0000
0000
0000
0000
0000
0000
0000
0001
0000
0000
,
0000
0000
0000
0000
0000
0000
0000
0000
0000
1000
0000
0000
0000
0000
0000
1000
,
0000
0000
0000
0000
0000
0010
0000
0000
0000
0000
0000
0000
0000
0000
0000
0000
,
0000
0100
0000
0000
0000
0000
0000
0000
0000
0000
0000
0000
0000
0010
0000
0000
,
0000
0000
0000
0000
0000
0000
0000
0100
0000
0000
0000
0000
0000
0100
0000
0000
,
0000
0000
0000
0001
0000
0000
0000
0000
0000
0000
0000
0000
0000
0000
0000
0000
;

//---------------dance-single - ----------------
#NOTES:
     dance-single:
     :
     Easy:
     3:
     :
0000
0000
0000
0000
,
0000
0000
0000
0000
,
0000
0000
0000
0000
1000
0000
0000
0010
,
0000
0000
0000
0000
0100
0000
0000
0100
0000
0000
0010
0000
0000
0010
0000
0000
,
0010
0000
0000
0100
0000
0000
0001
0000
,
0000
1000
0000
0000
0010
0000
0000
0100
,
0000
0000
0010
0000
0000
0100
0000
0000
,
0001
0000
0000
1000
,
0000
0000
0000
0000
0010
0000
0000
0100
,
0000
0010
0000
0000
,
1000
0000
0000
0001
,
0000
0000
0000
0000
1000
0000
0000
0010
,
0000
1000
0000
0000
,
0010
0000
0000
0010
0000
0000
1000
0000
,
0000
1000
0000
0000
0010
0000
0000
0100
,
0000
0001
0000
0000
,
1000
0000
0000
0001
,
0000
0000
0000
0000
0010
0000
0000
0100
,
0000
1000
0000
0000
,
1001
0000
0000
1001
,
0000
0000
0000
0000
1000
0000
0000
0010
,
0000
0000
0100
0000
0000
0010
0000
0000
,
1001
0000
0000
1001
,
0000
0000
0000
0000
0010
0000
0000
0100
,
0000
0010
0000
0000
,
1000
0000
0001
0000
0100
0100
0010
0000
,
1000
0000
0001
0001
1000
0000
0100
0000
,
0000
0000
0010
0000
0000
0001
0000
0000
,
1000
0000
0000
0001
0000
0000
0100
0000
,
0000
0010
0000
0000
0000
0000
0000
0000
0000
0000
0000
0000
0000
1000
0000
0000
,
0000
0000
0000
0000
0000
0000
0000
0000
0000
0001
0000
0000
0000
0000
0000
1000
,
0000
0000
0000
0000
0000
0100
0000
0000
0000
0000
0000
0000
0000
0000
0000
0000
,
0000
0100
0000
0000
0000
0000
0000
0000
0000
0000
0000
0000
0000
0010
0000
0000
,
0000
0000
0000
0000
0000
0000
0000
0000
0000
0001
0000
0000
0000
0000
0000
0010
,
0000
0000
0000
0000
0000
0001
0000
0000
0000
0000
0000
0000
0000
0000
0000
0000
,
0000
0010
0000
0000
0000
0000
0000
0010
0000
0000
0000
0000
0000
0001
0000
0000
,
0000
0000
0000
0001
0000
0000
0000
0000
0000
0010
0000
0000
0000
0000
0000
0100
,
0000
0000
0000
0000
0000
1000
0000
0000
0000
0000
0000
0000
0000
0000
0000
0000
,
0000
1000
0000
0000
0000
0000
0000
1000
0000
0000
0000
0000
0000
0010
0000
0000
,
0000
0000
0000
0010
0000
0000
0000
0000
0000
1000
0000
0000
0000
0000
0000
0001
,
0000
0000
0000
0000
0000
1000
0000
0000
0000
0000
0000
0000
0000
0000
0000
0000
,
0000
0010
0000
0000
1000
0000
0000
0010
0000
0000
0000
0000
0000
0010
0000
0000
,
1000
0000
0000
0010
0000
0000
0000
0000
0000
0100
0000
0000
0000
0000
0000
0001
,
0000
0000
0000
0000
0000
0010
0000
0000
0100
0000
0000
1000
0000
0000
0000
0000
,
0000
1000
0000
0000
0001
0000
0000
1000
0000
0000
0000
0000
0000
1000
0000
0000
,
0010
0000
0000
1000
0000
0000
0000
0000
0000
0010
0000
0000
0000
0000
0000
0100
,
0000
0000
0000
0000
0000
0001
0000
0000
0010
0000
0000
0100
0000
0000
1000
0000
,
0000
0000
0000
0000
0000
0000
0000
1001
0000
0000
0000
0000
0000
0000
0000
0000
;

//---------------dance-single - ----------------
#NOTES:
     dance-single:
     :
     Medium:
     6:
     :
0000
0000
0000
0000
,
0000
0000
0000
0000
,
0000
0000
0000
0000
0000
0000
0000
0000
1000
0000
0000
0100
0000
0000
0010
0000
,
0000
1001
0000
0000
0001
0000
0000
0100
0000
0000
0010
0000
0000
0000
0000
0000
,
0010
0000
0000
1000
0000
0000
0100
0000
0000
1001
0000
0000
0100
0000
0000
0010
,
0000
0000
0100
0000
0010
1000
0000
0000
1010
0000
0000
1100
0000
0000
0011
0000
,
0000
1100
0000
0000
1000
0000
0000
0010
0000
0000
1000
0000
0000
0100
0000
0000
,
0012
0000
0010
0000
0100
0000
0010
0003
0000
0000
0000
0000
0120
0000
0100
0000
,
1000
0000
0100
0030
0000
0000
0000
0000
2010
0000
0010
0000
0001
0000
0100
0000
,
0000
0100
3010
0000
0000
0000
0000
0000
,
0210
0010
1000
0310
0000
0000
1020
1000
,
0001
0000
1000
0030
0000
0000
0000
0000
1010
0000
0000
0000
0000
0000
1001
0000
,
0000
0000
0011
0000
0000
1001
0000
0000
,
0011
0000
0000
0001
0100
0000
0020
0000
0000
0000
0000
0000
1030
0000
0000
1000
,
0001
0200
0000
0000
0301
0010
0100
1000
,
0000
0000
0100
0000
0010
0000
0001
1000
0010
0000
0100
0000
0001
0000
0100
0000
,
1000
0000
0000
1000
0100
0000
0010
0000
1000
0000
0100
0000
0020
0000
0000
0000
,
0000
0000
0130
0000
0000
0100
0010
0000
0001
1000
0100
0000
0010
0000
0200
0000
,
0000
0000
0310
0000
0200
0000
0000
0000
0000
0000
0000
0000
0000
0300
0000
0000
,
1001
0000
0000
0000
0001
0010
0100
0000
0000
0000
0000
0000
1001
0000
0000
0000
,
0010
0100
1000
0000
0000
0000
0000
0000
0010
0000
1000
0000
0001
0000
0010
0000
,
0001
1000
0100
0010
0001
0000
1001
0000
1000
0000
1100
0000
0100
0000
0110
0000
,
1001
0000
0000
0000
0010
1000
0010
0000
0000
0000
0000
0000
1001
0000
0000
0000
,
0010
0001
0010
0000
0000
0000
0000
0000
0010
0000
1000
0000
0001
0000
0010
0000
,
0000
0010
0100
0000
0010
0000
0000
0001
0000
1000
0100
0000
0000
0000
0000
0000
,
2000
0000
0010
0010
3001
0000
0000
0000
0002
0000
0100
0100
1003
0000
0000
0000
0110
0000
1001
0000
0110
0000
0000
0000
0020
0000
1000
1000
0130
0000
0000
0000
,
0200
0000
0010
0010
0301
0000
0000
0000
0101
0000
1100
0000
0101
0000
0000
0000
1001
0000
1000
0001
0010
0000
0000
0000
1001
0000
0001
1000
0010
0000
0000
0000
,
1100
0011
0001
0100
1000
0001
0100
1000
,
0100
0010
1000
0100
0010
1000
1010
0000
,
0000
0102
0000
0100
0000
1000
0000
0100
0003
0000
0000
0000
0000
0120
0000
0100
,
0000
1000
0000
0100
0030
0000
0000
0000
0000
0002
0000
0100
0000
0100
0000
0010
,
0000
0000
0000
0100
0000
0013
0000
0000
0000
0000
0000
0000
0000
0000
0000
0000
,
0000
0210
0000
0010
0000
0001
0000
0310
0000
0000
0000
0000
0000
1020
0000
1000
,
0000
0100
0000
1000
0030
0000
0000
0000
0000
0110
0000
0100
0000
0000
0000
1010
,
0000
1000
0000
0000
0000
1100
0000
0100
0000
0000
0000
0011
0000
0001
0000
0000
,
0000
2001
0000
0000
3001
0100
0000
0020
0000
0000
0000
0030
0000
1002
0000
0000
,
1003
0001
0000
0200
0000
0000
0000
0300
0000
0001
0000
1000
0000
0010
0000
0100
,
0000
0000
0000
0001
0000
0100
0000
0010
1000
0001
0000
1000
0000
0100
0000
0010
,
0000
0100
0000
0000
0100
1000
0000
0100
0000
0010
0000
0001
0000
2000
0000
0000
,
0000
0000
0000
3100
0000
0000
0001
0010
0000
0001
0100
0010
0000
0100
0000
0020
,
0000
0000
0000
1030
0000
0200
0000
0000
0000
0000
0000
0000
0000
0000
0300
0000
,
0000
0001
0000
0000
0010
0000
0000
0100
0000
0000
1001
0000
0000
1000
0000
0000
,
0010
0000
0000
0100
0000
0000
1001
0000
0000
0100
0000
0000
0001
0000
0000
0010
,
0000
0000
1001
0000
0000
0010
0000
0000
0100
0000
0000
0010
0000
0100
0001
0000
,
0000
0101
0000
0000
0011
0000
0000
1100
0000
0000
0011
0000
0000
0001
0000
0000
,
0100
0000
0000
0001
0000
0001
0010
0000
0000
1001
0000
0000
0110
0000
0000
1001
,
0000
0000
0101
0000
0000
1000
0000
0000
0010
0000
0000
0100
0000
0000
0010
0000
,
0000
0000
0000
0000
0000
0000
0000
0110
0000
0110
0000
0000
0000
0000
0000
0000
;

//---------------dance-single - ----------------
#NOTES:
     dance-single:
     :
     Hard:
     9:
     :
0000
0000
0000
0000
,
0000
0000
0000
0000
,
0000
0000
0000
0000
0000
0000
0000
0000
0001
0000
0000
1000
0000
0000
0001
0000
,
0000
1000
0000
0000
0001
0000
0000
1000
0000
0000
0100
0000
0100
0010
0000
0000
,
0001
0100
0010
1000
0000
1000
0100
0000
0100
0010
0100
1000
0001
0100
0010
0100
,
0000
0100
0001
0000
0001
1000
0000
0000
0010
1000
0100
1000
0000
1000
0100
0000
,
0100
0010
0000
0010
0001
0000
0001
0100
0000
0100
0010
1000
0100
0010
0001
0010
,
0200
0000
0000
0000
0000
0000
0300
0000
1000
0000
0010
0000
0100
0000
0010
1000
,
0010
0000
0100
0000
0001
0000
1000
0000
0100
0000
0010
0001
0010
0000
0001
0000
,
1000
0010
1000
0000
0010
0000
0100
0001
0100
0000
0010
0000
0010
0000
0100
0000
,
0010
0000
1000
0100
0010
0000
0001
0000
0100
0000
0010
0000
1000
0000
0001
0100
,
0001
0000
1000
0000
0010
0000
0100
0000
0001
0000
1000
0010
1000
0000
0200
0000
,
0000
0300
0010
0000
0200
0000
0000
0300
0010
0001
1000
0000
0100
0000
0100
0000
,
1100
0000
0001
0010
0100
0000
1000
0000
0010
0000
1000
0000
1001
0000
0001
1000
,
0100
0000
0100
0000
0010
0000
0001
0000
0011
0000
0001
1000
0001
0000
1010
0000
,
1000
0001
1000
0000
1001
0000
0001
0100
0010
0000
0100
0000
0010
0000
0010
0000
,
0110
0000
0010
0100
0001
0000
1000
0000
0100
0000
0010
0000
0110
0000
0010
0100
,
1000
0000
0001
0000
0100
0000
0010
0000
0110
0000
0100
0001
0100
0000
0020
0000
,
0000
0030
0100
0000
0020
0000
1000
0000
0100
0000
0100
0000
0000
0000
0000
0030
,
0110
0000
0000
0000
0010
1000
0100
0000
1000
0000
0001
0000
1001
0000
0010
1000
,
0100
0010
0001
0000
0100
0000
0010
0000
1000
0000
0001
0100
0020
0000
0000
0000
,
0130
0001
0020
0000
0000
0000
0130
1000
0020
0000
0000
0000
0130
0001
1000
0000
,
1001
0000
0000
0000
0001
0100
0010
0000
0100
0000
0010
0000
1010
0000
0010
1000
,
0100
1000
0010
0000
0100
0000
0001
0000
1000
0000
0001
0100
0020
0000
0100
0000
,
0130
0001
1000
0000
0100
0000
0000
0010
0000
0001
2000
0000
0000
0000
3000
0000
,
1100
0000
1000
0001
0100
0000
0000
0000
0110
0000
0010
1000
0010
0000
1000
0100
0001
0100
1000
0010
0200
0000
0301
0000
0101
0000
0001
0100
0010
0000
0000
0000
,
1010
0000
1000
0001
0010
0000
0001
0010
1000
0010
0001
0100
0020
0000
1030
0000
1001
0000
0000
0000
0101
0000
0000
0000
1001
0000
0000
0000
1100
0000
1000
0100
,
1000
0000
0001
0100
0010
0000
0000
0000
1000
0000
0100
0000
0010
0000
0100
0000
1000
0000
0000
0000
0001
0000
0100
0000
0010
0000
0100
0000
0001
0000
0000
0000
,
0100
0000
0010
0000
1000
0000
0010
0000
0100
0000
0000
0000
0001
0000
0010
0000
0100
0000
1000
0000
0001
0000
0000
0000
2002
0000
0000
0000
0000
0000
0000
3003
,
0000
1000
0000
0001
0010
0001
0000
0100
0000
0010
0000
1000
0000
0010
0000
1000
,
0010
1000
0000
0100
0000
0010
0000
0001
0000
1000
0000
0001
0010
0001
0000
0100
,
0000
0001
1000
0001
0000
0100
0000
0010
1000
0010
0000
0100
0000
0010
0000
1000
,
0000
0001
0000
1000
0010
1000
0000
0100
0000
0010
0000
0001
0000
0010
0000
0100
,
1000
0100
0000
1000
0000
0100
0000
0001
0000
0100
0000
0010
0001
0100
0000
0020
,
0000
0000
0030
0100
0000
0020
0000
0000
0030
1000
0001
0100
0000
0010
0000
1000
,
0000
2020
0000
0000
0000
0000
0000
3030
0000
0011
0000
0110
0000
2002
0000
0000
,
0000
0000
0000
3003
0000
1100
0000
0101
0000
0220
0000
0000
0000
0330
0000
2002
,
0000
0000
0000
3003
0000
0110
0000
0000
0000
1000
0100
0010
0000
0001
0000
0001
,
0000
0100
0000
0010
0100
0010
0000
1000
0000
0010
0000
0001
0000
0010
0000
0100
,
0001
0100
0000
0100
0000
0010
0000
1000
0000
0100
0000
0010
0001
0010
0000
0100
,
0000
1000
0100
1000
0000
2002
0000
0000
0000
0000
0000
0000
0000
0000
0000
0000
,
3003
0001
0100
0010
1000
0000
1000
0100
0000
0100
0010
0001
1000
0100
1000
0010
,
0100
0000
0100
0001
0000
0001
0010
0000
0000
0010
1000
0001
0010
0000
0010
0100
,
0000
0100
1000
0000
1000
0010
0000
0010
0100
0000
0100
0001
0010
0001
0100
1000
,
0100
0001
0010
0100
1000
0000
1000
0001
0000
0001
0100
0010
0100
1000
0100
0010
,
1000
0000
1000
0100
0000
0100
0010
0000
0000
0010
0001
1000
0010
0000
0010
0100
,
0000
0100
0001
0000
0001
1000
0000
1000
0010
0000
0010
1000
0001
0010
0100
1000
,
0001
0000
0000
0000
0000
0000
0000
1001
0000
1001
0000
0000
0000
0000
0000
0000
;

//---------------dance-double - ----------------
#NOTES:
     dance-double:
     :
     Beginner:
     1:
     :
00000000
00000000
00000000
00000000
,
00000000
00000000
00000000
00000000
,
00000000
00000000
00000000
00000000
00000001
00000000
00000000
00000001
,
00000000
00001000
00000000
00000000
,
00000100
00000000
00000000
00010000
,
00000000
00000000
00000000
00000000
00001000
00000000
00000000
00001000
,
00000000
00100000
00000000
00000000
,
00010000
00000000
00000000
00010000
,
00000000
00000000
01000000
00000000
,
00000000
01000000
00000000
00000000
,
00100000
00000000
00000000
00100000
,
00000000
00000000
10000000
00000000
,
00000000
00010000
00000000
00000000
,
00100000
00000000
00000000
00100000
00000000
00000000
00001000
00000000
,
00000000
00001000
00000000
00000000
00010000
00000000
00000000
00000000
,
00000000
00000100
00000000
00000000
,
00001000
00000000
00000000
00001000
00000000
00000000
00000010
00000000
,
00000000
00000010
00000000
00000000
00000100
00000000
00000000
00000000
,
00000000
00000001
00000000
00000000
,
00001000
00000000
00000000
00000100
,
00000000
00000000
00010000
00000000
,
00000000
00000000
00000000
00000000
,
00001000
00000000
00000000
00001000
,
00000000
00000000
00200000
00000000
,
00000000
00300000
00000000
00000000
00000000
00000000
00000000
00000000
,
00010000
00000000
00000000
01000000
00000000
00000000
00100000
00000000
,
00000000
10000000
00000000
00000000
01000000
00000000
00000000
00100000
,
00000000
00001000
00000000
00000000
,
00020000
00000000
00000000
00000000
00000000
00030000
00000000
00000000
,
00000000
00000100
00000000
00000000
00000000
00000000
00000000
00000000
00000000
00000000
00000000
00000000
00000000
00001000
00000000
00000000
,
00000000
00000000
00000000
00000000
00000000
00000000
00000000
00000000
00000000
00000100
00000000
00000000
00000000
00000000
00000000
00000000
,
00000000
00000000
00000000
00000000
00000000
00000010
00000000
00000000
00000000
00000000
00000000
00000000
00000000
00000000
00000000
00000000
,
00000000
00000001
00000000
00000000
00000000
00000000
00000000
00000000
00000000
00000000
00000000
00000000
00000000
00001000
00000000
00000000
,
00000000
00000000
00000000
00000000
00000000
00000000
00000000
00000000
00000000
00000100
00000000
00000000
00000000
00000000
00000000
00000000
,
00000000
00000000
00000000
00000000
00000000
00010000
00000000
00000000
00000000
00000000
00000000
00000000
00000000
00000000
00000000
00000000
,
00000000
00001000
00000000
00000000
00000000
00000000
00000000
00001000
00000000
00000000
00000000
00000000
00000000
00100000
00000000
00000000
,
00000000
00000000
00000000
00000000
00000000
00000000
00000000
00000000
00000000
00010000
00000000
00000000
00000000
00000000
00000000
00010000
,
00000000
00000000
00000000
00000000
00000000
01000000
00000000
00000000
00000000
00000000
00000000
00000000
00000000
00000000
00000000
00000000
,
00000000
00100000
00000000
00000000
00000000
00000000
00000000
00100000
00000000
00000000
00000000
00000000
00000000
10000000
00000000
00000000
,
00000000
00000000
00000000
00000000
00000000
00000000
00000000
00000000
00000000
01000000
00000000
00000000
00000000
00000000
00000000
01000000
,
00000000
00000000
00000000
00000000
00000000
00100000
00000000
00000000
00000000
00000000
00000000
00000000
00000000
00000000
00000000
00000000
,
00000000
00001000
00000000
00000000
00000000
00000000
00000000
00001000
00000000
00000000
00000000
00000000
00000000
00000010
00000000
00000000
,
00000000
00000000
00000000
00000000
00000000
00000000
00000000
00000000
00000000
00000100
00000000
00000000
00000000
00000000
00000000
00000100
,
00000000
00000000
00000000
00000000
00000000
00001000
00000000
00000000
00000000
00000000
00000000
00000000
00000000
00000000
00000000
00000000
,
00000000
00000001
00000000
00000000
00000000
00000000
00000000
00000000
00000000
00000000
00000000
00000000
00000000
00000100
00000000
00000000
,
00000000
00000000
00000000
00000000
00000000
00000000
00000000
00000000
00000000
00000010
00000000
00000000
00000000
00000000
00000000
00000010
,
00000000
00000000
00000000
00000000
00000000
00000100
00000000
00000000
00000000
00000000
00000000
00000000
00000000
00000000
00000000
00000000
;

//---------------dance-double - ----------------
#NOTES:
     dance-double:
     :
     Easy:
     3:
     :
00000000
00000000
00000000
00000000
,
00000000
00000000
00000000
00000000
,
00000000
00000000
00000000
00000000
00000010
00000000
00000000
00001000
,
00000000
00000000
00000000
00000000
00000100
00000000
00000000
00000100
00000000
00000000
00010000
00000000
00000000
00010000
00000000
00000000
,
00010000
00000000
00000000
00001000
00000000
00000000
01000000
00000000
,
00000000
00100000
00000000
00000000
10000000
00000000
00000000
00010000
,
00000000
00000000
00100000
00000000
00000000
00001000
00000000
00000000
,
00010000
00000000
00000000
00000100
,
00000000
00000000
00000000
00000000
00001000
00000000
00000000
00000010
,
00000000
00000100
00000000
00000000
,
00000001
00000000
00000000
00001000
,
00000000
00000000
00000000
00000000
00000100
00000000
00000000
00010000
,
00000000
00001000
00000000
00000000
,
00100000
00000000
00000000
00100000
00000000
00000000
00010000
00000000
,
00000000
00010000
00000000
00000000
10000000
00000000
00000000
01000000
,
00000000
00100000
00000000
00000000
,
00001000
00000000
00000000
00010000
,
00000000
00000000
00000000
00000000
00000100
00000000
00000000
00000010
,
00000000
00000001
00000000
00000000
,
00001001
00000000
00000000
00000110
,
00000000
00000000
00000000
00000000
00000100
00000000
00000000
00010000
,
00000000
00000000
00001000
00000000
00000000
00100000
00000000
00000000
,
01100000
00000000
00000000
10010000
,
00000000
00000000
00000000
00000000
10000000
00000000
00000000
00010000
,
00000000
00100000
00000000
00000000
,
00001000
00000000
00010000
00000000
00000100
00000100
00001000
00000000
,
00000001
00000000
00000100
00000100
00000010
00000000
00001000
00000000
,
00000000
00000000
00000100
00000000
00000000
00010000
00000000
00000000
,
00001000
00000000
00000000
00100000
00000000
00000000
00010000
00000000
,
00000000
10000000
00000000
00000000
00000000
00000000
00000000
00000000
00000000
00000000
00000000
00000000
00000000
00010000
00000000
00000000
,
00000000
00000000
00000000
00000000
00000000
00000000
00000000
00000000
00000000
01000000
00000000
00000000
00000000
00000000
00000000
00001000
,
00000000
00000000
00000000
00000000
00000000
00010000
00000000
00000000
00000000
00000000
00000000
00000000
00000000
00000000
00000000
00000000
,
00000000
00000010
00000000
00000000
00000000
00000000
00000000
00000000
00000000
00000000
00000000
00000000
00000000
00000100
00000000
00000000
,
00000000
00000000
00000000
00000000
00000000
00000000
00000000
00000000
00000000
00000001
00000000
00000000
00000000
00000000
00000000
00001000
,
00000000
00000000
00000000
00000000
00000000
00000100
00000000
00000000
00000000
00000000
00000000
00000000
00000000
00000000
00000000
00000000
,
00000000
00010000
00000000
00000000
00000000
00000000
00000000
00010000
00000000
00000000
00000000
00000000
00000000
00001000
00000000
00000000
,
00000000
00000000
00000000
00001000
00000000
00000000
00000000
00000000
00000000
01000000
00000000
00000000
00000000
00000000
00000000
00100000
,
00000000
00000000
00000000
00000000
00000000
10000000
00000000
00000000
00000000
00000000
00000000
00000000
00000000
00000000
00000000
00000000
,
00000000
00010000
00000000
00000000
00000000
00000000
00000000
00010000
00000000
00000000
00000000
00000000
00000000
01000000
00000000
00000000
,
00000000
00000000
00000000
01000000
00000000
00000000
00000000
00000000
00000000
00001000
00000000
00000000
00000000
00000000
00000000
00010000
,
00000000
00000000
00000000
00000000
00000000
00000010
00000000
00000000
00000000
00000000
00000000
00000000
00000000
00000000
00000000
00000000
,
00000000
00001000
00000000
00000000
00000001
00000000
00000000
00001000
00000000
00000000
00000000
00000000
00000000
00000100
00000000
00000000
,
00010000
00000000
00000000
00000100
00000000
00000000
00000000
00000000
00000000
00010000
00000000
00000000
00000000
00000000
00000000
00001000
,
00000000
00000000
00000000
00000000
00000000
00100000
00000000
00000000
00010000
00000000
00000000
01000000
00000000
00000000
00000000
00000000
,
00000000
00100000
00000000
00000000
10000000
00000000
00000000
00010000
00000000
00000000
00000000
00000000
00000000
00100000
00000000
00000000
,
00001000
00000000
00000000
00010000
00000000
00000000
00000000
00000000
00000000
00000100
00000000
00000000
00000000
00000000
00000000
00001000
,
00000000
00000000
00000000
00000000
00000000
00000010
00000000
00000000
00001000
00000000
00000000
00000001
00000000
00000000
00001000
00000000
,
00000000
00000000
00000000
00000000
00000000
00000000
00000000
00001001
00000000
00000000
00000000
00000000
00000000
00000000
00000000
00000000
;

//---------------dance-double - ----------------
#NOTES:
     dance-double:
     :
     Medium:
     6:
     :
00000000
00000000
00000000
00000000
,
00000000
00000000
00000000
00000000
,
00000000
00000000
00000000
00000000
00000000
00000000
00000000
00000000
00000010
00000000
00000000
00001000
00000000
00000000
00000100
00000000
,
00000000
00011000
00000000
00000000
00010000
00000000
00000000
00001000
00000000
00000000
00100000
00000000
00000000
00000000
00000000
00000000
,
00010000
00000000
00000000
01000000
00000000
00000000
00100000
00000000
00000000
01100000
00000000
00000000
00100000
00000000
00000000
10000000
,
00000000
00000000
00010000
00000000
00010000
00100000
00000000
00000000
00110000
00000000
00000000
00011000
00000000
00000000
00001100
00000000
,
00000000
00001001
00000000
00000000
00000100
00000000
00000000
00000001
00000000
00000000
00000100
00000000
00000000
00001000
00000000
00000000
,
00000200
00000000
00010000
00000000
00001000
00000000
00010000
00000300
00000000
00000000
00000000
00000000
00002000
00000000
01000000
00000000
,
00010000
00000000
01000000
00003000
00000000
00000000
00000000
00000000
00100000
00000000
00100000
00000000
10000000
00000000
11000000
00000000
,
00000000
01000000
01100000
00000000
00000000
00000000
00000000
00000000
,
02000000
00000000
00100000
00000000
00010000
00000000
00100000
03000000
00000000
00000000
00000000
00000000
00200000
00000000
00001000
00000000
,
00010000
00000000
00001000
00300000
00000000
00000000
00000000
00000000
00101000
00000000
00000000
00000000
00000000
00000000
00011000
00000000
,
00000000
00000000
00010100
00000000
00000000
00011000
00000000
00000000
,
00001010
00000000
00000000
00001000
00000100
00000000
00000110
00000000
00000000
00000000
00000000
00000000
00000011
00000000
00000000
00000001
,
00000100
00000110
00000000
00000000
00000001
00000100
00001000
00010000
,
00100000
00000000
10000000
00000000
01000000
00000000
10000000
01000000
00100000
00000000
00001000
00000000
00010000
00000000
00000100
00000000
,
00010100
00000000
00000000
00000100
00001000
00000000
00000010
00000000
00000100
00000000
00000001
00000000
00001001
00000000
00000000
00000000
,
00000000
00000000
00001000
00000000
00000000
00001000
00000100
00000000
00010000
00001000
00100000
00000000
00010000
00000000
02000000
00000000
,
00000000
03100000
02000000
00000000
00000000
00000000
03000000
00000000
,
01100000
00000000
00000000
00000000
00100000
10000000
01000000
00000000
00000000
00000000
00000000
00000000
01100000
00000000
00000000
00000000
,
00001000
00010000
00001000
00000000
00000000
00000000
00000000
00000000
00010000
00000000
00000100
00000000
00000010
00000000
00000010
00000000
,
00000001
00000100
00001000
01000000
00100000
00000000
01100000
00000000
00100000
00000000
10100000
00000000
10000000
00000000
10010000
00000000
,
00110000
00000000
00000000
00000000
00100000
10000000
00100000
00000000
00000000
00000000
00000000
00000000
10010000
00000000
00000000
00000000
,
00100000
00010000
00100000
00000000
00000000
00000000
00000000
00000000
00001000
00000000
00100000
00000000
00001000
00000000
00010000
00000000
,
00000000
00010000
00000100
00000000
00001000
00000000
00000000
00000001
00000000
00001000
00000100
00000000
00000000
00000000
00000000
00000000
,
00001100
00000000
00001000
00000100
00000010
00000000
00000000
00000000
00001100
00000000
00000100
00010000
00001000
00000000
00000000
00000000
00011000
00000000
00110000
00000000
01010000
00000000
00000000
00000000
10010000
00000000
10000000
01000000
00100000
00000000
00000000
00000000
,
01100000
00000000
00100000
00001000
00010000
00000000
00000000
00000000
00011000
00000000
00010010
00000000
00010100
00000000
00000000
00000000
00001000
00000100
00000010
00000001
00000010
00000000
00000000
00000000
00000001
00000100
00001000
00010000
00100000
00000000
00000000
00000000
,
01100000
10100000
10000000
01000000
00010000
00001000
00010000
00001000
,
00000010
00000001
00001000
00000100
00000010
00000001
00000011
00000000
,
00000000
00000110
00000000
00000100
00000000
00000010
00000000
00011000
00000000
00000000
00000000
00000000
00000000
01010000
00000000
00010000
,
00000000
10000000
00000000
11000000
00000000
00000000
00000000
00000000
00000000
10010000
00000000
01000000
00000000
00100000
00000000
00010000
,
00000000
00000000
00000000
00100000
00000000
00002000
00000000
00000000
00000000
00000000
00000000
00000000
00000000
00000000
00000000
00003000
,
00000000
00011000
00000000
00010000
00000000
00000100
00000000
00001100
00000000
00000000
00000000
00000000
00000000
00001001
00000000
00000001
,
00000000
00000010
00000000
00000011
00000000
00000000
00000000
00000000
00000000
00001001
00000000
00001000
00000000
00000000
00000000
00001100
,
00000000
00000100
00000000
00000000
00000000
00011000
00000000
00010000
00000000
00000000
00000000
00110000
00000000
00010000
00000000
00000000
,
00000000
00110000
00000000
00100000
00001000
00000000
00010000
00001000
00000000
00000000
00000000
00000000
00000000
00001010
00000000
00000000
,
00001000
00000010
00000000
00020000
00000000
00000000
00000000
00030000
00000000
00001000
00000000
00100000
00000000
01000000
00000000
10000000
,
00000000
00000000
00000000
00010000
00000000
00010000
00000000
01000000
00001000
00010000
00000000
00000100
00000000
00001000
00000000
00001000
,
00000000
00001010
00000000
00010000
00001000
00000000
00100000
01000000
00000000
10000000
00000000
00010000
00000000
02000000
00000000
00000000
,
00000000
00000000
00000000
03001000
00000000
00000000
00001000
00010000
00000000
00000100
00001000
00000010
00000000
00001000
00000000
00000200
,
00000000
00000000
00000000
00000310
00000000
00000002
00000000
00000000
00000000
00000000
00000000
00000000
00000000
00000000
00000003
00000000
,
00000000
00000010
00000000
00000000
00000100
00000000
00000000
00010000
00000000
00000000
00010100
00000000
00000000
00000100
00000000
00000000
,
00010000
00000000
00000000
00001000
00000000
00000000
00101000
00000000
00000000
00010000
00000000
00000000
01000000
00000000
00000000
00100000
,
00000000
00000000
10100000
00000000
00000000
10000000
00000000
00000000
01000000
00000000
00000000
00100000
00000000
00001000
00010000
00000000
,
00000000
00011000
00000000
00000000
00000110
00000000
00000000
00001010
00000000
00000000
00000101
00000000
00000000
00000001
00000000
00000000
,
00001000
00000000
00000000
00000100
00000000
00010000
00001000
00000000
00000000
00011000
00000000
00000000
01100000
00000000
00000000
00110000
,
00000000
00000000
11000000
00000000
00000000
00100000
00000000
00000000
00001000
00000000
00000000
00010000
00000000
00000000
00000100
00000000
,
00000000
00000000
00000000
00000000
00000000
00000000
00000000
00001100
00000000
00001100
00000000
00000000
00000000
00000000
00000000
00000000
;

//---------------dance-double - ----------------
#NOTES:
     dance-double:
     :
     Hard:
     9:
     :
00000000
00000000
00000000
00000000
,
00000000
00000000
00000000
00000000
,
00000000
00000000
00000000
00000000
00000000
00000000
00000000
00000000
00000001
00000000
00000000
00000100
00000000
00000000
00001000
00000000
,
00000000
00010000
00000000
00000000
00100000
00000000
00000000
10000000
00000000
00000000
01000000
00000000
01000000
00100000
00000000
00000000
,
00001000
00100000
00001000
00010000
00000000
00010000
00000100
00000000
00000100
00001000
00000010
00000100
00000001
00001000
00000100
00010000
,
00000000
00010000
00001000
00000000
00001000
00100000
00000000
00000000
00100000
00010000
01000000
00100000
00000000
00100000
10000000
00000000
,
10000000
01000000
00000000
01000000
00100000
00000000
00100000
00001000
00000000
00001000
00010000
00000010
00001000
00000100
00000001
00000100
,
00020000
00000000
00000000
00030000
00001000
00100000
20020000
00000000
,
00000000
00000000
30030000
00000000
01000000
00000000
00100000
00000000
01100000
00000000
00000000
00001000
00010000
00000000
00011000
00000000
,
00000000
00010000
00000100
00000000
00001100
00000000
00001000
00000100
00000010
00000000
00000001
00000000
00001000
00000000
00000100
00000000
,
00022000
00000000
00000000
00000000
00000000
00000000
00033000
00000000
01000000
00000000
00100000
00000000
10000000
00000000
00010000
00100000
,
00010000
00000000
00011000
00000000
00010000
00000000
00000010
00000000
00002020
00000000
00000000
00003030
00000000
00000000
00000200
00000000
,
00000000
00000300
00000001
00000000
00002000
00000000
00000000
00003000
00000100
00010000
00001000
00000000
00100000
00000000
01000000
00000000
,
02200000
00000000
00000000
03300000
01000000
10000000
02020000
00000000
,
00000000
00000000
03030000
00000000
00100000
00000000
00001000
00000000
00011000
00000000
00000000
00010000
00000100
00000000
00001100
00000000
,
00000000
00000100
00000010
00000000
00000110
00000000
00000001
00000010
00000100
00000000
00001000
00000000
00000100
00000000
00010000
00000000
,
00022000
00000000
00000000
00000000
00000000
00000000
00033000
00000000
00001000
00000000
00010000
00000000
01000000
00000000
00100000
00010000
,
10000000
01000000
00100000
00001000
00022000
00000000
00033000
00000200
,
00000000
00000300
00001000
00000000
00000002
00000000
00000100
00000000
00000100
00000000
00000100
00000000
00000000
00000000
00000000
00000003
,
00000201
00000000
00000000
00000000
00000300
00000010
00001000
00000000
00000010
00000000
00020000
00000000
00000000
00000000
00031000
00100000
,
00010000
00100000
01000000
00000000
11000000
00000000
10010000
00000000
01010000
00000000
00010000
01000000
00002000
00000000
00000000
00000000
,
00013000
00000010
00002000
00000000
00000000
00000000
00003100
00000010
00000002
00000000
00000000
00000000
00000103
00000010
00001000
00000000
,
00012000
00000000
00000000
00000000
00003000
01000000
00010000
00000000
10000000
00000000
00020000
00000000
00000000
00000000
00130000
01000000
,
10000000
01000000
00100000
00000000
00001000
00000000
00010000
00000000
00000100
00000000
00001000
00000100
00000020
00000000
00000100
00000000
,
00000130
00000010
00000001
00000000
00001000
00000000
00000000
00000010
00000000
00010000
00002000
00000000
00000000
00000000
00000000
00003000
,
00011000
00000000
00001000
00100000
00010000
00000000
00000000
00000000
00110000
00000000
00010000
10000000
01000000
00000000
00100000
00010000
01000000
00010000
00100000
00001000
00020000
00000000
00030010
00000000
00010100
00000000
00000100
00001000
00000010
00000000
00000000
00000000
,
00000101
00000000
00000001
00001000
00000100
00000000
00010000
00001000
00100000
00010000
00100000
00001000
00020000
00000000
00030100
00000000
00011000
00000000
00000000
00000000
01100000
00000000
00000000
00000000
11000000
00000000
00000000
00000000
01010000
00000000
00010000
00200000
,
00301000
00000000
00010000
00000020
00001030
00000000
00000000
00000000
00000001
00000000
00000100
00000000
00000001
00000000
00001000
00000000
00000100
00000000
00000000
00000000
00010000
00000000
00001000
00000000
01000000
00000000
00100000
00000000
10000000
00000000
00000000
00000000
,
01000000
00010000
00001000
00000010
00000001
00000000
00000100
00000001
00000100
00001000
00000100
00000000
00000220
00000000
00000000
00000330
,
00000000
00022000
00000000
00000000
00000000
00000000
00000000
00033000
00000000
00001000
00000000
01000000
00000000
02020000
00000000
00000000
,
00000000
00000000
00000000
03030000
00000000
00010000
00000000
10000000
00000000
11000000
00000000
00000000
10000000
01000000
00000000
01100000
,
00000000
00000000
00001000
00010000
00000000
00001100
00000000
00000100
00001000
00000100
00000000
00000010
00000000
00000001
00000000
00001000
,
00000000
00002020
00000000
00000000
00000000
00000000
00000000
00003030
00000000
00100000
00000000
00001000
00000000
00101000
00000000
00001000
,
01000000
00100000
00000000
01100000
00000000
10100000
00000000
10010000
00000000
02010000
00000000
00000000
00000000
03000000
00000000
00002000
,
00000000
00000000
00003000
00010000
00000000
00000200
00000000
00000000
00000300
00001000
00000100
00001000
00000000
00000001
00000000
00000100
,
00000000
00002002
00000000
00000000
00000000
00000000
00000000
00003003
00000000
00000110
00000000
00011000
00000000
02200000
00000000
00000000
,
00000000
00000000
00000000
03300000
00000000
10010000
00000000
11000000
00000000
02200000
00000000
00000000
00000000
03300000
00000000
00022000
,
00000000
00000000
00000000
00033000
00000000
00001020
00000000
00000000
00000000
00001030
00000001
00000100
00000000
00000010
00000000
00001000
,
00000000
00000100
00000000
00010000
00001000
00010000
00000000
00001000
00000000
00100000
00000000
01000000
00000000
11000000
00000000
10000000
,
01000000
00100000
00000000
01100000
00000000
00001000
00000000
00010000
00000000
00011000
00000000
00010000
00000100
00001000
00000000
00011000
,
00000000
00001000
00100000
00010000
00000000
02020000
00000000
00000000
00000000
00000000
00000000
00000000
00000000
00000000
00000000
03030000
,
00000000
10000000
01000000
00010000
01000000
00000000
01000000
00100000
00000000
00100000
00001000
00010000
00000100
00001000
00000100
00000010
,
00000001
00000000
00000001
00001000
00000000
00001000
00000100
00000000
00000000
00000100
00010000
00001000
00100000
00000000
00100000
00010000
,
00000000
00010000
01000000
00000000
01000000
00100000
00000000
00100000
10000000
00000000
10000000
01000000
00010000
00001000
00000100
00000001
,
00001000
00000010
00010000
00001000
01000000
00000000
01000000
00010000
00000000
00010000
00100000
01000000
10000000
01000000
10000000
00010000
,
01000000
00000000
01000000
00010000
00000000
00010000
00100000
00000000
00000000
00100000
00001000
00010000
00000010
00000000
00000010
00001000
,
00000000
00001000
00000100
00000000
00000100
00000010
00000000
00000010
00000001
00000000
00000001
00000100
00001000
00010000
00100000
10000000
,
00100000
00000000
00000000
00000000
00000000
00000000
00000000
00011000
00000000
00011000
00000000
00000000
00000000
00000000
00000000
00000000
;
