#TITLE:Test Room;
#ARTIST:Plus-Tech Squeeze Box;
#BANNER:Test Room.png;
#BACKGROUND:Test Room-bg.png;
#CDTITLE:./CDTITLES/Dance Dance Revolution UNIVERSE.png;
#MUSIC:Test Room.ogg;
#SAMPLESTART:12.948;
#SAMPLELENGTH:15;
#BPMS:0=130;

//---------------dance-single - ----------------
#NOTES:
     dance-single:
     :
     Beginner:
     1:
     :
0000
0000
0000
0000
,
0000
0000
0000
0000
,
0100
0000
0000
0000
,
0001
0000
0000
0000
,
1000
0000
1000
0000
,
0000
0000
0000
0000
,
1001
0000
0000
0000
,
1000
0000
0001
0000
,
1000
0000
0000
0000
,
0100
0000
0200
0000
,
0000
0300
0000
0000
,
0001
0000
1000
0000
,
0001
0000
0000
0000
,
1000
0000
1000
0000
,
1001
0000
0000
0000
,
1001
0000
0000
0000
,
1000
0000
1000
0000
,
0001
0001
0001
0001
,
0001
0000
0000
0000
,
0100
0000
0000
0000
,
0100
0000
0000
0000
,
0010
0000
0000
0000
,
0010
0000
0000
0000
,
1000
0000
0001
0000
,
1000
0000
0001
0000
,
1000
0000
0000
0000
,
0100
0000
0000
0000
,
0001
0000
0000
0100
,
0100
0000
0000
0100
,
0100
0000
0000
0010
,
0010
0000
0000
0000
,
1000
0000
0000
0000
,
0100
0000
0100
0000
,
0100
0000
0000
0000
,
0001
0000
0001
0000
,
0000
0000
0010
0000
,
0000
0010
0010
0000
,
0000
0100
0100
0000
,
1001
0000
0000
0000
,
0000
0000
1000
0000
,
0001
0000
1000
0000
,
0000
0000
0001
0000
,
1000
0000
0001
0000
,
0000
0000
0100
0000
,
0010
0000
0100
0000
,
0000
0000
0010
0000
,
0100
0000
0010
0000
,
0000
0000
1000
0000
,
0000
0000
0001
0000
,
0000
0000
1000
0000
,
0001
0000
1000
0000
,
0000
0000
0100
0000
,
0000
0000
0010
0000
,
0000
0000
0100
0000
,
0000
0000
0110
0000
;

//---------------dance-single - ----------------
#NOTES:
     dance-single:
     :
     Easy:
     3:
     :
0000
0000
0000
0000
,
0000
0000
0000
0000
,
0100
0000
0000
0000
,
0010
0000
0000
0000
,
1000
0000
0001
0000
,
0000
0000
0000
0001
,
1000
0000
0000
0100
,
0010
0010
0010
0000
,
0001
0000
1000
0000
,
0110
0000
0000
0000
,
1000
0001
0000
0000
,
0100
0100
0100
0000
,
1000
0000
0001
0000
,
0001
0000
1000
0000
,
0100
0010
0001
0000
,
0010
0100
1000
0000
,
0100
0010
0100
0010
,
1000
0100
0010
0001
,
1001
0000
0000
0000
,
1000
0000
0100
0100
,
0100
0000
0010
0000
,
0001
0000
0100
0100
,
0100
0000
0010
0000
,
1001
0000
0000
0000
,
1001
0000
0100
0100
,
0200
0000
0000
0300
,
0020
0000
0000
0030
,
1000
0001
0000
0000
,
0100
0010
0000
0000
,
1000
0001
0000
0000
,
0100
0010
0000
0000
,
1000
0100
0010
0000
,
0001
0010
0100
0000
,
1000
0100
0010
0000
,
0002
0000
0000
0000
,
0000
0003
1000
0100
,
0000
0000
0001
0100
,
0000
0000
1000
0100
,
0200
0000
0000
0000
,
0000
0300
1000
0001
,
1000
0000
0100
0000
,
0010
0000
0001
0000
,
0100
0000
1000
0000
,
0010
0000
1000
0001
,
1000
0000
0100
0000
,
0010
0000
0001
0000
,
0100
0000
1000
0000
,
0010
0000
1000
0001
,
1000
0000
0100
0000
,
0010
0000
0001
1000
,
0001
0000
0010
0000
,
0100
0000
1001
0000
,
0000
0000
0100
0000
,
0000
0000
0001
0000
,
0000
0000
2000
0000
,
0000
0000
0000
0000
,
3000
0000
0000
0000
;

//---------------dance-single - ----------------
#NOTES:
     dance-single:
     :
     Medium:
     5:
     :
0000
0000
0000
0000
,
0000
0000
0000
0000
,
1000
0100
0010
0001
,
1000
0100
0010
0001
,
0100
0000
1000
0000
0100
0000
0000
1010
,
0000
0000
0000
0101
,
1001
0000
0000
0000
,
0001
0100
0010
1000
,
0001
0100
0000
0010
0100
0000
1001
0000
,
0200
0001
1000
0301
,
0000
0110
1010
0000
0000
0000
0000
0000
,
0001
0100
0010
1000
,
0001
0100
0000
0010
0100
0000
1001
0000
,
0020
1000
0001
1030
,
0001
0010
0100
0000
1000
0000
0001
0000
,
0001
0010
0100
0000
1001
0000
0000
0000
,
0010
0001
0100
0000
0100
0000
0010
0000
,
1000
0010
0100
0001
,
1001
0000
0000
0000
,
0100
0000
0010
0000
0001
0100
0010
0000
,
1000
0000
0100
0000
1000
0010
0100
0000
,
0001
0000
0100
0000
1000
0001
0100
0000
,
0001
0000
1000
0000
0010
0100
0001
0000
,
0001
0010
0100
1000
,
0001
0000
0100
0000
0010
1000
0010
1000
,
0010
0100
0001
1000
,
0010
0000
0100
0000
0001
1000
0001
1000
,
0002
0000
0203
0000
0300
0010
1001
0000
,
0200
0000
0320
0000
0030
1000
1100
0000
,
0002
0000
0023
0000
0030
0100
1001
0000
,
0020
0000
0230
0000
0300
0010
1001
0000
,
0100
0002
1000
0000
1000
0000
1003
0000
,
0100
0010
0001
1000
0001
0000
0000
0000
,
0010
0200
0001
0000
0001
0000
0301
0000
,
1001
1100
1001
1100
,
1001
0000
0000
0000
0100
0010
0100
0000
,
0000
0001
0100
0000
1000
0000
0100
0000
,
0010
0000
0001
0000
1000
0100
0001
0000
,
0100
1000
0010
0110
,
1001
0000
0000
0000
0010
1000
0100
0000
,
0010
0001
0100
1000
,
0100
0001
0010
0000
0100
1000
0010
0000
,
0100
0001
0010
0000
0100
0000
1000
0000
,
0010
0000
1000
0000
0010
0001
0100
0000
,
0010
1000
0100
0001
,
0100
1000
0010
0000
0100
0001
0010
0000
,
0100
1000
0010
0000
0100
0000
0001
0000
,
0100
0010
0100
0000
0010
0000
0100
0000
,
0001
0000
1000
0000
0001
1000
0001
0000
,
1000
0100
0010
0100
,
1000
0000
0001
0000
0100
1000
0100
0000
,
0001
1000
0110
0000
,
1001
0000
0100
0100
,
0010
0010
0001
0010
,
0100
1000
2002
0000
,
0000
0000
0000
0000
,
3003
0000
0000
0000
;

//---------------dance-single - ----------------
#NOTES:
     dance-single:
     :
     Hard:
     7:
     :
0000
0000
0000
0000
,
0000
0000
0000
0000
,
0001
0100
0010
1000
,
0100
0010
0001
0100
,
1000
0000
0100
0000
0001
0000
0100
1001
,
0000
0000
0000
0020
,
0200
0000
0000
0330
,
1000
0010
0100
0010
0100
0000
0101
0000
,
0100
0001
0010
0001
0010
0000
0110
0000
,
1000
0010
0100
0000
0001
0010
1000
0010
,
0000
0001
0010
0000
0000
0000
2002
3003
,
0001
0100
0010
0100
0010
0000
1010
0000
,
0100
1000
0010
1000
0010
0000
0110
0000
,
0010
1000
0100
0000
0010
0001
0100
0000
,
0010
0000
1000
0000
0010
0000
0001
0000
0010
0000
1000
0100
0000
0000
0000
0000
,
0010
0000
0001
0000
0010
0000
1000
0000
0010
0000
0001
0100
0000
0000
0000
0000
,
0001
0000
0100
0000
0010
0000
1000
0000
0100
0010
0100
0000
1000
0000
0010
0000
,
0110
1010
0011
1010
,
0220
0000
0000
0330
,
0100
0010
0001
0010
0100
0010
0001
1000
,
1010
0000
0101
0000
0010
0100
0001
0000
,
0010
0100
1000
0100
0010
0100
1000
0001
,
0011
0000
1100
0000
0100
0010
1000
0000
,
0010
0000
0100
0000
0010
1000
0000
0010
0000
0100
0000
0010
0000
0000
0100
0000
,
1001
0000
0101
0000
1000
0010
0100
0000
,
0001
0000
1000
0000
0001
0010
0000
0001
0000
1000
0000
0001
0000
0000
0010
0000
,
0110
0000
1100
0000
0100
0010
0001
0010
,
1000
0010
0110
0000
0000
0100
0010
1000
,
0100
0001
1001
0000
0000
0010
0100
0001
,
0010
1000
0110
0000
0000
0001
0100
1000
,
0200
0001
0010
0301
,
1000
0100
0010
0001
1000
0100
0010
0100
,
1000
0100
0010
0001
1001
0000
0011
0000
,
0001
0010
0100
1000
0001
0010
0100
0010
,
0001
0001
0100
0100
1000
1000
0010
0010
,
0001
0001
0001
0000
1100
0000
0110
0000
,
0000
1000
0100
0000
0001
0100
0010
1000
,
0100
0010
0100
1000
0010
0000
0010
0000
,
1001
0000
0000
0000
0100
0010
0100
0010
0100
0000
0000
0000
0100
0000
0000
0000
,
2002
0000
0000
3000
0013
0001
0100
0010
,
1000
0000
0000
0000
0100
1000
0100
1000
0100
0000
0001
0000
0100
0000
1000
0000
,
0010
0000
0010
0000
0100
0001
0010
0100
,
1000
0000
0000
0000
0010
0100
0010
0100
0010
0000
1000
0000
0001
0000
0000
0000
,
1000
0010
1000
0000
0001
0100
0010
1000
,
0100
0000
0000
0000
0001
0100
0001
0100
0001
0000
0010
0000
0100
0000
1000
0000
,
0100
0000
0100
0000
0010
0001
0100
0010
,
1000
0000
0010
0001
0010
1000
0010
0001
,
0010
0000
1000
0100
0000
0000
0000
0000
0001
0000
0100
0000
0010
0000
0100
0000
,
0010
0100
0010
0000
1000
0100
0010
0001
,
1000
0000
0000
0100
0010
0000
0001
0100
0001
0000
0010
0000
0100
0000
1000
0000
,
0100
0010
0100
1000
0010
0001
0010
0100
,
1000
0100
0001
0000
0002
0000
1000
0000
,
0100
1003
0020
0100
,
0001
0130
2000
0001
,
0100
3002
0200
0000
,
0000
0000
0000
0000
,
0303
0000
0000
0000
;

//---------------dance-double - ----------------
#NOTES:
     dance-double:
     :
     Beginner:
     1:
     :
00000000
00000000
00000000
00000000
,
00000000
00000000
00000000
00000000
,
10000000
00000000
00000000
00000000
,
00100000
00000000
00000000
00000000
,
00010000
00000000
00001000
00000000
,
00000000
00000000
00000000
00000000
,
00001001
00000000
00000000
00000000
,
00000001
00000000
00001000
00000000
,
00000001
00000000
00000000
00000000
,
00001000
00000000
00020000
00000000
,
00000000
00030000
00000000
00000000
,
00010000
00000000
10000000
00000000
,
00010000
00000000
00000000
00000000
,
01000000
00000000
00010000
00000000
,
00011000
00000000
00000000
00000000
,
00011000
00000000
00000000
00000000
,
00001000
00000000
00000100
00000000
,
00000001
00000001
00000001
00000001
,
00000001
00000000
00000000
00000000
,
00000100
00000000
00000000
00000000
,
00001000
00000000
00000000
00000000
,
00010000
00000000
00000000
00000000
,
01000000
00000000
00000000
00000000
,
00010000
00000000
00001000
00000000
,
00010000
00000000
00001000
00000000
,
00010000
00000000
00000000
00000000
,
00000100
00000000
00000000
00000000
,
00001000
00000000
00000000
00000001
,
00000001
00000000
00000000
00000100
,
00000100
00000000
00000000
00001000
,
00001000
00000000
00000000
00000000
,
00010000
00000000
00000000
00000000
,
01000000
00000000
00100000
00000000
,
01000000
00000000
00000000
00000000
,
10000000
00000000
00010000
00000000
,
00000000
00000000
00001000
00000000
,
00000000
00000100
00000100
00000000
,
00000000
00000001
00000001
00000000
,
00001001
00000000
00000000
00000000
,
00000000
00000000
10000000
00000000
,
00010000
00000000
10000000
00000000
,
00000000
00000000
00010000
00000000
,
00001000
00000000
00010000
00000000
,
00000000
00000000
00001000
00000000
,
00000001
00000000
00001000
00000000
,
00000000
00000000
00010000
00000000
,
00001000
00000000
00010000
00000000
,
00000000
00000000
00100000
00000000
,
00000000
00000000
01000000
00000000
,
00000000
00000000
10000000
00000000
,
00010000
00000000
10000000
00000000
,
00000000
00000000
00010000
00000000
,
00000000
00000000
00001000
00000000
,
00000000
00000000
00000010
00000000
,
00000000
00000000
00001001
00000000
;

//---------------dance-double - ----------------
#NOTES:
     dance-double:
     :
     Easy:
     3:
     :
00000000
00000000
00000000
00000000
,
00000000
00000000
00000000
00000000
,
00010000
00000000
00000000
00000000
,
00001000
00000000
00000000
00000000
,
00000001
00000000
00001000
00000000
,
00000000
00000000
00000000
00010000
,
00011000
00000000
00000000
00000000
,
01000000
00000000
10000000
00000000
,
00100000
00000000
00100000
00000000
,
10000000
01000000
00010000
00001000
,
00000000
00000100
00000000
00000000
,
00000100
00000000
00000001
00000000
,
00000010
00000000
00000010
00000000
,
00000001
00000100
00001000
00010000
,
00002000
00000000
00000000
00003000
,
02000000
00000000
00000000
03000000
,
00100000
10000000
01000000
00010000
,
00001000
00000000
00000100
00000000
,
00001001
00000000
00000000
00000000
,
00000001
00000100
00001000
00000000
,
00010000
00001000
00010000
00000000
,
00010000
01000000
10000000
00000000
,
00100000
01000000
00100000
00000000
,
20020000
00000000
00000000
30030000
,
00000000
00000000
00001000
00010000
,
00000200
00000000
00000000
00000300
,
00000000
00000000
00001000
01000000
,
00010000
10000000
00000000
01000000
,
00000000
00010000
00000000
00001000
,
00000000
00000100
00000000
00000001
,
00000100
00001000
00010000
01000000
,
10000000
00000000
00100000
00000000
,
01000000
01000000
01000000
00000000
,
00010000
00000000
00100000
00000000
,
01000000
01000000
00010000
00001000
,
00001000
00000000
00000100
00000000
,
00000000
00000001
00000100
00000000
,
00000000
00010000
00001000
00000000
,
01000000
00000000
01000000
00000000
,
02000000
00000000
03000000
00000000
,
00100000
00000000
00100000
00000000
,
10000000
00000000
01000000
00010000
,
01000000
00000000
00010000
00000000
,
00001000
00000000
00010000
00000000
,
00001000
00000000
00000100
00000000
,
00000001
00000000
00000100
00001000
,
00000100
00000001
00000000
00000100
,
00001000
00000000
00010000
00000000
,
01000000
00000000
10000000
00000000
,
00100000
00000000
10000000
01000000
,
10000000
01000000
00000000
00010000
,
00000000
00001000
00010000
00000000
,
00000100
00000000
00001000
00000000
,
00000010
00000000
00000001
00001000
,
00000001
00001000
00000001
00000000
;

//---------------dance-double - ----------------
#NOTES:
     dance-double:
     :
     Medium:
     5:
     :
00000000
00000000
00000000
00000000
,
00000000
00000000
00000000
00000000
,
00100000
00000000
00011000
00000000
,
00000100
00000000
00011000
00000000
,
00001000
00000010
00000001
00000100
,
00000000
00000000
00000000
00001000
,
01001000
00000000
00000000
00000000
,
00100000
01000000
00100000
00010000
,
10000000
01000000
00100000
00000000
10000000
01000000
00010000
00000000
,
00001000
00000000
00000100
00000000
00000001
00000010
00000001
00001000
,
00000000
00000001
00000100
00000000
00000000
00000000
00000000
00000000
,
00000010
00000100
00000010
00001000
,
00000001
00000010
00000100
00000000
00000001
00000100
00001000
00000000
,
00010000
01000000
10000000
00100000
,
10000000
00010000
00100000
00001000
00010000
00000000
00000000
00000000
,
10000000
00010000
00100000
00001000
00010000
00000000
00000000
00000000
,
00001000
00000000
00000100
00000000
00000001
00000010
00000001
00000010
,
00000100
00000100
00010000
00010000
,
00022000
00000000
00000000
00033000
,
00010000
01000000
00010000
00000000
10000000
00000000
00100000
00000000
,
01000000
00010000
00100000
00000000
00001000
00010000
00000100
00000000
,
00001000
00000100
00001000
00000000
00000001
00000000
00000010
00000000
,
00000100
00001000
00000010
00000000
00010000
00001000
01000000
00000000
,
00010000
01000000
00010000
00100000
,
00020000
00000000
00000000
00000000
10030000
01000000
00100000
01000000
,
00100000
00001000
00010000
00000100
,
00002000
00000000
00000000
00000000
00003001
00000010
00000100
00000010
,
00000100
00000000
00000101
00000000
00000000
00000001
00000100
00000000
,
00001000
00000000
00011000
00000000
00000000
00001000
00010000
00000000
,
01000000
00000000
11000000
00000000
00000000
01000000
10000000
00000000
,
00100000
00000000
00110000
00000000
00000000
00010000
00001000
00000000
,
00000100
00000001
00000010
00000000
00000001
00000100
00001000
00000000
,
00000100
00000001
00000010
00000000
00001000
00010000
00100000
00000000
,
10000000
01000000
00010000
00000000
01000000
10000000
00100000
00000000
,
01000000
01000000
00001000
00001000
,
00011000
00000000
00010000
00001000
,
00000000
00000001
00000100
00000000
00001000
00000000
00010000
00000000
,
00001000
00010000
01000000
00000000
10000000
00000000
00100000
00000000
,
02000000
00000000
00100000
00000000
00100000
00100000
03100000
00000000
,
00020000
00000000
00130000
01000000
,
00100000
00000000
00010000
00000000
10000000
01000000
00100000
00000000
,
10000000
01000000
00010000
00000000
00001000
00000000
00000100
00000000
,
00000001
00000000
00000010
00000000
00000001
00000100
00000001
00000000
,
00001000
00000010
00001000
00000000
00000010
00000000
00000100
00000000
,
00000010
00000000
00001000
00000000
00000001
00000010
00000100
00000000
,
00000001
00000100
00001000
00000000
00010000
00000000
01000000
00000000
,
10000000
00100000
10000000
00000000
00010000
01000000
00010000
00000000
,
01100000
00000000
00000000
00000000
10000000
01000000
00010000
00000000
,
00001000
00000000
00010000
00000000
00001000
00000010
00000001
00000000
,
00000001
00001000
00000001
00000000
00000001
00000100
00001000
00000000
,
00010000
00001000
00010000
00000000
00010000
00100000
10000000
00000000
,
10000000
00010000
10000000
00000000
00010000
00000000
00000000
00000000
,
01000000
00000000
00001000
00001000
,
00000100
00000100
00000001
00000000
,
00000100
00000100
00002002
00000000
,
00000000
00000000
00000000
00000000
,
00003003
00000000
00000000
00000000
;

//---------------dance-double - ----------------
#NOTES:
     dance-double:
     :
     Hard:
     8:
     :
00000000
00000000
00000000
00000000
,
00000000
00000000
00000000
00000000
,
00100000
10000000
00100000
01000000
,
00001000
00010000
00000010
00000100
,
00000001
00000000
00000010
00000000
00000001
00000000
00000000
00000100
,
00000000
00000100
00000000
00001000
00000000
00000000
00010000
00001000
00000000
00001000
00000100
00000000
00001100
00000000
00000000
00000000
,
00011000
00000000
00000000
00000000
,
10000000
00000000
01000000
00000000
00100000
00000000
00000000
00000000
00110000
00000000
00000000
00100000
00000000
00001000
00000000
00010000
,
00001000
00010000
01000000
00000000
10000000
01000000
00010000
00001000
,
00000010
00000000
00000000
00000100
00001000
00000000
00000100
00000010
00000000
00000100
00001000
00000000
00000001
00000000
00000010
00000000
,
00000000
00000101
00001100
00000000
00000000
00000000
00002000
00003000
,
00000001
00000000
00000010
00000000
00000100
00000000
00000000
00000000
00001010
00000000
00000000
00000010
00000000
00010000
00000000
00001000
,
00010000
00001000
00000100
00000000
00000001
00000100
00001000
00010000
,
00100000
00000000
00000000
01000000
00000000
00100000
00000000
01000000
10000000
00000000
00000000
01000000
00100000
00000000
10000000
00000000
,
01000000
00000000
00100000
00000000
00001000
00000000
00000010
00000000
00000001
00000000
00000100
00000001
00000000
00000000
00000000
00000000
,
00000001
00000000
00000010
00000000
00000100
00000000
00010000
00000000
00100000
00000000
10000000
01000000
00000000
00000000
00000000
00000000
,
01000000
00000000
10000000
00010000
01000000
00000000
00010000
00100000
00000000
00001000
00010000
00000000
00001000
00000000
00000100
00000000
,
00000002
00000023
00002030
00023000
,
00030200
00000000
00000000
00000300
,
00001010
00000000
00001000
00000000
00000001
00000010
00000000
00001000
00000000
00010000
00000000
00001000
00000000
00000100
00000000
00000010
,
00001000
00000000
00000100
00000000
00010000
00001000
00000000
00001000
00000000
00000100
00000010
00000000
00000010
00001000
00000010
00000000
,
00000010
00000000
00000100
00000000
00001000
00010000
00000000
01000000
00000000
00010000
00000000
00001000
00000000
00000100
00000000
00001000
,
00010000
00000000
01000000
00000000
10000000
00100000
00000000
00100000
00000000
10000000
00010000
00000000
00010000
01000000
00010000
00000000
,
00020000
00000000
00100000
00000000
10000000
10000000
10000000
00000000
,
10000000
10000000
10030000
00000000
01000000
00000000
00010000
00000000
,
00002000
00000000
00000100
00000000
00000001
00000001
00000001
00000000
,
00000001
00000001
00003001
00000000
00000100
00000000
00001000
00000000
,
00011000
00000000
00020000
00000000
00000000
02030000
00000000
00000000
23000000
00000000
00000000
30100000
00000000
00000000
00100000
01000000
,
00000000
00000000
00200000
00000000
00000000
20300000
00000000
00000000
32000000
00000000
00000000
03010000
00000000
00000000
00010000
00001000
,
00000000
00000000
00002000
00000000
00000000
00003200
00000000
00000000
00000302
00000000
00000000
00000013
00000000
00000000
00000010
00000100
,
00000000
00000000
00000020
00000000
00000000
00000032
00000000
00000000
00000203
00000000
00000000
00000000
00001300
00000000
00000000
00000000
,
00010000
00100000
01000000
00100000
01000000
00100000
00010000
00010000
,
00001000
00000100
00000010
00000100
00000010
00000100
00001000
00001000
,
00010000
00100000
01000000
00100000
01000000
00100000
00010000
00010000
,
00011000
00001001
00011000
20010000
,
00000000
00000000
00000000
00000000
30010000
00010000
01000000
00000000
,
00100000
00000000
00100000
00000000
10000000
01000000
00010000
00000000
,
00001000
00010000
00001000
00000000
00000010
00000001
00001000
00000000
,
00000100
00000000
00000000
00000000
00000010
00000100
00000010
00000100
00000010
00000000
00000000
00000001
00000010
00000000
00000000
00000000
,
00000020
00000000
00000000
00000000
00000031
00000010
00000100
00000000
,
00001010
00000000
00000000
00000010
00000000
00010000
00000000
00001000
00010000
00000000
00001000
00000000
00000100
00000000
00000000
00000000
,
00000001
00000100
00001000
00010000
01000000
10000000
00100000
00000000
,
01000000
00000000
00000000
00100000
00000000
00100000
00000000
10000000
00100000
00000000
01000000
00000000
00010000
00000000
00000000
00000000
,
00100000
00010000
00100000
00000000
10000000
01000000
00100000
00000000
,
00110000
00000000
00000000
00100000
00000000
00001000
00000000
00010000
00001000
00000000
00010000
00000000
01000000
00000000
00000000
00000000
,
10000000
00000000
01000000
00000000
00010000
00001000
00010000
00001000
00010000
00000000
00000000
00001000
00000100
00000000
00000100
00000001
,
00000000
00000001
00000010
00000000
00000000
00000000
00000000
00000000
00000100
00000000
00010000
00000000
00001000
00000000
00010000
00000000
,
00001000
00000000
00010000
01000000
00000000
00000000
00000000
00000000
10000000
00000000
01000000
00000000
00100000
00000000
00001000
00000000
,
00000010
00000001
00000010
00000100
00001000
00000100
00000010
00000001
,
00000100
00001000
00000100
00000000
00000001
00000010
00000100
00010000
,
00100000
10000000
00100000
01000000
00010000
01000000
00100000
10000000
,
01000000
00010000
01000000
00000000
10000000
00000000
10000000
00000000
,
01000000
00000000
00000000
01000000
00000000
01000000
00010000
00000000
00001000
00000000
00000000
00000000
00001000
00000000
00000000
00000000
,
00000100
00000000
00000000
00000100
00000000
00000100
00000001
00000000
00000010
00000000
00000000
00000000
00000010
00000000
00000000
00000000
,
00000001
00000000
00000000
00000001
00000000
00000100
00001000
00000000
00022000
00000000
00000000
00000000
00000000
00000000
00000000
00000000
,
00000000
00000000
00000000
00000000
,
00033000
00000000
00000000
00000000
;
