#TITLE:Summer Fantasy;
#ARTIST:Alien Six;
#BANNER:Summer Fantasy.png;
#BACKGROUND:Summer Fantasy-bg.png;
#CDTITLE:./CDTITLES/Dance Dance Revolution UNIVERSE.png;
#MUSIC:Summer Fantasy.ogg;
#SAMPLESTART:16.292;
#SAMPLELENGTH:15;
#BPMS:0=132;

//---------------dance-single - ----------------
#NOTES:
     dance-single:
     :
     Beginner:
     1:
     :
0000
0000
0000
0000
,
0000
0000
0000
0000
,
0000
0000
0000
0000
,
0000
0000
0000
0000
,
0000
0000
0000
0000
,
1000
0000
0000
0000
,
0001
0000
0000
0000
,
0001
0000
0000
0000
,
1000
0000
0000
0000
,
0010
0000
0000
0000
,
1000
1000
0000
0000
,
0001
0001
0000
0000
,
0010
0010
0000
0000
,
0100
0100
0000
0000
,
0010
0010
0000
0000
,
0100
0100
0000
0000
,
0001
0001
0000
0000
,
1000
0000
1000
0000
,
0000
0000
0000
0000
,
0001
0000
0001
0000
,
0000
0000
0000
0000
,
0001
0000
0001
0000
,
0001
0000
0000
0000
,
1000
0000
1000
0000
,
1000
0000
0000
0000
,
1001
0000
0000
0000
,
1001
0000
0000
0000
,
0110
0000
0000
0000
,
0110
0000
0000
0000
,
1000
0000
1000
0000
,
1000
0000
1000
0000
,
0001
0000
0001
0000
,
0001
0000
0001
0000
,
2000
0000
0000
3000
,
1000
0000
0000
0000
,
0002
0000
0000
0003
,
0001
0000
0000
0000
,
0200
0000
0000
0300
,
0100
0000
0000
0000
,
0020
0000
0000
0030
,
0010
0000
0010
0010
,
0010
0000
0000
0000
,
1000
1000
1000
0000
,
0001
0001
0001
0000
,
1000
1000
1000
0000
,
0100
0100
0100
0000
,
1000
0000
1000
0000
,
0010
0000
0010
0000
,
0100
0000
0100
0000
,
0001
0000
0001
0000
,
1000
0000
1000
0000
,
0100
0000
0100
0000
,
0010
0000
0010
0000
,
0001
0000
0001
0000
,
0010
0000
0010
0000
,
0100
0000
0100
0000
,
0010
0000
0010
0000
,
1001
0000
0000
0000
;

//---------------dance-single - ----------------
#NOTES:
     dance-single:
     :
     Easy:
     2:
     :
0000
0000
0000
0000
,
0000
0000
0000
0000
,
0000
0000
0000
0000
,
0000
0000
0000
0000
,
0000
0000
0000
0000
,
1000
0000
0001
0000
,
0001
0000
1000
0000
,
0010
0000
0010
0000
,
0100
0000
0100
0000
,
0100
0000
0000
0000
,
0001
0001
0000
0000
,
1000
0000
1000
0000
,
1000
0000
0000
0000
,
0010
0010
0000
0000
,
0100
0000
0100
0000
,
0100
0000
0000
0000
,
0010
0000
0010
0000
,
1000
1000
0000
0000
,
0001
0000
0001
0000
,
0001
0000
0001
0000
,
1000
0000
1000
1000
,
1000
0000
0000
0000
,
1000
1000
1000
1000
,
1000
0000
0000
0000
,
0001
0002
0000
0000
,
0003
0000
0000
0000
,
0000
2000
0000
0000
,
3000
1000
0000
1000
,
0000
0002
0000
0000
,
0003
0001
0000
0001
,
0000
0020
0000
0000
,
0030
0010
0000
0100
,
0000
0100
0000
0010
,
0020
0000
0000
0000
,
0000
0000
0000
0030
,
0000
0001
0000
0001
,
0000
0001
0000
0001
,
0200
0000
0000
0000
,
0000
0000
0000
0300
,
0000
1000
0000
1000
,
0000
1000
0000
1000
,
1001
1000
0000
1000
,
0000
0001
0000
0001
,
1000
0000
0000
0000
,
0200
0000
0000
0300
,
0100
0000
0100
0000
,
1000
0000
1000
0000
,
0001
0000
0001
0000
,
0020
0000
0000
0030
,
0200
0300
0200
0300
,
2000
3000
2000
3000
,
0002
0003
0002
0003
,
0200
0300
0200
0300
,
0100
0000
0010
0000
,
0100
0000
0010
0000
,
1000
0000
0001
0000
,
1000
0000
0001
0000
,
1001
0000
0000
0000
;

//---------------dance-single - ----------------
#NOTES:
     dance-single:
     :
     Medium:
     5:
     :
0000
0000
0000
0000
,
0000
0000
0000
0000
,
0000
0000
0000
0000
,
0000
0000
0000
0000
,
0000
0000
0000
0000
,
0010
1000
0001
1001
,
0010
0001
1000
1001
,
0001
0100
0001
1001
,
0010
1000
0001
1001
,
0010
0000
1000
0000
0100
1000
0100
0000
,
0010
0000
0001
0000
0100
0001
0100
0000
,
0010
0000
1000
0000
0100
1000
0100
0000
,
0010
0000
0001
0000
0100
0001
0100
0000
,
0010
0000
0100
0000
0001
1000
0001
0000
,
0010
0000
0100
0000
1000
0001
1000
0000
,
0010
0000
0100
0000
0001
0010
0001
0000
,
0010
0000
0100
0000
1000
0010
1000
0000
,
0100
0001
1000
0100
,
0010
0100
1000
0010
,
0100
0001
1000
0001
,
1000
0001
1000
0000
0001
1000
0001
0000
,
1000
0100
0010
0001
,
0010
0100
1000
1000
,
1000
0001
0001
0001
,
0100
0000
0100
0000
0010
0100
0010
0100
,
0010
0100
0001
1000
,
0001
0000
1000
0010
0100
0010
0100
0010
,
0100
0001
1000
0001
,
1000
0000
0001
0100
0010
0100
0010
0100
,
0001
1000
0001
1000
,
0001
0000
1000
0010
0100
0010
0100
0010
,
0100
0001
1000
0001
,
1000
0000
1000
0001
,
2001
0000
0000
0000
0000
0000
0000
3000
,
0020
0000
0000
0000
0000
0000
0000
0030
,
0200
0000
0000
0300
0002
0000
0000
0003
,
0020
0000
0000
0030
0200
0000
0000
0300
,
1010
0000
1010
0000
,
0101
0000
0101
0000
,
0011
0000
0011
0000
,
1100
0000
1100
0000
,
1001
0010
1000
0001
,
0100
0001
0100
0000
0010
1000
0010
0000
,
0100
0001
1000
0100
1000
0001
1000
0000
,
0010
1000
0100
0010
0001
0010
0001
0000
,
1000
0000
0100
0000
1000
0001
1000
0000
,
0100
0000
0010
0000
0001
1000
0001
0000
,
0010
0000
0100
0000
1000
0001
1000
0000
,
0010
0100
0001
0000
0001
0010
0100
0000
,
0100
1000
0010
0000
0010
0000
0100
0000
,
0001
1000
0100
0000
1000
0100
1000
0000
,
0010
1000
0001
0000
0100
0001
1000
0000
,
0010
0100
0001
1000
0100
0010
0001
0000
,
0001
0000
1000
0000
0100
1000
0010
0000
,
0100
0000
0001
0000
0010
0001
0100
0000
,
0010
0000
0100
0000
0001
1000
0100
0000
,
0010
1000
0001
0100
,
1000
0000
0000
0001
0000
0000
1000
0000
0000
0000
0000
0000
0000
0000
0000
0000
;

//---------------dance-single - ----------------
#NOTES:
     dance-single:
     :
     Hard:
     7:
     :
0000
0000
0000
0000
,
0000
0000
0000
0000
,
0000
0000
0000
0000
,
0000
0000
0000
0000
,
0000
0000
0000
0000
,
2000
0000
0010
0000
3001
0100
0010
0000
,
1002
0000
0010
0000
1003
0100
0010
0000
,
2001
0000
0010
0000
3001
0100
0010
0000
,
1002
0000
0010
0000
1003
0100
0010
0000
,
2010
0001
0100
3001
,
0001
0100
0001
0000
1000
0100
1000
0000
,
0002
1000
0010
1003
,
0001
0100
1000
0000
1000
0100
0001
0000
,
1010
0000
0101
0000
1000
0100
1000
0000
,
0011
0000
1100
0000
0001
0100
0001
0000
,
0020
0000
1030
0000
0001
0100
0001
0000
,
0200
0000
1300
0000
0001
0010
0001
0000
,
1000
0000
0200
0000
0000
1300
1100
0000
,
0001
0000
0020
0000
0000
0031
0011
0000
,
0001
0000
1000
0010
0100
0000
0001
0000
,
0010
0000
0001
1000
0001
0010
0100
0000
,
1000
0010
0100
0001
,
0010
0100
1000
0100
,
0010
0100
0001
0000
0010
0100
1000
0000
,
0010
0100
0001
0010
0100
1000
0001
1000
,
0200
0010
1000
0310
,
0001
0000
0100
1000
0100
0010
0100
0001
,
0010
0000
0100
1000
0100
0000
1000
0000
,
0010
0000
0100
0001
0100
0010
0100
1000
,
0100
0001
1000
0100
,
1000
0000
0001
0100
0001
1000
0001
0010
,
0100
1000
0100
0010
,
0100
0000
1000
0000
0010
1000
0001
1000
,
1001
0020
0230
0320
,
2030
0000
3010
2000
0000
3100
0020
0000
,
0032
0000
0000
0100
0003
0000
0200
0000
0000
0010
0000
0000
0320
0000
0000
0000
,
2030
0000
0000
0100
0000
0000
3020
0000
0000
0000
0130
0000
0110
0000
0000
0000
,
1001
0200
0320
0230
,
0302
0000
0013
0002
0000
0103
0020
0000
,
2030
0000
0000
0100
0000
0000
3200
0000
0000
0010
0000
0000
0020
0000
0300
0000
,
0031
0000
0000
0010
0100
0000
0100
0010
0000
0001
1000
0000
0001
1000
0001
1000
,
0001
0000
0010
1000
0100
1000
0010
0100
,
0001
0010
1000
0010
0001
0100
0010
1000
,
0100
0001
0100
0000
0010
1000
0100
0000
,
0012
0000
0103
0020
0000
0130
2000
0000
,
3200
0000
0301
1000
0100
0001
0100
0010
,
0001
0100
0010
1000
0100
0010
1000
0010
,
0100
1000
0010
0100
0001
0010
0001
0001
,
0021
0000
0000
0000
1030
0000
0020
0000
0000
0000
0230
0000
2000
0300
0000
0000
,
3020
0000
0130
0001
0100
1000
0100
0000
,
0110
0000
0001
0010
1000
0010
0001
0000
,
0110
0000
0100
1000
0100
0001
0100
0000
,
1001
0000
0010
1000
0010
0100
0001
0001
,
0101
0000
0010
1000
0001
0100
0001
1000
,
0100
0000
0100
1000
0010
0100
0001
0000
,
1001
0000
0100
0010
1000
0100
0010
0010
,
0110
0000
0001
0010
0100
1000
0010
1000
,
2000
0000
0000
0002
3000
0000
0103
0000
0000
0000
0000
0000
0000
0000
0000
0000
;

//---------------dance-double - ----------------
#NOTES:
     dance-double:
     :
     Beginner:
     1:
     :
00000000
00000000
00000000
00000000
,
00000000
00000000
00000000
00000000
,
00000000
00000000
00000000
00000000
,
00000000
00000000
00000000
00000000
,
00000000
00000000
00000000
00000000
,
10000000
00000000
00000000
00000000
,
10000000
00000000
00000000
00000000
,
00010000
00000000
00000000
00000000
,
00010000
00000000
00000000
00000000
,
00010000
00000000
00000000
00000000
,
00100000
00100000
00000000
00000000
,
01000000
01000000
00000000
00000000
,
00010000
00010000
00000000
00000000
,
00001000
00001000
00000000
00000000
,
00010000
00010000
00000000
00000000
,
00000010
00000010
00000000
00000000
,
00000100
00000100
00000000
00000000
,
00000001
00000000
00000001
00000000
,
00000000
00000000
00000000
00000000
,
00001000
00000000
00001000
00000000
,
00000000
00000000
00000000
00000000
,
00010000
00000000
00010000
00000000
,
00010000
00000000
00000000
00000000
,
00001000
00000000
00001000
00000000
,
00001000
00000000
00000000
00000000
,
00011000
00000000
00000000
00000000
,
00011000
00000000
00000000
00000000
,
00010000
00000000
00000000
00000000
,
00010000
00000000
00000000
00000000
,
00100000
00000000
00100000
00000000
,
00100000
00000000
00100000
00000000
,
01000000
00000000
01000000
00000000
,
01000000
00000000
01000000
00000000
,
00020000
00000000
00000000
00030000
,
00010000
00000000
00000000
00000000
,
20000000
00000000
00000000
30000000
,
10000000
00000000
00000000
00000000
,
00020000
00000000
00000000
00030000
,
00010000
00000000
00000000
00000000
,
00200000
00000000
00000000
00300000
,
00100000
00000000
01000000
01000000
,
01000000
00000000
00000000
00000000
,
00010000
00010000
00010000
00000000
,
00001000
00001000
00001000
00000000
,
00010000
00010000
00010000
00000000
,
00001000
00001000
00001000
00000000
,
00000010
00000000
00000010
00000000
,
00000100
00000000
00000100
00000000
,
00000001
00000000
00000001
00000000
,
00001000
00000000
00001000
00000000
,
00000010
00000000
00000010
00000000
,
00000100
00000000
00000100
00000000
,
00001000
00000000
00001000
00000000
,
00010000
00000000
00010000
00000000
,
00001000
00000000
00001000
00000000
,
01000000
00000000
01000000
00000000
,
00100000
00000000
00100000
00000000
,
10010000
00000000
00000000
00000000
;

//---------------dance-double - ----------------
#NOTES:
     dance-double:
     :
     Easy:
     3:
     :
00000000
00000000
00000000
00000000
,
00000000
00000000
00000000
00000000
,
00000000
00000000
00000000
00000000
,
00000000
00000000
00000000
00000000
,
00000000
00000000
00000000
00000000
,
10000000
00000000
00000000
00000000
,
00010000
00000000
00000000
00000000
,
00001000
00000000
00000000
00000000
,
00000001
00000000
00000000
00000000
,
00000010
00000000
00000000
00000000
,
00000100
00000000
00000000
00000000
,
00000010
00000000
00000000
00000000
,
00001000
00000000
00000000
00000000
,
00010000
00000000
00000000
00000000
,
00100000
00000000
00000000
00000000
,
01000000
00000000
00000000
00000000
,
00100000
00000000
00000000
00000000
,
10000000
00000000
00000000
00000000
,
00010000
00000000
00000000
00000000
,
10000000
00000000
01000000
00000000
,
00010000
00000000
00001000
00000000
,
00010000
00000000
00000000
00000000
,
00001000
00001000
00001000
00001000
,
00001000
00000000
00000000
00000000
,
00000010
00000000
00000001
00000000
,
00000100
00000000
00001000
00000000
,
00010000
00000000
00001000
00000000
,
01000000
00000000
00100000
00000000
,
10000000
00000000
01000000
00000000
,
00100000
00000000
01000000
00000000
,
00010000
00000000
00001000
00000000
,
00010000
00000000
00000010
00000000
,
00001000
00000000
00000001
00000000
,
00002000
00000000
00000000
00000000
,
00000000
00000000
00000000
00003000
,
00000000
00010000
00000000
00010000
,
00000000
00001000
00000000
00001000
,
00020000
00000000
00000000
00000000
,
00000000
00000000
00000000
00030000
,
00001000
00000000
00001000
00000000
,
00010000
00000000
00010000
00000000
,
10010000
00000000
00100000
00000000
,
00100000
00000000
00100000
00000000
,
01000000
00000000
00000000
00000000
,
00020000
00000000
00000000
00030000
,
00001000
00000000
00000000
00000000
,
00000200
00000000
00000000
00000300
,
00000010
00000000
00000000
00000000
,
00002000
00000000
00000000
00003000
,
00000001
00000000
00000000
00000000
,
00001000
00000000
00000000
00000000
,
00000010
00000000
00000000
00000000
,
00010000
00000000
00000000
00000000
,
00001000
00000000
00000000
00000000
,
00100000
00000000
00000000
00000000
,
00010000
00000000
00000000
00000000
,
10000000
00000000
00000000
00000000
,
10010000
00000000
00000000
00000000
;

//---------------dance-double - ----------------
#NOTES:
     dance-double:
     :
     Medium:
     6:
     :
00000000
00000000
00000000
00000000
,
00000000
00000000
00000000
00000000
,
00000000
00000000
00000000
00000000
,
00000000
00000000
00000000
00000000
,
00000000
00000000
00000000
00000000
,
10000000
01000000
00010000
00011000
,
00001000
00000100
00000001
00001001
,
00000100
00001000
00000010
00000110
,
00000010
00001000
00010000
00011000
,
00010000
00000000
00100000
00000000
01000000
00100000
01000000
00000000
,
00010000
00000000
10000000
00000000
00100000
01000000
00100000
00000000
,
10000000
00000000
01000000
00000000
00010000
00001000
00010000
00000000
,
00000010
00000000
00000100
00000000
00000001
00001000
00000001
00000000
,
00000100
00000000
00000010
00000000
00001000
00000001
00001000
00000000
,
00000100
00000000
00010000
00000000
00001000
00010000
00001000
00000000
,
00100000
00000000
01000000
00000000
10000000
00010000
10000000
00000000
,
00100000
00000000
01000000
00000000
00010000
01000000
00010000
00000000
,
10000000
00100000
01000000
00010000
,
00100000
00001000
00010000
00000100
,
00001000
00000001
00000010
00000100
,
00001000
00000001
00001000
00000000
00000001
00001000
00000001
00000000
,
00000100
00001000
00010000
00100000
,
10000000
01000000
10000000
10000000
,
10000000
00010000
00010000
00010000
,
01000000
00000000
01000000
00000000
00001000
00010000
00001000
00010000
,
00001000
00010000
00000010
00001000
,
00000010
00000000
00010000
00001000
00010000
00001000
00010000
00001000
,
00010000
00001000
00100000
01000000
,
10000000
00000000
00100000
01000000
00100000
01000000
00100000
01000000
,
00010000
10000000
01000000
00010000
,
00001000
00000000
00010000
00001000
00010000
00001000
00010000
00001000
,
00010000
00000100
00000010
00000001
,
00001000
00000000
00010000
00001000
,
00021000
00000000
00000000
00000000
,
00230000
00000000
00000000
00000000
,
20300000
00000000
00000000
30000000
02000000
00000000
00000000
03000000
,
00020000
00000000
00000000
00030000
00002000
00000000
00000000
00003000
,
00011000
00000000
00011000
00000000
,
00000110
00000000
00000110
00000000
,
00001001
00000000
00001001
00000000
,
00011000
00000000
00011000
00000000
,
10010000
00100000
00010000
10000000
,
00100000
00010000
00100000
00000000
01000000
10000000
01000000
00000000
,
00100000
00010000
10000000
01000000
10000000
00100000
00010000
00000000
,
00001000
00010000
00000010
00001000
00000100
00001000
00000100
00000000
,
00000010
00000000
00000001
00000000
00001000
00000001
00001000
00000000
,
00000100
00000000
00000010
00000000
00000001
00001000
00000001
00000000
,
00000100
00000000
00001000
00000000
00010000
00001000
00010000
00000000
,
00001000
01000000
00010000
00000000
10000000
00100000
01000000
00000000
,
00010000
00100000
01000000
00000000
10000000
00000000
01000000
00000000
,
00010000
00001000
00010000
00000000
00001000
00010000
00001000
00000000
,
00010000
00000010
00001000
00000000
00000100
00000010
00000001
00000000
,
00000010
00000100
00001000
00000010
00000100
00000001
00000010
00000000
,
00001000
00000000
00010000
00000000
00001000
00010000
00001000
00000000
,
01000000
00000000
00010000
00000000
00100000
00010000
01000000
00000000
,
00100000
00000000
01000000
00000000
00010000
10000000
01000000
00000000
,
00100000
00001000
00010000
00000010
,
00001000
00000000
00000000
00000001
00000000
00000000
00000100
00000000
00000000
00000000
00000000
00000000
00000000
00000000
00000000
00000000
;

//---------------dance-double - ----------------
#NOTES:
     dance-double:
     :
     Hard:
     7:
     :
00000000
00000000
00000000
00000000
,
00000000
00000000
00000000
00000000
,
00000000
00000000
00000000
00000000
,
00000000
00000000
00000000
00000000
,
00000000
00000000
00000000
00000000
,
00100000
00000000
10000000
01000000
00100000
00001000
00020000
00000000
,
00000010
00030000
00010000
00000100
00001000
00000010
00000200
00000000
,
00000301
00000000
00001000
00000100
00010000
00001000
00200000
00000000
,
00310000
00000000
10000000
00100000
01000000
00001000
00010000
00000100
,
00000020
00000000
00001000
00000000
00000031
00000000
00000001
00000100
,
00001000
00010000
02000000
00000000
00010000
00000000
13000000
00000000
,
00100000
00010000
00001000
00010000
00100000
00010000
00001000
00000000
,
00000100
00000001
00000100
00001000
00000100
00000001
00000100
00000000
,
00011000
00000000
00010000
01000000
10000000
00100000
01000000
00000000
,
01100000
00000000
10000000
01000000
00010000
00001000
00000010
00000000
,
00000110
00000000
00000010
00001000
00010000
00100000
00010000
00000000
,
00001000
00000000
00000100
00000010
00001000
00000001
00000100
00000000
,
00011000
00000000
00001000
00000010
00000001
00000100
00001000
00000000
,
00101000
00000000
00110000
00000000
00001000
01000000
00100000
00000000
,
00010000
10000000
00010000
00100000
10000000
00100000
00010000
00000000
,
00011000
00000000
00000110
00000000
00000010
00001000
00000100
00000000
,
00001001
00000000
00001000
00000001
00000100
00001000
00020000
00100000
,
00000000
01000000
00000000
00001000
00000000
00000010
00000000
00031000
,
00010000
00000000
00010000
00001000
01000000
00010000
00100000
00000000
,
10000000
00000000
00100000
01000000
00100000
00010000
01000000
10000000
,
00100000
00000000
00000000
00000000
,
00000000
00000000
00000000
00001000
00000100
00000001
00000010
00001000
,
00010000
00000000
00000000
00000000
,
00000000
00000000
00000000
10000000
00010000
00100000
10000000
01000000
,
00010000
00000000
00000000
00000000
,
00000000
00000000
00000000
00000010
00000001
00000100
00001000
00000010
,
00000100
00000000
00000000
00000000
,
10010000
00000000
00000000
10000000
00000000
00010000
00001000
00000000
,
00011000
00000000
00000010
00000100
00000001
00000100
00001000
00000000
,
00011000
00000000
00010000
00100000
00000000
00100000
10000000
00000000
,
10010000
00000000
00000000
01000000
00000000
00000000
00010000
00000000
00000000
00001000
00000000
00000000
00000001
00000000
00000000
00000000
,
00000100
00000000
00000000
00001000
00000000
00000000
00010000
00000000
00000000
00000010
00000000
00000000
00001000
00000000
00010000
00000000
,
00100000
00000000
01000000
00010000
00100000
01000000
10000000
01000000
,
00010000
00000000
00010000
00001000
00000000
00000010
00000001
00000000
,
00001001
00000000
00000000
00000100
00000000
00000000
00001000
00000000
00000000
00010000
00000000
00000000
10000000
00000000
00000000
00000000
,
01000000
00000000
00000000
00010000
00000000
00000000
00001000
00000000
00000000
00100000
00000000
00000000
00010000
00000000
00001000
00000000
,
00000010
00000000
00000110
00000010
00000001
00000100
00001000
00010000
,
00001000
00100000
01000000
00010000
01000000
00100000
10000000
00100000
,
01000000
00010000
00001000
00000000
00001000
00000010
00000001
00000000
,
00001001
00000000
00000100
00001000
00000000
00010000
00100000
00000000
,
01000000
00000000
10000000
00010000
00100000
01000000
10000000
00000000
,
00010000
10000000
01000000
00010000
00001000
00100000
00001000
00010000
,
00000100
00001000
00000010
00001000
00000100
00000010
00000001
00000000
,
00000100
00001000
00000100
00000001
00000010
00001000
00010000
00001000
,
01000000
00000000
00010000
10010000
00000000
00000000
00010000
01000000
,
10000000
00000000
10000000
01000000
00010000
00001000
00000100
00000000
,
00011000
00000000
00010000
00000010
00000100
00001000
00010000
00000000
,
00011000
00000000
00001000
00100000
01000000
00010000
00001000
00000000
,
00000010
00000000
00000000
00000100
00000000
00000000
00001000
00000000
00000000
00000001
00000000
00000000
00000100
00000000
00001000
00000000
,
00010000
00000000
00000000
00100000
00000000
00000000
01000000
00000000
00000000
00010000
00000000
00000000
10000000
00000000
00100000
00000000
,
01000000
00000000
00000000
00010000
00000000
00000000
10000000
00000000
00000000
01000000
00000000
00000000
00010000
00000000
00001000
00000000
,
00000010
00000000
00000000
00000100
00000000
00000000
00000001
00000000
00000100
00000000
00001000
00000000
00010000
00000000
01000000
00000000
,
10000000
00000000
00000000
00020000
00000000
00000000
00230000
00000000
00000000
00000000
00000000
00000000
00000000
00000000
00300000
00000000
;
