#TITLE:Somebody To Love;
#ARTIST:Boogie Pimps;
#BANNER:Somebody To Love.png;
#BACKGROUND:Somebody To Love-bg.png;
#CDTITLE:./CDTITLES/Dance Dance Revolution UNIVERSE.png;
#MUSIC:Somebody To Love.ogg;
#SAMPLESTART:37.662;
#SAMPLELENGTH:15;
#DISPLAYBPM:130;
#BPMS:0=130.512;

//---------------dance-single - ----------------
#NOTES:
     dance-single:
     :
     Beginner:
     1:
     :
0000
0000
0000
0000
,
0000
0000
0000
0000
,
0000
0000
0000
0000
,
0000
0000
0000
0000
,
0000
0000
0000
0000
,
1000
0000
0000
0000
,
1000
0000
0000
0000
,
1000
0000
0000
0000
,
1000
0000
0000
0000
,
0001
0000
0000
0000
,
0001
0000
0000
0000
,
0001
0000
0000
0000
,
0001
0000
0000
0000
,
0100
0000
0000
0000
,
0100
0100
0000
0000
,
0100
0000
0000
0000
,
0010
0010
0000
0000
,
0010
0000
0000
0000
,
0100
0000
0000
0000
,
0100
0100
0000
0000
,
0100
0000
0000
0000
,
1001
0000
1000
0000
,
1000
0000
0000
0000
,
1001
0000
0001
0000
,
0001
0000
0000
0000
,
1001
0000
1000
0000
,
1000
0000
0000
0000
,
0002
0000
0000
0003
,
0001
0000
0000
0000
,
0100
0000
0100
0000
,
0100
0000
0000
0000
,
0010
0000
0010
0000
,
0010
0000
0000
0000
,
0100
0000
0100
0000
,
0100
0000
0000
0000
,
0001
0000
0001
0000
,
0001
0000
0000
0000
,
1000
0000
1000
0000
,
1000
0000
1000
0000
,
0001
0000
0001
0000
,
0001
0000
0001
0000
,
0100
0000
0100
0000
,
0100
0000
0000
0000
,
1001
0000
0001
0000
,
0001
0000
0000
0000
,
1001
0000
1000
0000
,
1000
0000
0000
0000
,
0010
0000
0010
0000
,
0100
0000
0100
0000
,
0010
0000
0010
0000
,
0110
0000
0000
0000
;

//---------------dance-single - ----------------
#NOTES:
     dance-single:
     :
     Easy:
     3:
     :
0000
0000
0000
0000
,
0000
0000
0000
0000
,
0000
0000
0000
0000
,
0000
0000
0000
0000
,
0000
0000
0000
0000
,
1000
0000
0100
0000
,
0001
0000
0000
0000
,
0001
0000
0010
0000
,
1000
0000
0000
0000
,
0001
0000
0100
0000
,
1000
0000
0000
0000
,
1000
0000
0010
0000
,
0001
0000
0000
0000
,
1000
0000
1000
0000
,
1000
0001
1000
0000
,
0100
0000
0100
0000
,
0100
0010
0100
0000
,
0001
0000
0001
0000
,
0001
1000
0001
0000
,
0010
0000
0010
0100
,
0010
0000
0000
0000
,
0001
0001
1000
1000
,
0010
0000
0000
0000
,
1000
1000
0001
0001
,
0100
0000
0000
0000
,
0001
0001
1000
1000
,
0010
0000
0000
0000
,
0002
0000
0000
0003
,
2000
0000
0000
3000
,
0100
0000
1000
0100
,
0001
0000
1000
0100
,
0001
0000
0010
0000
,
0010
1000
0100
0000
,
0001
0000
0001
0100
,
1000
0000
0001
0100
,
1000
0000
0010
0000
,
0010
0001
0100
0000
,
1001
0000
0100
0000
,
0110
0000
1000
0000
,
1001
0000
0010
0000
,
0110
0000
0001
0000
,
1001
0000
0100
0000
,
0110
0000
0000
0000
,
1000
1000
0001
0001
,
0010
0000
0000
0000
,
0001
0001
1000
1000
,
0100
0000
0000
0000
,
1000
1000
0001
0001
,
0010
0000
0100
0010
,
0100
0100
0010
0010
,
0110
0000
0000
0000
;

//---------------dance-single - ----------------
#NOTES:
     dance-single:
     :
     Medium:
     5:
     :
0000
0000
0000
0000
,
0000
0000
0000
0000
,
0000
0000
0000
0000
,
0000
0000
0000
0000
,
0000
0000
0000
0000
,
1000
1000
0100
0100
,
0001
0000
1001
0000
,
0001
0001
0100
0100
,
1000
0000
1001
0000
,
0001
0001
0100
0100
,
1000
0000
1000
0000
,
1000
1000
0010
0010
,
0001
0000
0100
0100
,
1000
0100
1000
0000
,
0001
0100
0001
0000
,
1001
0000
0010
0100
,
0110
0000
0001
0001
,
1001
0001
1000
0100
,
0001
0100
1000
0001
,
1001
0001
0010
1000
,
0110
0000
0010
0100
,
1000
0100
0010
0001
,
0100
0000
0110
0110
,
0001
0100
0010
1000
,
0100
0000
0110
0110
,
1000
0100
0010
0001
,
0100
0000
0001
1000
,
0001
0001
1000
1000
,
2001
0000
0000
3000
,
0110
0010
0010
0100
,
0100
0000
1000
0001
,
1000
0000
0001
1000
,
0001
0001
0100
0000
,
0010
0100
0010
0010
,
0100
0100
0002
1000
,
1003
0001
0010
0001
,
1000
0100
0100
0000
,
1001
0000
1001
0000
,
0110
0110
1000
0000
,
1001
0000
1001
0000
,
0110
0110
0001
0000
,
1001
0000
1001
0000
,
0110
0110
0000
0000
,
1000
1000
0001
0001
,
0010
0000
0110
0110
,
1000
0100
0010
0001
,
0100
0000
0110
0110
,
0001
0100
0010
1000
,
0100
0000
0110
0110
,
1000
0100
0010
0001
,
0100
0000
0001
1000
,
1001
0000
0000
0000
;

//---------------dance-single - ----------------
#NOTES:
     dance-single:
     :
     Hard:
     7:
     :
0000
0000
0000
0000
,
0000
0000
0000
0000
,
0000
0000
0000
0000
,
0000
0000
0000
0000
,
0000
0000
0000
0000
,
2000
0100
0100
3100
,
0002
0010
0010
0013
,
0020
1000
1000
1030
,
0200
0001
0001
0301
,
0200
1000
0001
0310
,
0020
0001
1000
0130
,
0200
0001
0010
1300
,
0201
0301
1000
0001
,
0110
0000
0000
0010
0000
0001
0000
1000
,
0000
0101
0000
0000
0100
0000
1000
0000
,
0010
0000
0000
0100
0000
0010
0000
0000
,
1100
0000
0001
1000
,
0101
0001
0000
1000
0000
0100
0000
1001
,
0000
0110
0000
0000
0101
0000
1100
0000
,
1001
0000
0000
0001
0000
1000
0000
0000
,
0110
0000
0001
1000
,
0100
0000
1000
0000
0001
0100
0001
2000
,
0000
0000
0000
3100
0000
0000
0001
0000
,
0100
0000
0010
0000
1000
0100
1000
0002
,
0000
0000
0000
1003
0100
0000
1000
0000
,
0010
0000
1000
0000
0001
0100
0001
2000
,
0000
0000
0000
3001
0100
0000
0010
0000
,
0100
0000
0010
0000
1000
0100
1000
0001
,
0100
0100
0100
0000
0010
0010
0010
0000
,
1000
0000
2000
0100
0000
0100
0000
3100
,
0010
0000
0000
0001
0000
0100
0001
0001
,
0100
0000
0000
0010
0000
1000
0100
0100
,
1000
0100
0000
0120
0000
0031
0000
0100
,
1000
0000
0100
0001
0000
1000
0000
0001
,
0100
0000
1000
0100
0000
0001
1000
0100
,
1100
0000
0100
0010
0000
0010
0001
0000
,
0001
0100
0000
0110
0000
0000
0000
0000
,
1000
0000
0001
0000
0010
0000
0000
1100
,
0000
1100
0000
0000
0011
0000
1010
0000
,
1001
0000
0000
1000
0000
0010
0000
0101
,
0000
0101
0000
0000
1010
0000
0101
0000
,
1100
0000
0000
0001
0000
0010
0011
0000
,
0011
0000
0101
1100
,
0201
0000
1300
0000
0001
1000
0100
0000
,
0101
1100
0021
1030
,
0011
0000
1010
0000
0010
0001
1000
0000
,
1100
0000
0101
0000
1000
0001
0100
0000
,
1100
0000
0011
0000
1000
0010
1000
0000
,
0101
0000
0011
0000
0001
0100
0001
0000
,
1010
0000
1100
0000
1000
0010
1000
0000
,
0101
1100
0011
1010
,
0110
0000
0000
0000
;

//---------------dance-double - ----------------
#NOTES:
     dance-double:
     :
     Beginner:
     1:
     :
00000000
00000000
00000000
00000000
,
00000000
00000000
00000000
00000000
,
00000000
00000000
00000000
00000000
,
00000000
00000000
00000000
00000000
,
00000000
00000000
00000000
00000000
,
10000000
00000000
00000000
00000000
,
10000000
00000000
00000000
00000000
,
10000000
00000000
00000000
00000000
,
10000000
00000000
00000000
00000000
,
01000000
00000000
00000000
00000000
,
01000000
00000000
00000000
00000000
,
01000000
00000000
00000000
00000000
,
01000000
00000000
00000000
00000000
,
00010000
00000000
00000000
00000000
,
00010000
00010000
00000000
00000000
,
00001000
00000000
00000000
00000000
,
00001000
00001000
00000000
00000000
,
00000100
00000000
00000000
00000000
,
00000100
00000000
00000000
00000000
,
00000100
00000100
00000000
00000000
,
00000001
00000000
00000000
00000000
,
00001001
00000000
00001000
00000000
,
00001000
00000000
00000000
00000000
,
00001001
00000000
00000001
00000000
,
00000001
00000000
00000000
00000000
,
00001001
00000000
00001000
00000000
,
00001000
00000000
00000000
00000000
,
00020000
00000000
00000000
00030000
,
00010000
00000000
00000000
00000000
,
00001000
00000000
00001000
00000000
,
00001000
00000000
00000000
00000000
,
00010000
00000000
00010000
00000000
,
00010000
00000000
00000000
00000000
,
01000000
00000000
01000000
00000000
,
01000000
00000000
00000000
00000000
,
00100000
00000000
00100000
00000000
,
00100000
00000000
00000000
00000000
,
10000000
00000000
10000000
00000000
,
10000000
00000000
10000000
00000000
,
01000000
00000000
01000000
00000000
,
01000000
00000000
01000000
00000000
,
00010000
00000000
00010000
00000000
,
00010000
00000000
00000000
00000000
,
00011000
00000000
00001000
00000000
,
00001000
00000000
00000000
00000000
,
00011000
00000000
00010000
00000000
,
00010000
00000000
00000000
00000000
,
00000010
00000000
00000010
00000000
,
00000100
00000000
00000100
00000000
,
00000010
00000000
00000010
00000000
,
00000110
00000000
00000000
00000000
;

//---------------dance-double - ----------------
#NOTES:
     dance-double:
     :
     Easy:
     3:
     :
00000000
00000000
00000000
00000000
,
00000000
00000000
00000000
00000000
,
00000000
00000000
00000000
00000000
,
00000000
00000000
00000000
00000000
,
00000000
00000000
00000000
00000000
,
10000000
00000000
01000000
00000000
,
00020000
00000000
00000000
00030000
,
00001000
00000000
00000100
00000000
,
00000002
00000000
00000000
00000003
,
00000001
00000000
00000010
00000000
,
00002000
00000000
00000000
00003000
,
00010000
00000000
00100000
00000000
,
20000000
00000000
00000000
30000000
,
10000000
00000000
01000000
00000000
,
00010000
00000000
00001000
00000000
,
00000001
00000000
00000100
00000000
,
00001000
00000000
00010000
00000000
,
10000000
00000000
01000000
00000000
,
00100000
01000000
00100000
00000000
,
00001000
00000000
00010000
00001000
,
00010000
00000000
00000000
00000000
,
00000001
00000001
00000100
00001000
,
00010000
00000000
00000000
00000000
,
00001000
00001000
00010000
00100000
,
10000000
00000000
00000000
00000000
,
10000000
10000000
01000000
00010000
,
00001000
00000000
00000000
00000000
,
00020000
00000000
00000000
00030000
,
00002000
00000000
00000000
00003000
,
00010000
00000000
00000010
00000100
,
00000010
00000000
00000010
00000100
,
00000010
00000000
00001000
00000000
,
00000001
00000100
00001000
00000000
,
00010000
00000000
01000000
00100000
,
01000000
00000000
01000000
00100000
,
01000000
00000000
10000000
00000000
,
00100000
00010000
00001000
00000000
,
00011000
00000000
00010000
00000000
,
00011000
00000000
00001000
00000000
,
00011000
00000000
00000010
00000000
,
00000110
00000000
00000100
00000000
,
00000110
00000000
00001000
00000000
,
00001001
00000000
00000000
00000000
,
00000001
00000001
00000100
00001000
,
00010000
00000000
00000000
00000000
,
00001000
00001000
00010000
00100000
,
10000000
00000000
00000000
00000000
,
10000000
10000000
01000000
00010000
,
00001000
00000000
00000100
00000010
,
00000100
00000100
00000010
00000010
,
00000110
00000000
00000000
00000000
;

//---------------dance-double - ----------------
#NOTES:
     dance-double:
     :
     Medium:
     5:
     :
00000000
00000000
00000000
00000000
,
00000000
00000000
00000000
00000000
,
00000000
00000000
00000000
00000000
,
00000000
00000000
00000000
00000000
,
00000000
00000000
00000000
00000000
,
10000000
10000000
01000000
01000000
,
00010000
00000000
00011000
00000000
,
00001000
00001000
00000100
00000100
,
00000001
00000000
00001001
00000000
,
00000001
00000001
00000010
00000010
,
00001000
00000000
00011000
00000000
,
00010000
00010000
00100000
00100000
,
10000000
00000000
01000000
01000000
,
10010000
00000000
10010000
00010000
,
00001000
00010000
00001000
00001000
,
00011000
00000000
00010000
00001000
,
00011000
00000000
00000010
00000010
,
00000110
00000100
00000010
00000100
,
00000010
00000100
00000001
00001000
,
00001001
00000100
00000100
00001000
,
00011000
00000000
01000000
00100000
,
10000000
01000000
00010000
00001000
,
00010000
00000000
00011000
00011000
,
00010000
00000010
00001000
00000001
,
00000100
00000000
00000110
00000110
,
00000001
00000100
00001000
00010000
,
00001000
00000000
00001000
00100000
,
00010000
00010000
10000000
10000000
,
20010000
00000000
00000000
30000000
,
00010000
10000000
10000000
01000000
,
01000000
00000000
00010000
00001000
,
00010000
00000000
00001000
00010000
,
00001000
00010000
00010000
00000000
,
00000010
00000100
00000010
00000010
,
00000100
00000100
00000002
00001000
,
00001003
00000100
00010000
00001000
,
00100000
00010000
00010000
00000000
,
01100000
00000000
01100000
00000000
,
10010000
10010000
01000000
00000000
,
01000000
00000000
00010000
00000000
,
00011000
00011000
00001000
00000000
,
00000110
00000000
00000110
00000000
,
00001001
00001001
00000000
00000000
,
00010000
00010000
00001000
00001000
,
00000010
00000000
00000110
00000110
,
00000001
00000010
00001000
00010000
,
00001000
00000000
00011000
00011000
,
00001000
00100000
00010000
10000000
,
01000000
00000000
01100000
01100000
,
10000000
01000000
00001000
00010000
,
00001000
00000000
00000010
00000100
,
00000110
00000000
00000000
00000000
;

//---------------dance-double - ----------------
#NOTES:
     dance-double:
     :
     Hard:
     8:
     :
00000000
00000000
00000000
00000000
,
00000000
00000000
00000000
00000000
,
00000000
00000000
00000000
00000000
,
00000000
00000000
00000000
00000000
,
00000000
00000000
00000000
00000000
,
20000000
00100000
00010000
31000000
,
00020000
00001000
00000010
00030100
,
00002000
00000010
00000001
00003100
,
00000002
00000010
00001000
00000103
,
00002000
00010000
00100000
01003000
,
00020000
00100000
10000000
01030000
,
20000000
00100000
00010000
31000000
,
02010000
03001000
00010000
00000010
,
00000110
00000001
00000100
00000010
,
00000101
00000110
00001000
00010000
,
01000000
10000000
00100000
11000000
,
01100000
00000000
10000000
00010000
,
01000000
00010000
00000000
00001000
00000000
00010000
00000000
00000010
,
00000000
00001000
00000000
00000000
00001001
00000000
00001100
00000000
,
00000101
00000000
00001000
00000000
00000001
00000000
00000100
00001000
,
00010000
00001000
00010000
01000000
,
10000000
00000000
00010000
00000000
00100000
01000000
10000000
01000000
,
00020000
00031000
00000100
00000001
,
00001000
00000000
00001000
00000000
00000010
00000100
00000001
00000100
,
00001000
00010000
01000000
10000000
,
00010000
00000000
00010000
00000000
01000000
00100000
10000000
00100000
,
00010000
00001000
00000010
00000001
,
00001000
00000000
00001000
00000000
00000100
00000010
00000001
00000010
,
00000001
00000001
00000001
00000000
00001000
00001000
00001000
00000000
,
00000010
00000000
00000100
00001000
00000000
00001000
00000000
00010000
,
00001000
00000000
00000000
00100000
00000000
00010000
01000000
01000000
,
00010000
00000000
00000000
00100000
00000000
01000000
10000000
10000000
,
01000000
00010000
00000000
00002000
00000000
00013000
00000000
00000010
,
00001000
00000000
00000001
00000100
00000000
00001000
00000000
00010000
,
00001000
00000000
00000100
00000001
00000000
00001000
00000100
00010000
,
00001000
00000000
00001000
01000000
00000000
01000000
00100000
00000000
,
00100000
10000000
00000000
10000000
00000000
00000000
00000000
00000000
,
01010000
01010000
11000000
11000000
,
01010000
11000000
01010000
01001000
,
00011000
00011000
00001010
00001010
,
00000011
00001010
00000110
00000110
,
00001100
00001100
00000101
00000101
,
00001100
00000101
00001100
00010100
,
00012000
00100000
01000000
00013000
,
00011000
00000000
01010000
01001000
,
00021000
00000010
00000100
00031000
,
00011000
00000000
00001010
00010010
,
00012000
01000000
00100000
00013000
,
00011000
00000000
00110000
00101000
,
00011000
00010100
00001100
00000110
,
00000011
00001100
00000101
00001010
,
00001001
00000000
00000000
00000000
;
