#TITLE:Slow (Chemical Brothers remix);
#ARTIST:Kylie Minogue;
#BANNER:Slow (Chemical Brothers remix).png;
#BACKGROUND:Slow (Chemical Brothers remix)-bg.png;
#CDTITLE:./CDTITLES/Dance Dance Revolution UNIVERSE.png;
#MUSIC:Slow (Chemical Brothers remix).ogg;
#SAMPLESTART:9.622;
#SAMPLELENGTH:15;
#DISPLAYBPM:115;
#BPMS:0=114.97;

//---------------dance-single - ----------------
#NOTES:
     dance-single:
     :
     Beginner:
     1:
     :
0000
0000
0000
0000
,
0000
0000
0000
0000
,
0000
0000
0000
0000
,
0000
0000
0000
0000
,
1000
0000
0000
0000
,
0010
0000
0000
0000
,
0100
0000
0100
0000
,
0001
0000
0000
0000
,
0010
0000
0100
0000
,
0010
0000
0000
0000
,
1000
0000
0000
0000
,
0001
0000
0000
0000
,
0100
0000
0100
0000
,
0010
0000
0000
0000
,
1000
0000
0000
0000
,
0001
0000
0000
0000
,
0100
0000
0100
0000
,
0010
0000
1000
0000
,
0010
0000
1000
0000
,
0001
0000
1000
0000
,
0100
0000
1000
0000
,
0001
0000
0010
0000
,
0001
0000
0010
0000
,
0001
0000
1000
0000
,
0001
0000
0100
0000
,
0001
0000
0000
0000
,
0100
0000
0000
0000
,
0010
0000
0000
0000
,
1001
0000
0000
0000
,
1000
1000
1000
0000
,
0001
0000
0000
0000
,
0010
0000
0000
0000
,
0100
0000
1000
0000
,
0001
0001
0001
0000
,
1000
0000
0000
0000
,
0010
0000
0000
0000
,
0100
0000
0001
0000
,
1000
1000
1000
0000
,
0010
0000
0100
0000
,
0010
0000
1000
0000
,
0010
0000
0100
0000
,
0001
0001
0001
0000
,
0010
0000
0100
0000
,
0010
0000
0001
0000
,
0010
0000
0100
0000
,
2000
0000
0000
3000
,
1000
0000
0000
0000
,
0002
0000
0000
0003
,
0001
0000
0000
0000
;

//---------------dance-single - ----------------
#NOTES:
     dance-single:
     :
     Easy:
     3:
     :
0000
0000
0000
0000
,
0000
0000
0000
0000
,
0000
0000
0000
0000
,
0000
0000
0000
0000
,
0010
0000
1000
0001
,
0100
0000
0010
0010
,
1000
0000
0100
0100
,
0010
0000
0001
0001
,
1000
0010
0100
0001
,
1000
0000
0010
0010
,
0200
0000
0000
0300
,
0200
0000
0000
0300
,
0010
0010
1000
0001
,
0100
0001
0010
0001
,
2000
0000
0000
3000
,
2000
0000
0000
3000
,
1001
0000
0000
0000
,
1000
0100
1000
0010
,
0100
0001
0010
0001
,
0100
0000
1000
0000
,
0010
0000
0001
0000
,
0100
0100
0010
1000
,
0001
0100
1000
0100
,
0001
0000
0010
0000
,
0100
0000
1000
1000
,
2000
0000
0000
3000
,
0002
0000
0000
0003
,
2000
0000
0000
3000
,
0010
0010
0010
0010
,
0100
0010
1000
0010
,
0100
0010
0001
0010
,
0100
0001
0010
0100
,
1000
0001
1000
0000
,
0010
0100
0001
0100
,
0010
0100
1000
0100
,
0010
1000
0100
0010
,
0001
1000
0001
0000
,
1000
0010
0100
0100
,
0020
0000
0000
0030
,
0200
0000
0000
0300
,
0001
1000
0001
1000
,
0001
0010
0100
0100
,
0020
0000
0000
0030
,
0200
0000
0000
0300
,
1000
0001
1000
0001
,
0200
0000
0300
0010
,
2000
0000
3000
0010
,
0200
0000
0300
0001
,
2000
0000
0000
3000
;

//---------------dance-single - ----------------
#NOTES:
     dance-single:
     :
     Medium:
     5:
     :
0000
0000
0000
0000
,
0000
0000
0000
0000
,
0000
0000
0000
0000
,
0000
0000
0000
0000
,
0000
0000
0000
0000
,
1000
0000
0100
2000
0000
0000
3100
0000
,
0001
0001
1000
0020
0000
0000
1030
0000
,
0001
0000
0100
0002
0000
0000
0103
0000
,
1000
1000
0001
0020
0000
0000
0031
0000
,
1001
0000
0000
0010
0000
0010
0000
0001
,
0000
1000
0000
0100
0000
0100
0000
0010
,
0100
0000
0100
0010
0000
0001
0000
0001
,
0000
0100
0000
0010
0000
0010
1000
0000
,
1000
0100
1000
0000
1100
0000
1100
0000
,
0100
0010
0100
0000
0110
0000
0110
0000
,
0001
0010
0001
0000
0011
0000
0011
0000
,
0100
0001
0100
0000
0101
0000
0101
0000
,
1001
0000
0001
0100
0000
0000
0110
0000
,
1000
1000
0100
1000
0000
0000
0110
0000
,
1001
0000
1000
0100
0000
0000
0110
0000
,
0001
0001
0100
0001
0000
0000
0110
0000
,
1001
0000
1000
0001
0000
0000
1001
0000
,
0100
0100
0010
0100
0000
0000
0110
0000
,
1001
0000
0001
1000
0000
0000
1001
0000
,
0100
0100
0010
0100
0000
0000
0110
0000
,
0020
0000
0000
0000
0000
0000
0000
2030
,
0000
0000
0000
0000
0000
0000
0000
3200
,
0000
0000
0000
0000
,
0320
0000
0000
0030
,
0001
0000
0100
0000
0001
0010
0001
0000
,
1000
0000
0100
0000
1000
0010
1000
0000
,
0100
0000
1000
0000
0010
0100
0010
0000
,
0100
0000
0001
0000
0010
0100
0010
0000
,
0001
0010
0001
0100
0000
0100
0000
1000
,
0010
0000
1000
0100
0001
0000
0100
0000
,
1000
0010
0100
0001
,
0001
0100
0010
0000
1000
0010
0100
0000
,
0001
0000
0010
0000
0110
0000
1000
0100
,
0010
0000
0001
0100
1000
0000
1000
0100
,
0010
0000
1000
0100
0010
0000
0001
0010
,
0100
0000
1000
0100
0010
0000
0100
0000
,
1001
0000
0100
0000
0010
0000
1000
0001
,
0010
0000
0100
0000
0010
0000
0001
1000
,
0100
0000
0100
0000
0001
0000
0100
0010
,
1000
0001
1000
0100
,
1001
2000
3100
0002
,
0103
2000
3010
0002
,
0013
2000
3001
0002
,
1003
0200
0310
0020
,
0130
0000
0000
0000
;

//---------------dance-single - ----------------
#NOTES:
     dance-single:
     :
     Hard:
     8:
     :
0000
0000
0000
0000
,
0000
0000
0000
0000
,
0000
0000
0000
0000
,
0000
0000
0000
0000
,
0000
0000
0000
0000
,
2000
0000
0000
3001
0100
1000
1100
0000
,
0010
0000
1000
0001
0000
0001
1000
0010
,
0200
0000
0000
0301
0010
0100
0110
0000
,
0001
0000
1000
0100
0000
1000
0001
0000
,
0010
0100
1000
0010
0100
1000
0001
0010
,
0100
0001
0010
0100
1000
0010
0100
1000
,
0100
0001
0010
0100
0001
0100
1000
0001
,
0010
0100
1000
0010
0100
0001
0010
0100
,
1000
0001
0000
0100
0000
0010
0000
0100
0000
0001
0000
0010
0000
0100
0000
1000
,
0100
1000
0000
0010
0000
0100
0000
0010
0000
1000
0000
0100
0000
0010
0000
0001
,
0100
0001
0000
1000
0000
0010
0000
0100
0000
0001
0000
0010
0000
0100
0000
1000
,
0001
1000
0001
1000
0100
1000
0100
1000
0001
1000
0001
1000
0001
0100
0001
0100
,
2002
0000
3003
0110
,
0010
0010
0100
1000
0000
0100
0010
0000
,
1001
0000
0000
0101
0000
0000
1010
0000
,
0100
0100
1000
0010
0000
1000
0100
0010
,
1001
0000
0000
0011
0000
0000
1100
0000
,
0010
0010
0100
0001
0000
0100
0010
0000
,
1001
0000
0000
1100
0000
0000
0011
0000
,
0100
0100
0001
1000
0000
1000
0100
0010
,
0002
0000
0000
0000
,
2003
0000
0000
0000
,
3010
0010
0010
0010
0100
0100
0100
0100
,
0010
0010
1000
1000
0100
0100
0010
0010
,
0001
1000
0001
1000
0010
0001
0010
0001
,
0010
1000
0100
1000
0010
0001
0010
1000
,
0001
1000
0001
1000
0100
0001
0100
0001
,
0100
1000
0010
1000
0100
0001
0100
1000
,
0010
0100
0100
0001
0001
0100
0010
1000
,
0100
0010
0010
0001
0001
0010
0100
1000
,
0010
0001
0001
0010
0010
1000
0100
0001
,
0100
1000
1000
0010
0010
0001
0010
1000
,
0001
0100
0001
0100
0010
0001
0010
0001
,
0010
0100
0001
0100
0010
0001
0010
0100
,
1000
0010
1000
0010
0100
1000
0100
1000
,
0100
0010
1000
0010
0100
1000
0100
0010
,
0001
1000
0001
1000
0000
0010
0100
0000
,
0010
0010
1000
0100
0000
0100
1000
0000
,
0010
0010
0100
0001
0000
0001
0100
0000
,
0010
0010
1000
0001
0000
0010
0100
0000
,
1000
0001
0000
0100
0000
0010
0000
0100
0000
0001
0000
0010
0000
0100
0000
1000
,
0100
1000
0000
0010
0000
0100
0000
0010
0000
1000
0000
0100
0000
0010
0000
0001
,
0100
0001
0000
1000
0000
0010
0000
0100
0000
0001
0000
0010
0000
0100
0000
1000
,
0001
1000
0001
1000
0010
1000
0010
1000
0001
1000
0001
1000
0001
0010
0001
0010
;

//---------------dance-double - ----------------
#NOTES:
     dance-double:
     :
     Beginner:
     1:
     :
00000000
00000000
00000000
00000000
,
00000000
00000000
00000000
00000000
,
00000000
00000000
00000000
00000000
,
00000000
00000000
00000000
00000000
,
00010000
00000000
00000000
00000000
,
00001000
00000000
00000000
00000000
,
00100000
00000000
00100000
00000000
,
01000000
00000000
00000000
00000000
,
10000000
00000000
00010000
00000000
,
00100000
00000000
00000000
00000000
,
00001000
00000000
00000000
00000000
,
00010000
00000000
00000000
00000000
,
00000100
00000000
00000100
00000000
,
00001000
00000000
00000000
00000000
,
00000010
00000000
00000000
00000000
,
00000100
00000000
00000000
00000000
,
00001000
00000000
00001000
00000000
,
00000001
00000000
00000010
00000000
,
00001000
00000000
00010000
00000000
,
00001000
00000000
00010000
00000000
,
00100000
00000000
00010000
00000000
,
01000000
00000000
00010000
00000000
,
10000000
00000000
01000000
00000000
,
00100000
00000000
10000000
00000000
,
00100000
00000000
00010000
00000000
,
01000000
00000000
00000000
00000000
,
00001000
00000000
00000000
00000000
,
00010000
00000000
00000000
00000000
,
00011000
00000000
00000000
00000000
,
00000100
00000100
00000100
00000000
,
00000010
00000000
00000000
00000000
,
00001000
00000000
00000000
00000000
,
00000010
00000000
00000100
00000000
,
00000001
00000001
00000001
00000000
,
00001000
00000000
00000000
00000000
,
00000010
00000000
00000000
00000000
,
00010000
00000000
00001000
00000000
,
00100000
00100000
00100000
00000000
,
00010000
00000000
10000000
00000000
,
01000000
00000000
00010000
00000000
,
01000000
00000000
00100000
00000000
,
10000000
10000000
10000000
00000000
,
00010000
00000000
00100000
00000000
,
00001000
00000000
00010000
00000000
,
00000100
00000000
00000010
00000000
,
00000002
00000000
00000000
00000003
,
00000001
00000000
00000000
00000000
,
00002000
00000000
00000000
00003000
,
00001000
00000000
00000000
00000000
;

//---------------dance-double - ----------------
#NOTES:
     dance-double:
     :
     Easy:
     3:
     :
00000000
00000000
00000000
00000000
,
00000000
00000000
00000000
00000000
,
00000000
00000000
00000000
00000000
,
00000000
00000000
00000000
00000000
,
00000000
00000000
00000000
00000000
,
00100000
00000000
01000000
01000000
,
10000000
00000000
00010000
00010000
,
00100000
00000000
00001000
00001000
,
00010000
00000100
00001000
00000010
,
00000100
00000000
00000001
00000001
,
00002000
00000000
00000000
00003000
,
00000200
00000000
00000000
00000300
,
00000010
00000010
00000100
00000100
,
00010000
00010000
00001000
00001000
,
00200000
00000000
00000000
00300000
,
00020000
00000000
00000000
00030000
,
10010000
00000000
00000000
00000000
,
10000000
01000000
10000000
01000000
,
00100000
00010000
00100000
00010000
,
01000000
00000000
00001000
00000000
,
00010000
00000000
00000010
00000000
,
00000100
00000001
00000100
00000001
,
00001000
00000010
00001000
00000010
,
00000100
00000000
00001000
00000000
,
00010000
00000000
01000000
00000000
,
20000000
00000000
00000000
30000000
,
00020000
00000000
00000000
00030000
,
20000000
00000000
00000000
30000000
,
00100000
00100000
00100000
00100000
,
01000000
00010000
01000000
00100000
,
00010000
00001000
00010000
00100000
,
01000000
00010000
00100000
00001000
,
00010000
00001000
00010000
00000000
,
00000100
00001000
00000100
00000010
,
00001000
00010000
00001000
00000010
,
00000100
00001000
00000010
00010000
,
00001000
00010000
00001000
00000000
,
00100000
00010000
01000000
01000000
,
00200000
00000000
00000000
00300000
,
20000000
00000000
00000000
30000000
,
01000000
10000000
00010000
01000000
,
00010000
00100000
00001000
00001000
,
00020000
00000000
00000000
00030000
,
00000200
00000000
00000000
00000300
,
00001000
00000001
00000100
00000001
,
00000020
00000000
00000030
00000001
,
00002000
00000000
00003000
00000100
,
00020000
00000000
00030000
00001000
,
00200000
00000000
00000000
00300000
;

//---------------dance-double - ----------------
#NOTES:
     dance-double:
     :
     Medium:
     5:
     :
00000000
00000000
00000000
00000000
,
00000000
00000000
00000000
00000000
,
00000000
00000000
00000000
00000000
,
00000000
00000000
00000000
00000000
,
00000000
00000000
00000000
00000000
,
00001000
00000000
00010000
00002000
00000000
00000000
00103000
00000000
,
00010000
00010000
01000000
00200000
00000000
00000000
10300000
00000000
,
01000000
00000000
00010000
00002000
00000000
00000000
00013000
00000000
,
00000010
00000010
00001000
00000002
00000000
00000000
00000103
00000000
,
00000110
00000000
00000000
00001000
00000000
00010000
00000000
00001000
,
00000000
01000000
00000000
00010000
00000000
01000000
00000000
00100000
,
10000000
00000000
01000000
00100000
00000000
00010000
00000000
00001000
,
00000000
00010000
00000000
00000100
00000000
00001000
00000010
00000000
,
00000100
00000001
00000100
00000000
00000102
00000000
00000103
00000000
,
00001000
00010000
00001000
00000000
00021000
00000000
00031000
00000000
,
00100000
00010000
00100000
00000000
00120000
00000000
00130000
00000000
,
10000000
01000000
10000000
00000000
12000000
00000000
13000000
00000000
,
10010000
00000000
00010000
01000000
00000000
00000000
00011000
00000000
,
00010000
00010000
00000100
00001000
00000000
00000000
00000110
00000000
,
00001001
00000000
00001000
00000100
00000000
00000000
00011000
00000000
,
00001000
00001000
01000000
00010000
00000000
00000000
01100000
00000000
,
10010000
00000000
10000000
01000000
00000000
00000000
01100000
00000000
,
00010000
00010000
00001000
00000100
00000000
00000000
00000110
00000000
,
00001001
00000000
00000001
00000100
00000000
00000000
00000110
00000000
,
00001000
00001000
00010000
01000000
00000000
00000000
01100000
00000000
,
00200000
00000000
00000000
00000000
00000000
00000000
00000000
20300000
,
00000000
00000000
00000000
00000000
00000000
00000000
00000000
32000000
,
00000000
00000000
00000000
00000000
,
03020000
00000000
00000000
00030000
,
00001000
00000000
00010000
00000000
00000010
00001000
00000010
00000000
,
00000100
00000000
00000001
00000000
00001000
00000100
00001000
00000000
,
00010000
00000000
00001000
00000000
00100000
00010000
00100000
00000000
,
10000000
00000000
01000000
00000000
00010000
00100000
00010000
00000000
,
00001000
00010000
00001000
00000100
00000000
00000100
00000000
00000010
,
00001000
00000000
00000001
00000100
00001000
00000000
00010000
00000000
,
00001000
01000000
00100000
10000000
,
01000000
00100000
00010000
00000000
01000000
00100000
10000000
00000000
,
01000000
00000000
00010000
00000000
00001000
00000000
00010000
00001000
,
00000100
00000000
00000010
00000100
00000001
00000000
00001000
00000100
,
00000010
00000000
00000001
00000100
00001000
00000000
00010000
00001000
,
00100000
00000000
00010000
00100000
01000000
00000000
10000000
00000000
,
11000000
00000000
00100000
00000000
00010000
00000000
01000000
00001000
,
00010000
00000000
00000100
00000000
00001000
00000000
00000010
00001000
,
00000001
00000000
00000100
00000000
00010000
00000000
00001000
00010000
,
00100000
10000000
01000000
00100000
,
10010000
20000000
31000000
00020000
,
01030000
00200000
00301000
00002000
,
00013000
00000200
00001300
00000020
,
00000031
00002000
00003100
00000002
,
00000103
00000000
00000000
00000000
;

//---------------dance-double - ----------------
#NOTES:
     dance-double:
     :
     Hard:
     8:
     :
00000000
00000000
00000000
00000000
,
00000000
00000000
00000000
00000000
,
00000000
00000000
00000000
00000000
,
00000000
00000000
00000000
00000000
,
00000000
00000000
00000000
00000000
,
00200000
00000000
00000000
00310000
00100000
01000000
11000000
00000000
,
00010000
01000000
00100000
01000000
00001000
00000000
00010000
00000100
,
00000020
00000000
00000000
00000031
00000010
00000100
00001100
00000000
,
00000001
00000100
00000010
00000100
00001000
00000000
00011000
00000000
,
00010000
01000000
10000000
00100000
00010000
00100000
01000000
00100000
,
10000000
01000000
00010000
00001000
00100000
00001000
00010000
00001000
,
00000100
00000001
00000010
00000100
00000001
00000100
00000010
00000100
,
00001000
00000001
00000100
00001000
00010000
00001000
00100000
00001000
,
01000000
00010000
00000000
01000000
00000000
00100000
00000000
01000000
00000000
10000000
00000000
01000000
00000000
00010000
00000000
10000000
,
00010000
10000000
00000000
01000000
00000000
00100000
00000000
01000000
00000000
00010000
00000000
01000000
00000000
10000000
00000000
00010000
,
10000000
00010000
00000000
00100000
00000000
00001000
00000000
00010000
00000000
00000010
00000000
00001000
00000000
00000001
00000000
00000010
,
00000001
00000100
00000001
00000100
00000010
00000100
00000010
00000100
00001000
00000100
00001000
00010000
00001000
00010000
00001000
00010000
,
00022000
00000000
00033000
00011000
,
00100000
00010000
01000000
01000000
00000000
10000000
10000000
00000000
,
01000000
00010000
00100000
00100000
00000000
10000000
10000000
00000000
,
00100000
00000000
00010000
00100000
00001000
00010000
00000100
00001000
,
00000202
00000000
00000303
00001100
,
00000010
00001000
00000100
00000100
00000000
00000001
00000001
00000000
,
00000100
00001000
00000010
00000010
00000000
00000001
00000001
00000000
,
00000010
00000000
00001000
00000100
00010000
00001000
00100000
00010000
,
02000000
00000000
00000000
00000000
,
03200000
00000000
00000000
00000000
,
10300000
10010000
11000000
01100000
,
00110000
00010000
01000000
01000000
00001000
00001000
00010000
00010000
,
00001000
00000100
00001000
00000100
00000010
00001000
00000010
00001000
,
00000100
00000010
00000100
00001000
00000010
00001000
00000100
00000010
,
00000100
00010000
00000100
00010000
00001000
01000000
00001000
01000000
,
00010000
00100000
00010000
01000000
00001000
01000000
00010000
00100000
,
01000000
10000000
10000000
00010000
00010000
00100000
01000000
10000000
,
00100000
01000000
01000000
00010000
00010000
10000000
00100000
01000000
,
00010000
00100000
00100000
00001000
00001000
00010000
00000100
00010000
,
00001000
01000000
01000000
00001000
00001000
00010000
00000010
00010000
,
00001000
00000100
00001000
00000100
00000001
00001000
00000001
00001000
,
00000001
00000100
00001000
00000100
00000010
00001000
00000001
00001000
,
00000010
00010000
00000010
00010000
00001000
01000000
00001000
01000000
,
00010000
00100000
00010000
01000000
00001000
01000000
00010000
00100000
,
02200000
00000000
03300000
10000000
,
00010000
01000000
00100000
00100000
00000000
10000000
10000000
00000000
,
01000000
00100000
00010000
00010000
00000000
01000000
01000000
00000000
,
00001000
00010000
00000100
00000100
00000000
00001000
00001000
00000000
,
00000100
00001000
00000000
00000100
00000000
00000010
00000000
00000100
00000000
00000001
00000000
00000100
00000000
00001000
00000000
00000001
,
00001000
00000001
00000000
00000100
00000000
00000010
00000000
00000100
00000000
00001000
00000000
00000100
00000000
00000001
00000000
00001000
,
00000001
00001000
00000000
00000010
00000000
00010000
00000000
00001000
00000000
01000000
00000000
00010000
00000000
10000000
00000000
00100000
,
10000000
01000000
10000000
01000000
00100000
01000000
00100000
01000000
00010000
01000000
00010000
00001000
00010000
00001000
00010000
00001000
;
