#TITLE:Slam;
#ARTIST:Pendulum;
#BANNER:Slam.png;
#BACKGROUND:Slam-bg.png;
#CDTITLE:./CDTITLES/Dance Dance Revolution UNIVERSE.png;
#MUSIC:Slam.ogg;
#SAMPLESTART:30.375;
#SAMPLELENGTH:15;
#BPMS:0=87,28=174;

//---------------dance-single - ----------------
#NOTES:
     dance-single:
     :
     Beginner:
     1:
     :
0000
0000
0000
0000
,
0000
0000
0000
0000
,
0000
0000
0000
0000
,
0001
0000
0001
0000
,
1000
0000
1000
0000
,
0100
0000
0000
0000
,
0010
0000
0000
0000
,
0001
0000
0000
0000
,
0000
0000
0000
0000
,
1000
0000
0000
0000
,
0000
0000
0000
0000
,
0010
0000
0000
0000
,
0010
0000
0000
0000
,
0100
0000
0000
0000
,
0100
0000
0000
0000
,
0110
0000
0000
0000
,
0001
0000
0000
0000
,
1000
0000
0000
0000
,
0000
0000
0000
0000
,
0100
0000
0000
0000
,
1000
0000
0000
0000
,
0001
0000
0000
0000
,
0000
0000
0000
0000
,
2000
0000
0000
3000
,
0000
0000
0000
0000
,
0020
0000
0000
0030
,
0000
0000
0000
0000
,
0200
0000
0000
0300
,
0000
0000
0000
0000
,
0001
0000
1000
0000
,
0001
0000
1000
0000
,
0001
0000
0000
0000
,
0100
0000
0000
0000
,
1000
0000
0000
0000
,
0010
0000
0000
0000
,
0001
0000
0000
0000
,
1000
0000
0000
0000
,
0100
0000
0000
0000
,
0010
0000
0000
0000
,
0002
0000
0000
0000
,
0003
0000
0000
0000
,
1000
0000
1000
0000
,
0001
0000
0010
0000
,
0010
0000
0000
0000
,
0100
0000
0000
0000
,
1000
0000
0000
0000
,
0100
0000
0000
0000
,
0010
0000
0001
0000
,
0010
0000
0001
0000
,
1000
0000
0010
0000
,
1000
0000
0010
0000
,
0100
0000
0000
0000
,
0010
0000
0000
0000
,
0100
0000
0000
0000
,
0010
0000
0000
0000
,
1000
0000
1000
0000
,
0001
0000
0001
0000
,
0010
0000
0000
0000
,
0000
0000
0000
0000
,
0001
0000
0001
0000
,
1000
0000
1000
0000
,
0010
0000
0000
0000
,
0000
0000
0000
0000
,
0200
0000
0000
0300
,
0100
0000
0000
0000
,
0002
0000
0000
0003
,
0001
0000
0000
0000
,
0020
0000
0000
0030
,
0010
0000
0000
0000
,
0100
0000
1000
0000
,
0001
0000
1000
0000
,
1001
0000
0000
0000
;

//---------------dance-single - ----------------
#NOTES:
     dance-single:
     :
     Easy:
     4:
     :
0000
0000
0000
0000
,
0000
0000
0000
0000
,
0000
0000
0000
0000
,
1000
0100
1000
0010
,
0200
0300
0001
0000
,
0010
0001
0010
0001
,
0200
0300
0010
0000
,
1001
0000
0100
0000
,
1000
0000
0100
0000
,
0010
0010
0010
0000
,
0001
0000
1000
0000
,
0001
0001
0001
0000
,
1000
0000
0010
0000
,
0100
0000
0010
0000
,
0100
0000
0001
1000
,
0001
0000
0010
0100
,
0010
0000
0001
0100
,
0010
1000
0000
1000
,
0000
0001
0010
0100
,
1000
0000
0001
1000
,
0001
0000
0100
0001
,
0100
0010
0000
0010
,
0000
1000
0000
1000
,
0000
0100
0000
0100
,
0000
0100
0000
0100
,
0000
0010
0000
0010
,
0000
0010
0000
0010
,
0000
0001
0000
0001
,
0000
0001
0000
0001
,
2000
3000
0002
0003
,
1000
0001
0100
0010
,
0100
0000
0001
0000
,
0010
0000
0001
0001
,
0100
0000
0010
0000
,
1000
0000
0100
0100
,
1000
0000
0001
0000
,
0100
0000
0010
0010
,
1000
0000
0001
0000
,
0010
0000
0100
0000
,
1000
1000
1000
0000
,
0001
0001
0001
0000
,
0100
0000
0100
0000
,
0010
0000
0010
0000
,
1000
0000
1000
0000
,
0001
0000
0001
0000
,
0010
0000
0010
0000
,
0100
0000
0100
0000
,
2000
0000
3000
0000
,
2000
0000
3000
0000
,
0002
0000
0003
0000
,
0002
0000
0003
0000
,
0100
0000
0100
0000
,
0010
0000
0010
0000
,
0100
0000
0100
0000
,
0010
0000
0010
1000
,
0001
0000
0010
0100
,
0010
0000
0001
1000
,
0001
0100
0000
0100
,
0000
0010
0100
0010
,
1000
0000
0001
0100
,
0001
0000
1000
0010
,
1000
0100
0000
0100
,
0000
0010
0000
0010
,
0001
0000
0001
0000
,
0001
0000
0001
0000
,
1000
0000
1000
0000
,
1000
0000
1000
0000
,
0100
0000
0100
0000
,
0100
0000
0100
0000
,
0020
0030
0002
0003
,
1000
0010
0100
0001
,
1001
0000
0000
0000
;

//---------------dance-single - ----------------
#NOTES:
     dance-single:
     :
     Medium:
     6:
     :
0000
0000
0000
0000
,
0000
0000
0000
0000
,
0000
0000
0000
0000
,
1001
0001
0010
0100
1000
0000
1000
0000
,
0100
0010
0001
0010
0100
0000
2000
0000
,
3002
0000
0003
1000
0001
0000
0200
0000
,
0320
0000
0000
0000
0030
0000
0100
0000
0010
0000
0000
0000
0100
0000
0001
1000
,
0001
0001
1000
1000
,
0001
0000
0001
0000
1000
0000
0000
0100
,
0010
0010
0100
0100
,
0010
0020
0032
2003
,
3020
0230
0010
0001
,
0010
1000
0010
0301
,
2002
0000
0000
0000
,
3003
0000
1000
0000
0001
1000
0001
1000
,
0002
0100
1003
0010
,
2000
0000
0100
0000
3001
0000
0010
0001
,
0100
0010
1000
0010
,
0001
0010
1000
0000
,
0020
0100
0031
1000
,
0200
0000
0010
0000
1300
0000
0001
0200
,
0000
0310
1000
0100
,
0001
0100
1000
0000
,
0100
0000
0001
0000
0100
0000
0001
0010
,
0000
0010
0001
0000
0100
0000
0100
0000
,
0010
0000
1000
0000
0010
0000
1000
0100
,
0000
0100
1000
0000
0010
0000
0010
0000
,
1000
0000
0001
0000
1000
0000
0001
0010
,
0000
0010
0001
0000
1000
0000
0001
0000
,
0200
0310
2000
3001
,
0020
0130
0110
1001
,
0110
0000
1000
0000
0001
0100
0000
0001
,
0000
1000
0000
0001
0100
0000
0010
0000
,
1000
0000
0001
0000
0010
0001
0000
1000
,
0000
0001
0000
0010
0001
0000
1000
0000
,
0010
0000
0100
0000
0001
1000
0000
0010
,
0000
0100
0000
0001
1000
0000
0010
0000
,
1000
0000
0100
0000
0010
0001
0000
1000
,
0000
0100
0000
0010
0001
1000
0100
0000
,
2002
0000
0000
0000
,
0000
0000
0000
3003
,
0010
0000
0011
0000
0001
0000
1000
0001
,
0000
0001
0100
0000
0010
0000
1000
0000
,
0001
0100
0000
0001
0100
0000
0010
0000
,
1000
0100
0000
0100
0000
0000
1000
0000
,
0010
0100
0000
0010
0100
0000
0001
0000
,
0010
0100
0000
0100
0000
0000
0010
0000
,
0001
0100
0000
0100
0001
0010
0000
0010
,
0001
0100
0000
0100
0001
0010
0100
0000
,
1000
0010
0000
0010
1000
0100
0000
0100
,
1000
0010
0100
0001
,
1000
0100
0000
1000
0100
0000
0010
0000
,
0001
0100
0000
0100
0000
0000
0001
0000
,
0010
0100
0000
0010
0100
0000
1000
0000
,
0001
0100
1100
0101
,
2000
0010
3001
0100
,
0002
0000
0010
0000
1003
0000
0100
1000
,
0010
0100
0001
0100
,
1000
0100
0001
0000
,
0200
0010
1300
0001
,
0020
0000
0100
0000
0031
0000
1000
0020
,
0000
0130
0001
0010
,
1000
0010
0001
0000
,
0010
0000
1000
0000
0010
0000
1000
0100
,
0000
0100
1000
0000
0010
0000
0010
0000
,
0100
0000
0001
0000
0100
0000
0001
0010
,
0000
0010
0001
0000
0100
0000
0100
0000
,
0001
0000
1000
0000
0001
0000
1000
0100
,
0000
0100
1000
0000
0001
0000
1000
0000
,
0020
0130
0002
1003
,
0200
0310
0110
1001
,
0220
0000
0000
0000
,
0000
0000
0000
0330
;

//---------------dance-single - ----------------
#NOTES:
     dance-single:
     :
     Hard:
     9:
     :
0000
0000
0000
0000
,
0000
0000
0000
0000
,
0000
0000
0000
0000
,
0110
1000
0010
0100
0002
0000
1003
0000
,
0110
1000
0100
0010
0002
0000
2003
0000
,
3200
0000
0310
0100
1001
0000
0210
0000
,
0302
0000
0000
0000
0013
0000
0100
0000
1100
0000
0000
0000
1001
0000
0010
0100
,
2000
0100
0100
3100
,
0002
0100
0100
0103
,
2000
0010
0010
3010
,
0001
0011
1001
0101
,
0010
0100
0001
1000
0001
0100
0001
0010
,
0100
1000
0001
1000
0100
1000
0001
0010
,
0100
1000
0010
0001
0010
1000
0100
0001
,
0100
1000
0010
0200
0001
0302
1000
1003
,
2001
0000
3100
0000
1000
0010
1000
0001
,
0020
0000
0130
2000
0000
3100
0010
0001
,
0011
0000
1100
0000
1000
0010
0100
0001
,
1000
0001
0100
0001
0011
0000
1010
0000
,
1002
0000
0103
0000
0001
0010
0001
1000
,
0020
0000
0130
0002
0000
0103
0010
2000
,
0000
0000
3100
0000
1000
0001
1000
0100
,
0010
0001
0010
1000
0010
0001
1000
0100
,
0010
0000
1100
0000
0010
0100
1000
0001
,
0000
1000
0100
0000
0001
0100
1000
0010
,
1000
0000
0110
0000
0001
0010
0001
0100
,
0000
1000
0100
0000
0001
0010
0001
0100
,
0010
0000
0101
0000
0010
0100
0001
1000
,
0000
0001
0010
0000
1000
0010
0001
1000
,
0100
0001
0100
1000
0010
1000
0100
0010
,
0001
0100
1000
0100
0101
0000
1010
0000
,
1001
0000
0100
0000
0010
1000
0001
0200
,
0000
0320
0000
1030
0001
0100
0010
0000
,
1000
0000
0001
0000
0100
0010
0100
0002
,
0000
2003
0000
3010
0100
0010
1000
0000
,
0001
0000
0010
0000
0100
1000
0001
0020
,
0000
0230
0000
1300
0001
0010
0100
0000
,
1000
0000
0001
0000
0010
0100
0010
0002
,
0000
2003
0000
3100
0010
0100
1000
0000
,
0020
0000
0031
0000
0010
2000
0000
3001
,
0200
0000
1300
0000
0100
0002
0000
0000
,
1003
0000
1100
0000
1000
0000
0101
0010
,
0000
1000
0001
0000
0100
0001
0010
0100
,
1000
0001
0000
1000
0001
0000
0100
0000
,
0020
0001
0000
1000
0000
0031
0010
0000
,
1000
0001
0000
1000
0001
0000
0010
0000
,
0200
0001
0000
1000
0000
0301
0100
0000
,
1000
0001
1000
0010
0100
0001
1000
0001
,
0100
0010
1000
0010
0100
0001
0020
0000
,
0031
0100
0010
1000
0001
1000
0010
0100
,
0002
2003
3020
0230
,
0301
1000
0000
0001
1000
0000
0100
0000
,
0010
1000
0001
1000
0010
0000
0001
0000
,
1000
0001
0000
1000
0001
0000
0100
0000
,
0010
0001
1000
0001
0101
0000
1100
0000
,
2001
0000
3010
0000
1000
0100
1000
0001
,
0200
0000
0310
2000
0000
3010
0100
0001
,
0101
0000
1010
0000
1000
0100
0010
0001
,
1000
0001
0010
0001
0101
0000
1100
0000
,
1002
0000
0013
0000
0001
0100
0001
1000
,
0200
0000
0310
0002
0000
0013
0100
2000
,
0000
0000
3100
0000
1000
0001
1000
0100
,
0010
0001
0010
1000
0010
0001
1000
0001
,
0010
0000
1100
0000
0010
0100
1000
0001
,
0000
0010
0001
0000
0100
0001
0010
0100
,
1000
0000
0101
0000
0010
0100
0001
1000
,
0000
0010
1000
0000
0100
1000
0010
0100
,
0001
0000
0110
0000
1000
0001
1000
0010
,
0000
0100
0001
0000
1000
0010
0100
1000
,
0100
0001
0010
0100
0001
0100
0010
0001
,
1000
0010
0100
0001
0011
0000
1100
0000
,
2002
0000
0000
0000
,
0000
0000
0000
0000
,
3003
0000
0000
0000
;

//---------------dance-double - ----------------
#NOTES:
     dance-double:
     :
     Beginner:
     1:
     :
00000000
00000000
00000000
00000000
,
00000000
00000000
00000000
00000000
,
00000000
00000000
00000000
00000000
,
10000000
00000000
10000000
00000000
,
01000000
00000000
01000000
00000000
,
00010000
00000000
00000000
00000000
,
00001000
00000000
00000000
00000000
,
00000001
00000000
00000000
00000000
,
00000000
00000000
00000000
00000000
,
00001000
00000000
00000000
00000000
,
00000000
00000000
00000000
00000000
,
00000100
00000000
00000000
00000000
,
00010000
00000000
00000000
00000000
,
00001000
00000000
00000000
00000000
,
00010000
00000000
00000000
00000000
,
00011000
00000000
00000000
00000000
,
00100000
00000000
00000000
00000000
,
01000000
00000000
00000000
00000000
,
00000000
00000000
00000000
00000000
,
10000000
00000000
00000000
00000000
,
01000000
00000000
00000000
00000000
,
00100000
00000000
00000000
00000000
,
00000000
00000000
00000000
00000000
,
00002000
00000000
00000000
00003000
,
00000000
00000000
00000000
00000000
,
00020000
00000000
00000000
00030000
,
00000000
00000000
00000000
00000000
,
00000200
00000000
00000000
00000300
,
00000000
00000000
00000000
00000000
,
00001000
00000000
00000001
00000000
,
00001000
00000000
00000001
00000000
,
00001000
00000000
00000000
00000000
,
00000010
00000000
00000000
00000000
,
00000100
00000000
00000000
00000000
,
00001000
00000000
00000000
00000000
,
00010000
00000000
00000000
00000000
,
01000000
00000000
00000000
00000000
,
10000000
00000000
00000000
00000000
,
00100000
00000000
00000000
00000000
,
00020000
00000000
00000000
00000000
,
00030000
00000000
00000000
00000000
,
00001000
00000000
00001000
00000000
,
00000100
00000000
00000001
00000000
,
00000001
00000000
00000000
00000000
,
00000010
00000000
00000000
00000000
,
00000100
00000000
00000000
00000000
,
00001000
00000000
00000000
00000000
,
00000100
00000000
00010000
00000000
,
00000100
00000000
00010000
00000000
,
00001000
00000000
00100000
00000000
,
00001000
00000000
00100000
00000000
,
00010000
00000000
00000000
00000000
,
10000000
00000000
00000000
00000000
,
00100000
00000000
00000000
00000000
,
01000000
00000000
00000000
00000000
,
00010000
00000000
00010000
00000000
,
00100000
00000000
00100000
00000000
,
00001000
00000000
00000000
00000000
,
00000000
00000000
00000000
00000000
,
00010000
00000000
00010000
00000000
,
00000100
00000000
00000100
00000000
,
00001000
00000000
00000000
00000000
,
00000000
00000000
00000000
00000000
,
00000020
00000000
00000000
00000030
,
00000010
00000000
00000000
00000000
,
00000200
00000000
00000000
00000300
,
00000100
00000000
00000000
00000000
,
00002000
00000000
00000000
00003000
,
00001000
00000000
00000000
00000000
,
00010000
00000000
01000000
00000000
,
10000000
00000000
00010000
00000000
,
10010000
00000000
00000000
00000000
;

//---------------dance-double - ----------------
#NOTES:
     dance-double:
     :
     Easy:
     4:
     :
00000000
00000000
00000000
00000000
,
00000000
00000000
00000000
00000000
,
00000000
00000000
00000000
00000000
,
00100000
10000000
01000000
00010000
,
00002000
00003000
00000100
00000000
,
00000010
00000001
00000100
00001000
,
00020000
00030000
01000000
00000000
,
10010000
00000000
00100000
00000000
,
01000000
00000000
00100000
00000000
,
01000000
00000000
00010000
00000000
,
00001000
00000000
00000100
00000000
,
00000010
00000100
00000010
00000100
,
00000010
00000100
00000010
00001000
,
00000001
00000000
00000010
00000000
,
00001000
00000000
00010000
00001000
,
00020000
00030000
00100000
00010000
,
00200000
00300000
10000000
01000000
,
10000000
00010000
00000000
01000000
,
00000000
00100000
00010000
00001000
,
00020000
00030000
00000100
00001000
,
00000200
00000300
00000010
00000100
,
00000010
00000001
00000000
00001000
,
00000000
00000010
00000000
00000100
,
00000000
00001000
00000000
00010000
,
00000000
00001000
00000000
00010000
,
00000000
01000000
00000000
00100000
,
00000000
01000000
00000000
00100000
,
00000000
00010000
00000000
10000000
,
00000000
00010000
00000000
10000000
,
00200000
00300000
02000000
03000000
,
00010000
00100000
00001000
00010000
,
00000100
00000000
00001000
00000000
,
00000100
00000000
00000010
00000001
,
00001000
00000000
00000100
00000000
,
00010000
00000000
00001000
00100000
,
00010000
00000000
01000000
00000000
,
00100000
00000000
10000000
00010000
,
01000000
00000000
00100000
00000000
,
00010000
00000000
00001000
00000000
,
00010000
00010000
00020000
00030000
,
00001000
00001000
00002000
00003000
,
00000100
00000000
00000001
00000000
,
00001000
00000000
00001000
00000000
,
00000001
00000000
00000001
00000000
,
00000010
00000000
00000010
00000000
,
00001000
00000000
00001000
00000000
,
00010000
00000000
00010000
00000000
,
02000000
00000000
03000000
00000000
,
00200000
00000000
00300000
00000000
,
00020000
00000000
00030000
00000000
,
20000000
00000000
30000000
00000000
,
01000000
00000000
01000000
00000000
,
00100000
00000000
00100000
00000000
,
00001000
00000000
00001000
00000000
,
00010000
00000000
00001000
00010000
,
00002000
00003000
00000100
00001000
,
00000200
00000300
00000001
00000100
,
00000001
00000010
00000000
00000100
,
00000000
00010000
00000100
00010000
,
00002000
00003000
00100000
00010000
,
00200000
00300000
01000000
10000000
,
00100000
10000000
00000000
01000000
,
00000000
00010000
00000000
00001000
,
00010000
00000000
00000100
00000000
,
00010000
00000000
00000100
00000000
,
00001000
00000000
00000001
00000000
,
00001000
00000000
00000001
00000000
,
00000010
00000000
00000100
00000000
,
00000010
00000000
00000100
00000000
,
00020000
00030000
00002000
00003000
,
00100000
00010000
01000000
00010000
,
10010000
00000000
00000000
00000000
;

//---------------dance-double - ----------------
#NOTES:
     dance-double:
     :
     Medium:
     6:
     :
00000000
00000000
00000000
00000000
,
00000000
00000000
00000000
00000000
,
00000000
00000000
00000000
00000000
,
00001001
00001000
00000001
00000001
00000200
00000000
00000310
00000000
,
00000110
00000010
00001000
00001000
00000200
00000000
00010300
00000000
,
00022000
00000000
00033000
00001000
02000000
00000000
03100000
00000000
,
02200000
00000000
00000000
00000000
03300000
00000000
00100000
00000000
10000000
00000000
00000000
00000000
00010000
00000000
10000000
01000000
,
10000000
10000000
01000000
01000000
,
00010000
00000000
00010000
00000000
00001000
00000000
00000000
00001000
,
00000100
00000100
00000001
00000001
,
00001000
00002000
00003002
00000023
,
00000230
00002300
00000001
00000001
,
00000010
00000010
00000100
00003100
,
00022000
00000000
00000000
00000000
,
00033000
00000000
00001000
00000000
00010000
00001000
00010000
00001000
,
00200000
00001000
00310000
00100000
,
00020000
00000000
00100000
00000000
10030000
00000000
00010000
01000000
,
00100000
10000000
00100000
01000000
,
00010000
10000000
00010000
00000000
,
00200000
00001000
00310000
00001000
,
00020000
00000000
00000100
00000000
00031000
00000000
00000100
00002000
,
00000000
00003010
00001000
00000001
,
00000010
00000100
00000010
00000000
,
00001000
00000000
00000001
00000000
00001000
00000000
00000100
00010000
,
00000000
00010000
00000100
00000000
00001000
00000000
00000010
00000000
,
00010000
00000000
00001000
00000000
00010000
00000000
00001000
01000000
,
00000000
01000000
00001000
00000000
00100000
00000000
00010000
00000000
,
10000000
00000000
00010000
00000000
10000000
00000000
00100000
01000000
,
00000000
01000000
00100000
00000000
10000000
00000000
00010000
00000000
,
00200000
00000000
00302000
00000000
,
00023000
00000100
00031000
00010000
,
00011000
00000000
00001000
00000000
00000100
00000000
00000000
00000001
,
00000000
00000100
00000000
00000010
00001000
00000000
00000001
00000000
,
00001000
00000000
00000100
00000000
00010000
00000000
00000000
00001000
,
00000000
01000000
00000000
00010000
00100000
00000000
01000000
00000000
,
10000000
00000000
00100000
00000000
01000000
00000000
00000000
00010000
,
00000000
10000000
00000000
00010000
00100000
00000000
00001000
00000000
,
00010000
00000000
00000010
00000000
00001000
00000000
00000000
00000001
,
00000000
00000010
00000000
00000001
00001000
00000000
00000010
00000000
,
00000220
00000000
00000000
00000000
,
00000000
00000000
00000330
00000000
,
00000001
00000000
00001000
00000000
00000100
00000000
00010000
00001000
,
00000000
00001000
00010000
00000000
00000010
00000000
00001000
00000000
,
00000100
00010000
00000000
00000100
00010000
00000000
00001000
00000000
,
01000000
00010000
00000000
01000000
00010000
00000000
00100000
00000000
,
01000000
10000000
00000000
01000000
10000000
00000000
00100000
00000000
,
01000000
00010000
00000000
01000000
00010000
00000000
00100000
00000000
,
00001000
00010000
00000000
00010000
00001000
00000100
00000000
00000100
,
00001000
00010000
00000000
00010000
01000000
00010000
00001000
00000000
,
00001000
00010000
00000000
00010000
00001000
00000010
00000000
00000010
,
00000001
00001000
00000010
00000100
,
00000001
00001000
00000000
00000001
00001000
00000000
00000100
00000000
,
00010000
00001000
00000000
00010000
00001000
00000000
01000000
00000000
,
00010000
10000000
00000000
00010000
10000000
00000000
01000000
00000000
,
00100000
00001000
00101000
00011000
,
00010020
00010000
00001030
00000010
,
00002000
00000000
00000010
00000000
00003001
00000000
00001000
00000100
,
00000010
00000001
00000010
00000100
,
00001000
00000001
00001000
00000000
,
00000020
00010000
00001000
00010030
,
00002000
00000000
01000000
00000000
00010000
00000000
01003000
00020000
,
00000000
00130000
00010000
10000000
,
00100000
01000000
00100000
00000000
,
00010000
00000000
10000000
00000000
00010000
00000000
01000000
00001000
,
00000000
00001000
01000000
00000000
00010000
00000000
00100000
00000000
,
00001000
00000000
00010000
00000000
00001000
00000000
00010000
00000100
,
00000000
00000100
00010000
00000000
00000010
00000000
00001000
00000000
,
00000001
00000000
00001000
00000000
00000001
00000000
00000010
00000100
,
00000000
00000100
00000010
00000000
00000001
00000000
00001000
00000000
,
00000020
00000000
00020030
00000000
,
00032000
01000000
00013000
00001000
,
00022000
00000000
00000000
00000000
,
00000000
00000000
00000000
00033000
;

//---------------dance-double - ----------------
#NOTES:
     dance-double:
     :
     Hard:
     9:
     :
00000000
00000000
00000000
00000000
,
00000000
00000000
00000000
00000000
,
00000000
00000000
00000000
00000000
,
00011000
00010000
01000000
10000000
00200000
01000000
02300000
00100000
,
03100000
01000000
00010000
00100000
00002000
00010000
00023000
00001000
,
00031000
00000100
00000001
00001000
00000100
00000010
00000002
00001000
,
00002003
00000000
00000001
00000000
00003001
00000000
00000100
00000000
00001000
00000000
00010000
00000000
00100000
00000000
01000000
00010000
,
10000000
10000000
00010000
00010000
,
10000000
10000000
00010000
00010000
,
00101000
00011000
00010100
00001100
,
00001001
00000200
00000302
00000023
,
00000130
00001000
00000010
00000001
00000010
00000100
00000001
00000100
,
00001000
00010000
01000000
10000000
01000000
00100000
10000000
00100000
,
00010000
01000000
00100000
10000000
01000000
00010000
00001000
00000100
,
00000001
00000010
00000100
00001000
00000010
00000010
00000010
00000010
,
00001001
00000000
00001100
00000000
00000001
00000100
00001000
00000100
,
00000010
00010000
00001000
00100000
00001000
00010000
01000000
10000000
,
10100000
00000000
01010000
00000000
10000000
00100000
00010000
00100000
,
01000000
00001000
00010000
00000100
00000010
00001000
00000010
00000001
,
00001001
00000000
00000011
00000000
00001000
00000010
00000001
00000010
,
00000100
00010000
00001000
01000000
00001000
00010000
00100000
10000000
,
11000000
00000000
00110000
00000000
10000000
01000000
00010000
01000000
,
00100000
00001000
00010000
00000010
00000100
00001000
00000100
00000001
,
00001000
00001100
00000001
00001100
,
00010000
00000000
00001100
00000000
00000100
00010000
00001000
01000000
,
00010000
01010000
10000000
01010000
,
00001000
00000000
01010000
00000000
01000000
00001000
00010000
00000100
,
00001000
00001100
00000001
00001100
,
00010000
00001100
00000001
00001100
,
00010000
00001000
00100000
00010000
01000000
10000000
01000000
00010000
,
00100000
00001000
00010000
00000100
00001100
00000000
00001010
00000000
,
00001001
00000000
00000100
00000000
00000001
00002000
00000000
00003200
,
00000000
00000320
00000000
00001030
00010000
00001000
00000010
00000000
,
00000100
00000000
00010000
00000000
00001000
02000000
00000000
03200000
,
00000000
00320000
00000000
00031000
00000100
00001000
00010000
00000000
,
00100000
00000000
01000000
00000000
00010000
00200000
00000000
02300000
,
00000000
03020000
00000000
01030000
10000000
01000000
00010000
00000000
,
00001000
00000000
00000100
00000000
00000010
00002000
00000000
00003020
,
00000000
00000230
00000000
00000310
00000001
00000010
00001000
00000000
,
00000001
00000000
00000010
00000000
00001000
00010000
00000000
00010000
,
00001000
00000000
00000100
00000000
00000001
00000020
00000000
00000000
,
00001030
00000000
00000110
00000000
00000001
00000000
00000100
00001000
,
00000000
00010000
00100000
00000000
10000000
00000000
10010000
00000000
,
00010000
00100000
00000000
01000000
10000000
00000000
01000000
00000000
,
00020000
00001000
00000000
00000100
00000000
00031000
00010000
00000000
,
00000100
00001000
00000000
00000001
00000010
00000000
00000100
00000000
,
00002000
00000010
00000000
00000001
00000000
00003010
00001000
00000000
,
00000100
00001000
00000010
00001000
00000100
00001000
00000010
00001000
,
00000100
00010000
00001000
01000000
00100000
01000000
00002000
00000000
,
00103000
00010000
01000000
00010000
00100000
00010000
01000000
00001000
,
00020000
00030020
00000230
00000302
,
00001003
00000100
00000000
00000010
00000001
00000000
00001000
00000000
,
00000001
00001000
00000100
00000010
00001000
00000000
00010000
00000000
,
00100000
10000000
00000000
00010000
01000000
00000000
00010000
00000000
,
00100000
01000000
10000000
00010000
10010000
00000000
01010000
00000000
,
11000000
00000000
00110000
00000000
10000000
01000000
00010000
01000000
,
00100000
00001000
00010000
00000010
00010000
00001000
00000100
00000001
,
00000011
00000000
00001100
00000000
00000001
00000010
00001000
00000010
,
00000100
00010000
00001000
01000000
00100000
00010000
00100000
10000000
,
10010000
00000000
01100000
00000000
00010000
00100000
10000000
00100000
,
01000000
00001000
00010000
00000100
00010000
00001000
00000010
00000001
,
00000101
00000000
00001010
00000000
00000001
00000100
00001000
00000100
,
00000010
00010000
00001000
00100000
01000000
00010000
01000000
10000000
,
00010000
01010000
00001000
00110000
,
10000000
00000000
01010000
00000000
00100000
00010000
00001000
00000100
,
00000010
00001010
00000001
00001100
,
00010000
00000000
00001010
00000000
00000100
00001000
00010000
00100000
,
01000000
01010000
10000000
00110000
,
00001000
01010000
10000000
00110000
,
00001000
00010000
00000010
00001000
00000100
00000001
00000100
00001000
,
00000010
00010000
00001000
01000000
01010000
00000000
10100000
00000000
,
20020000
00000000
00000000
00000000
,
00000000
00000000
00000000
00000000
,
30030000
00000000
00000000
00000000
;
