#TITLE:September '99;
#ARTIST:Earth, Wind & Fire vs. Phats & Small;
#BANNER:September '99.png;
#BACKGROUND:September '99-bg.png;
#CDTITLE:./CDTITLES/Dance Dance Revolution UNIVERSE.png;
#MUSIC:September '99.ogg;
#SAMPLESTART:15.891;
#SAMPLELENGTH:15;
#DISPLAYBPM:130;
#BPMS:0=129.88;

//---------------dance-single - ----------------
#NOTES:
     dance-single:
     :
     Beginner:
     1:
     :
0000
0000
0000
0000
,
0000
0000
0000
0000
,
0000
0000
0000
0000
,
0000
0000
0000
0000
,
0000
0000
0000
0000
,
0001
0000
0001
0000
,
1000
0000
1000
0000
,
1001
0000
0000
0000
,
0000
0000
0000
0000
,
0001
0000
0001
0000
,
1000
0000
1000
0000
,
0010
0000
0010
0000
,
0100
0000
0100
0000
,
0010
0000
0010
0000
,
1000
0000
0001
0000
,
2000
0000
0000
3000
,
0000
0000
0000
0000
,
0001
0000
0001
0000
,
1000
0000
1000
0000
,
0100
0000
0100
0000
,
0010
0000
0010
0000
,
0100
0000
0100
0000
,
1000
0000
0001
0000
,
2000
0000
0000
3000
,
0000
0000
0000
0000
,
0010
0000
0000
0000
,
0100
0000
0100
0000
,
0001
0000
0000
0000
,
1000
0000
1000
0000
,
0100
0000
0000
0000
,
0010
0000
0010
0000
,
0002
0000
0000
0003
,
0000
0000
0000
0000
,
1000
0000
1000
0000
,
0010
0000
0010
0000
,
0100
0000
0000
0000
,
0001
0000
0001
0000
,
1000
0000
0000
0000
,
0100
0000
0100
0000
,
0020
0000
0000
0030
,
0000
0000
0000
0000
,
0010
0000
0000
0000
,
1000
0000
0001
0000
,
1000
0000
0000
0000
,
0100
0000
0010
0000
,
0100
0000
0000
0000
,
0010
0000
0001
0000
,
0020
0000
0000
0030
,
0000
0000
0000
0000
,
0100
0000
0100
0000
,
0000
0000
1000
0000
,
0010
0000
0010
0000
,
0000
0000
0100
0000
,
0001
0000
0001
0000
,
0000
0000
1000
0000
,
0000
0001
0000
1000
,
0000
0001
0000
1000
,
1000
0000
0000
0000
;

//---------------dance-single - ----------------
#NOTES:
     dance-single:
     :
     Easy:
     2:
     :
0000
0000
0000
0000
,
0000
0000
0000
0000
,
0000
0000
0000
0000
,
0000
0000
0000
0000
,
0000
0000
0000
0000
,
1000
0000
0100
0000
,
0010
0000
0001
0000
,
2002
0000
0000
3003
,
1000
0001
1000
0001
,
1000
0000
0001
0000
,
1000
0001
1000
0000
,
0010
0000
0100
0000
,
0010
0100
0010
0000
,
0100
0000
0001
0000
,
1000
0100
0010
0000
,
0220
0000
0000
0330
,
0100
0010
0100
0010
,
0001
0000
0100
0000
,
0010
1000
0010
0000
,
1000
0000
0100
0000
,
0010
0001
0010
0000
,
0100
0000
1000
0000
,
0010
0100
0010
0000
,
0220
0000
0000
0330
,
0100
0001
0010
0100
,
2000
3000
0002
0003
,
0100
0010
1000
1000
,
0002
0003
2000
3000
,
0100
0010
0001
0001
,
0200
0300
0020
0030
,
0100
0100
0010
0010
,
2000
3000
0002
0003
,
1000
1000
0001
0001
,
1000
0000
0100
0000
,
0001
0100
1000
0000
,
0001
0000
0100
0000
,
1000
0100
0001
0000
,
0010
0000
0100
0000
,
1000
0001
0100
0010
,
0200
0000
0000
0300
,
0010
0010
0100
0100
,
0002
0003
2000
3000
,
0010
0100
0001
0001
,
2000
3000
0002
0003
,
0010
0100
1000
1000
,
0020
0030
0200
0300
,
0010
0010
0100
0100
,
0002
0003
2000
3000
,
0001
0001
1000
1000
,
0100
0010
0002
0003
,
1000
0000
0001
0000
,
0100
0010
2000
3000
,
0001
0000
1000
0000
,
0100
1000
0020
0030
,
0000
0100
0000
0001
,
0001
1000
0001
1000
,
0100
0010
0100
0010
,
0110
0000
0000
0000
;

//---------------dance-single - ----------------
#NOTES:
     dance-single:
     :
     Medium:
     5:
     :
0000
0000
0000
0000
,
0000
0000
0000
0000
,
0000
0000
0000
0000
,
0000
0000
0000
0000
,
0000
0000
0000
0000
,
1000
0010
1000
0100
,
0010
0000
0001
0000
0100
0000
0001
0020
,
0100
0100
0100
0100
,
0130
0010
0100
0010
,
0001
1000
0010
0100
,
0001
1000
0001
1000
,
0001
0100
0010
1000
,
0100
0010
0100
0010
,
0001
0100
1000
0100
,
0010
0000
0100
0000
0010
0000
1000
0002
,
0100
0100
0100
0103
,
0001
0100
0001
0100
,
0010
1000
0100
1000
,
0010
0100
0010
0100
,
0001
0010
0100
0010
,
0001
1000
0001
1000
,
0010
0100
0001
1000
,
0100
0000
0010
0000
0100
0000
0010
0002
,
0100
0100
0100
0103
,
0001
0020
0000
0230
0000
1300
0100
0000
,
0010
0001
1000
1001
,
0010
0200
0001
1300
,
0100
0010
1000
1001
,
0100
0020
0001
1030
,
0010
0001
0100
1001
,
0001
0000
0010
0000
0100
0000
0010
0100
,
2000
0001
0100
0001
,
3200
0000
0010
0000
1000
1000
1300
0000
,
0010
0001
0100
0010
,
1000
0100
1000
0100
,
0010
0001
1000
0010
,
0100
0001
0100
0001
,
0010
0100
1000
0001
,
0100
0000
0010
0000
0100
0000
0010
2000
,
0100
0100
0100
3100
,
1000
0020
0000
0230
0000
0301
0100
0000
,
0010
1000
0001
1001
,
0100
2000
0010
3001
,
0100
0001
1000
1001
,
0010
0002
0100
1003
,
0010
1000
0001
1001
,
0100
0000
1000
0000
0010
0000
0100
0001
,
2000
0010
0001
0010
,
3002
0000
0100
0000
1000
1000
1003
0000
,
2000
0000
3002
0000
,
0013
1000
0010
0001
,
0200
0000
0320
0000
,
1030
0100
0001
0100
,
2000
0000
3002
0000
,
1003
0000
0001
0000
1000
0000
0001
0200
,
0010
0001
0010
0001
,
0320
1000
0100
1030
,
1001
0000
0000
0000
;

//---------------dance-single - ----------------
#NOTES:
     dance-single:
     :
     Hard:
     8:
     :
0000
0000
0000
0000
,
0000
0000
0000
0000
,
0000
0000
0000
0000
,
0000
0000
0000
0000
,
0000
0000
0000
0000
,
0001
0010
0100
1000
,
0010
0000
0100
0000
0001
0000
1000
0200
,
0001
0010
2300
3002
,
1003
0001
1000
0001
1000
0010
0100
0001
,
1000
0200
0010
0000
0001
0000
0310
0000
,
1000
0001
0100
0001
0010
0000
0001
0100
,
0001
0020
0100
0000
1000
0000
0130
0000
,
0001
0010
0100
1000
0001
0000
1000
0010
,
0100
0002
0010
0000
1000
0000
0013
0100
,
1000
0001
0100
0010
0001
0000
0010
1000
,
0200
0302
0203
2300
,
3001
0100
1000
0100
0001
0010
1000
0010
,
0001
2000
0100
0000
0001
0000
3010
0000
,
0100
1000
0001
1000
0010
0000
1000
0100
,
1000
0002
0100
0000
1000
0000
0013
0000
,
0100
0001
1000
0001
0010
0000
0001
0100
,
0010
2000
0100
0000
0010
0000
3001
0100
,
0001
0010
0100
1000
0010
0000
0100
0001
,
0020
2030
3020
0032
,
1003
0010
0001
0010
1000
0100
0010
0001
,
1000
0000
0010
1000
0100
0000
1001
0000
,
0010
0100
0010
0001
2000
0000
3002
0000
,
1003
0000
0100
0001
0010
0000
1001
0000
,
0100
0010
0100
1000
0002
0000
2003
0000
,
3010
0000
0100
0001
0010
0000
1001
0000
,
0010
0100
1000
0001
0200
0000
0301
0020
,
0000
0130
1000
0200
0000
0310
0001
0020
,
0000
0130
1000
0010
0001
0010
1000
0100
,
0010
0001
1000
0001
0000
0100
0010
1000
,
0010
0000
0100
0001
0000
0010
0100
1000
,
0100
0010
0001
0100
0000
0010
0100
0001
,
0000
0010
0100
1000
0000
0010
1000
0100
,
0010
0001
0100
0001
0000
1000
0100
0000
,
0010
0001
0010
0100
1000
0000
0001
1000
,
0002
0203
2300
3200
,
0301
0010
1000
0010
0001
0100
1000
0100
,
0001
0000
0100
0001
0010
0000
1001
0000
,
0100
0010
0100
1000
0010
0100
0002
0000
,
1003
0000
0010
1000
0100
0000
1001
0000
,
0010
0100
0010
0001
0100
0010
2000
0000
,
3001
0000
1000
0010
0100
0000
1010
0000
,
0001
0100
0001
1000
0020
0000
0130
0002
,
0000
1003
0100
2000
0000
3001
0100
0002
,
0000
1003
0100
0001
0100
1000
1001
0000
,
0200
0000
0310
1000
0200
0000
0310
2000
,
0000
3010
0001
0100
0020
0000
0031
0010
,
2000
0000
3001
0010
0200
0000
0302
0000
,
0003
0100
1000
0010
0200
0000
1300
0100
,
0002
0000
0013
0100
2000
0000
3002
0000
,
0003
1000
0100
0020
0000
0030
0001
0020
,
0000
0130
1000
0200
0000
0310
0001
0020
,
0000
1030
0010
0001
0100
1000
0100
0001
,
1001
0000
0000
0000
;

//---------------dance-double - ----------------
#NOTES:
     dance-double:
     :
     Beginner:
     1:
     :
00000000
00000000
00000000
00000000
,
00000000
00000000
00000000
00000000
,
00000000
00000000
00000000
00000000
,
00000000
00000000
00000000
00000000
,
00000000
00000000
00000000
00000000
,
00001000
00000000
00010000
00000000
,
00001000
00000000
00010000
00000000
,
00011000
00000000
00000000
00000000
,
00000000
00000000
00000000
00000000
,
00000100
00000000
00000100
00000000
,
00000001
00000000
00000001
00000000
,
00000010
00000000
00000010
00000000
,
00001000
00000000
00001000
00000000
,
00010000
00000000
00010000
00000000
,
00100000
00000000
01000000
00000000
,
00200000
00000000
00000000
00300000
,
00000000
00000000
00000000
00000000
,
00100000
00000000
00100000
00000000
,
10000000
00000000
10000000
00000000
,
01000000
00000000
01000000
00000000
,
00010000
00000000
00010000
00000000
,
00001000
00000000
00001000
00000000
,
00000100
00000000
00000010
00000000
,
00000200
00000000
00000000
00000300
,
00000000
00000000
00000000
00000000
,
00000001
00000000
00000000
00000000
,
00001000
00000000
00001000
00000000
,
00000100
00000000
00000000
00000000
,
00010000
00000000
00010000
00000000
,
00001000
00000000
00000000
00000000
,
01000000
00000000
01000000
00000000
,
00020000
00000000
00000000
00030000
,
00000000
00000000
00000000
00000000
,
00100000
00000000
00100000
00000000
,
01000000
00000000
01000000
00000000
,
10000000
00000000
00000000
00000000
,
01000000
00000000
01000000
00000000
,
00010000
00000000
00000000
00000000
,
00001000
00000000
00001000
00000000
,
00000200
00000000
00000000
00000300
,
00000000
00000000
00000000
00000000
,
00000001
00000000
00000000
00000000
,
00000010
00000000
00000100
00000000
,
00000010
00000000
00000000
00000000
,
00001000
00000000
00010000
00000000
,
00001000
00000000
00000000
00000000
,
00100000
00000000
01000000
00000000
,
00200000
00000000
00000000
00300000
,
00000000
00000000
00000000
00000000
,
10000000
00000000
00010000
00000000
,
00000000
00000000
01000000
00000000
,
00100000
00000000
00010000
00000000
,
00000000
00000000
00001000
00000000
,
00000100
00000000
00000010
00000000
,
00000000
00000000
00001000
00000000
,
00000100
00000000
00010000
00000000
,
00001000
00000000
00010000
00000000
,
00011000
00000000
00000000
00000000
;

//---------------dance-double - ----------------
#NOTES:
     dance-double:
     :
     Easy:
     3:
     :
00000000
00000000
00000000
00000000
,
00000000
00000000
00000000
00000000
,
00000000
00000000
00000000
00000000
,
00000000
00000000
00000000
00000000
,
00000000
00000000
00000000
00000000
,
10000000
00000000
01000000
00000000
,
00010000
00000000
00001000
00000000
,
00022000
00000000
00000000
00033000
,
00001000
00010000
00001000
00010000
,
00001000
00000000
00000100
00000000
,
00000010
00000100
00000001
00000000
,
00000010
00000000
00000001
00000000
,
00000010
00000100
00001000
00000000
,
00000100
00000000
00010000
00000000
,
00001000
00100000
00010000
00000000
,
02000000
00000000
00000000
03000000
,
00100000
10000000
00100000
10000000
,
00010000
00000000
00100000
00000000
,
10000000
00100000
00010000
00000000
,
01000000
00000000
00001000
00000000
,
00010000
00001000
00000100
00000000
,
00000001
00000000
00000010
00000000
,
00001000
00000010
00000001
00000000
,
00002002
00000000
00000000
00003003
,
00001000
00000100
00010000
00001000
,
00010000
00001000
00001000
00000000
,
00100000
00010000
01000000
00010000
,
00100000
01000000
01000000
00000000
,
10000000
00100000
01000000
00100000
,
10000000
01000000
01000000
00000000
,
10000000
01000000
00010000
00001000
,
00020000
00030000
00002000
00003000
,
00010000
00010000
00001000
00001000
,
00000100
00000000
00000010
00000000
,
00000001
00000010
00001000
00000000
,
00000100
00000000
00010000
00000000
,
00001000
00010000
00100000
00000000
,
10000000
00000000
01000000
00000000
,
00010000
01000000
10000000
00000000
,
20020000
00000000
00000000
30030000
,
00100000
10000000
00010000
01000000
,
00001000
00010000
00010000
00000000
,
00000100
00001000
00000010
00001000
,
00000100
00000010
00000010
00000000
,
00000001
00000100
00000001
00001000
,
00000100
00010000
00010000
00000000
,
00001000
00010000
00001000
00100000
,
00020000
00030000
20000000
30000000
,
00010000
00010000
10000000
10000000
,
00200000
00300000
02000000
03000000
,
00100000
01000000
00100000
00000000
,
00020000
00030000
00002000
00003000
,
00010000
00001000
00010000
00000000
,
00000200
00000300
00000020
00000030
,
00000000
00000001
00000000
00001000
,
00001000
00000100
00001000
00000100
,
00010000
00001000
00010000
00001000
,
00011000
00000000
00000000
00000000
;

//---------------dance-double - ----------------
#NOTES:
     dance-double:
     :
     Medium:
     5:
     :
00000000
00000000
00000000
00000000
,
00000000
00000000
00000000
00000000
,
00000000
00000000
00000000
00000000
,
00000000
00000000
00000000
00000000
,
00000000
00000000
00000000
00000000
,
00100000
00010000
01000000
00100000
,
10000000
00000000
01000000
00000000
00010000
00000000
00001000
00020000
,
00001000
00001000
00001000
00031000
,
00010000
00000100
00001000
00000010
,
00000100
00000001
00000100
00000001
,
00001000
00000100
00010000
00001000
,
01000000
00010000
01000000
00010000
,
00100000
01000000
10000000
00010000
,
01000000
00100000
01000000
00100000
,
00010000
00000000
00001000
00000000
00000100
00000000
00000010
00002000
,
00000001
00000001
00000001
00003001
,
00000010
00001000
00000100
00000001
,
00001000
00000100
00001000
00000100
,
00010000
00001000
00100000
00010000
,
10000000
00100000
10000000
00100000
,
01000000
00010000
00100000
00001000
,
00010000
00000100
00010000
00000100
,
00001000
00000000
00000010
00000000
00000100
00000000
00000001
00000020
,
00000100
00000100
00000100
00000130
,
00010000
00002000
00000000
00023000
00000000
00031000
00010000
00000000
,
00100000
01000000
00010000
00110000
,
00100000
02000000
00100000
13000000
,
01000000
10000000
00100000
01100000
,
01000000
00020000
10000000
00130000
,
00001000
00010000
00000100
00001100
,
00001000
00000000
00000010
00000000
00000100
00000000
00000001
00000020
,
00000100
00000001
00000100
00000031
,
00002000
00000000
00000010
00000000
00000001
00000001
00003001
00000000
,
00001000
00000010
00001000
00000010
,
00010000
00001000
01000000
00010000
,
10000000
01000000
10000000
01000000
,
00100000
00010000
01000000
00001000
,
00010000
00000010
00010000
00000010
,
00001000
00000000
00000100
00000000
00000010
00000000
00000001
00000200
,
00000010
00000010
00000010
00000310
,
00010000
00002000
00000000
00023000
00000000
00031000
00010000
00000000
,
01000000
10000000
00100000
10100000
,
01000000
00020000
00100000
10030000
,
00010000
00100000
00010000
01010000
,
00100000
20000000
01000000
30010000
,
00100000
00001000
00010000
00011000
,
00001000
00000000
00000100
00000000
00000001
00000000
00000010
00000200
,
00001000
00000010
00001000
00000310
,
00000002
00000000
00000010
00000000
00001000
00001000
00001003
00000000
,
00002000
00000000
00003200
00000000
,
00010300
00001000
01000000
00100000
,
20000000
00000000
30020000
00000000
,
10030000
01000000
00100000
00010000
,
02000000
00000000
03020000
00000000
,
00130000
00000000
00001000
00000000
00010000
00000000
00000100
00002000
,
00000010
00000001
00000010
00003001
,
00000020
00001000
00000100
00001030
,
00001001
00000000
00000000
00000000
;

//---------------dance-double - ----------------
#NOTES:
     dance-double:
     :
     Hard:
     8:
     :
00000000
00000000
00000000
00000000
,
00000000
00000000
00000000
00000000
,
00000000
00000000
00000000
00000000
,
00000000
00000000
00000000
00000000
,
00000000
00000000
00000000
00000000
,
10000000
01000000
00010000
00001000
,
00010000
00000000
00001000
00000000
00000100
00000000
00000001
00000010
,
00000000
00001001
00000110
00001001
,
00000100
00000010
00000100
00000010
00000100
00001000
00010000
01000000
,
10000000
02000000
00100000
00000000
10000000
00000000
03100000
00000000
,
00010000
00100000
00001000
00010000
00000010
00001000
00000100
00000001
,
00000200
00000000
00001000
00000000
00000001
00000000
00001300
00000010
,
00001000
00000100
00010000
00001000
00100000
00000000
00010000
01000000
,
00200000
00000000
10000000
00000000
01000000
00000000
10300000
00100000
,
01000000
00010000
10000000
00010000
00000000
00000000
00100000
00001000
,
00000000
00010100
00101000
00010100
,
00001000
00000100
00010000
00001000
00100000
00001000
00010000
00000100
,
00001000
00000020
00000100
00000000
00001000
00000000
00000130
00000000
,
00000001
00000100
00000010
00001000
00000100
00010000
00001000
01000000
,
00010000
00200000
01000000
00000000
00010000
00000000
01300000
00000000
,
10000000
01000000
00100000
00010000
01000000
00001000
00010000
00000010
,
00001000
00000200
00000010
00000000
00001000
00000000
00000310
00000100
,
00001000
00000010
00010000
00001000
00100000
00000000
00010000
10000000
,
10010000
01100000
10010000
01100000
,
00010000
00002000
00000000
00023000
00000000
00031000
00000100
00000000
,
00000110
00000000
00000001
00001000
00000000
00000100
00000010
00000100
,
00001000
00000010
00001000
00000100
00020000
00000000
00031000
00000000
,
00011000
00000000
00001000
00100000
00000000
00010000
01000000
00001000
,
00010000
00001000
01000000
00010000
00100000
00000000
01000000
00000000
,
10010000
00000000
01000000
10000000
00000000
00100000
10000000
00010000
,
00100000
00010000
10000000
00100000
00020000
00000000
00031000
00000100
,
00000001
00001100
00000101
00001100
,
00000001
00000100
00001000
00000100
00000001
00000010
00001000
00010000
,
00001000
00011000
00000000
00101000
00000000
00011000
00001000
00010000
,
01000000
10000000
00010000
10000000
00000000
00100000
00010000
00001000
,
00010000
00011000
00000000
00010010
00000000
00011000
00010000
00001000
,
00000100
00000001
00001000
00000001
00000000
00000010
00001000
00010000
,
00000000
00101000
00000000
00010100
00000000
00101000
00000000
00010000
,
00001000
00100000
00010000
01000000
00000000
00010000
00100000
00010000
,
11000000
01010000
11000000
01010000
,
00010000
00002000
00000000
00023000
00000000
00031000
00000010
00000000
,
00000110
00000000
00000001
00001000
00000000
00000010
00000100
00000010
,
00001000
00000100
00001000
00000010
00020000
00000000
00031000
00000000
,
00011000
00000000
00001000
01000000
00000000
00010000
00100000
00001000
,
00010000
00001000
00100000
00010000
01000000
00000000
00100000
00000000
,
10010000
00000000
00100000
10000000
00000000
01000000
10000000
00010000
,
01000000
00010000
10000000
01000000
00020000
00000000
00031000
00000010
,
00000001
00001010
00000011
00001010
,
00000100
00001000
00000010
00000100
00000001
00001000
00001001
00000000
,
00001000
00000000
00000001
00000100
00001000
00000000
00010000
00001000
,
00000000
00000100
00001000
00010000
00100000
00000000
10000000
00100000
,
00010000
00000000
00001000
00000010
00001000
00000000
00010000
00000000
,
00000000
01000000
00010000
00001000
00000010
00000000
00000001
00000010
,
00001000
00000000
00010000
01000000
00010000
00000000
00001000
00000000
,
00000000
00000100
00001000
00010000
00000000
00100000
00010000
00001000
,
00000100
00000010
00001000
00000010
00000000
00010000
00001000
00010000
,
00000000
00000100
00001000
00000100
00010000
00001000
01000000
00010000
,
10010000
00000000
00000000
00000000
;
