#TITLE:Run It!;
#ARTIST:Chris Brown;
#BANNER:Run It!.png;
#BACKGROUND:Run It!-bg.png;
#CDTITLE:./CDTITLES/Dance Dance Revolution UNIVERSE.png;
#MUSIC:Run It!.ogg;
#SAMPLESTART:11.875;
#SAMPLELENGTH:15;
#DISPLAYBPM:100;
#BPMS:0=101;

//---------------dance-single - ----------------
#NOTES:
     dance-single:
     :
     Beginner:
     1:
     :
0000
0000
0000
0000
,
0000
0000
0000
0000
,
0000
0000
0000
0000
,
0000
0000
0000
0000
,
1000
0000
0000
0000
,
1001
0000
0000
0000
,
0001
0000
0000
0000
,
1000
1000
0000
0000
,
1000
0000
0000
0000
,
0010
0010
0000
0000
,
0100
0000
0000
0000
,
0010
0010
0000
0000
,
0010
0010
0000
0000
,
2000
0000
0000
3000
,
1000
0000
0000
0000
,
0002
0000
0000
0003
,
0001
0000
0000
0000
,
1000
0000
1000
0000
,
1000
0000
1000
0000
,
0002
0000
0000
0003
,
0001
0000
0000
0000
,
0100
0000
0000
0000
,
0100
0000
0000
0000
,
0010
0000
0000
0000
,
0010
0000
0000
0000
,
1000
0000
0000
0000
,
1000
0000
0000
0000
,
0001
0000
0000
0000
,
0001
0000
0000
0000
,
0100
0000
0100
0000
,
0100
0000
0100
0000
,
0020
0000
0000
0030
,
0010
0000
0000
0000
,
1000
0000
1000
0000
,
1000
0000
1000
0000
,
0002
0000
0000
0003
,
0001
0000
0000
0000
,
1000
0000
0000
0000
,
0100
0000
0000
0000
,
0010
0000
0000
0000
,
0001
0000
0000
0000
,
1001
0000
0000
0000
;

//---------------dance-single - ----------------
#NOTES:
     dance-single:
     :
     Easy:
     2:
     :
0000
0000
0000
0000
,
0000
0000
0000
0000
,
0000
0000
0000
0000
,
0000
0000
0000
0000
,
0100
0000
0000
0000
,
0110
0010
0000
0000
,
1000
1000
0000
0000
,
0100
0100
0000
0000
,
0110
0000
0000
0000
,
0010
0100
0000
0000
,
0100
0010
0000
0000
,
1000
0001
1000
0000
,
0001
1000
0001
0000
,
0002
0000
0000
0003
,
2000
0000
0000
3000
,
0002
0000
0000
0003
,
0100
0100
0010
0010
,
0001
0000
0100
0000
,
0001
0000
1000
0000
,
1000
0200
0000
0300
,
0001
0200
0000
0300
,
0002
0000
0003
0000
,
2000
0000
3000
0000
,
0200
0000
0300
0000
,
0020
0000
0030
0000
,
2000
3000
0200
0300
,
0020
0030
0002
0003
,
0002
0003
0200
0300
,
0020
0030
2000
3000
,
1001
0000
0010
0000
,
1001
0000
0100
0000
,
0001
0020
0000
0030
,
1000
0020
0000
0030
,
1001
0000
0010
0000
,
1001
0000
0100
0000
,
1000
0200
0000
0300
,
0001
0200
0000
0300
,
1000
0000
0001
0000
,
0100
0000
0010
0000
,
0100
0000
0010
0000
,
1000
0000
0001
0000
,
1001
0000
0000
0000
;

//---------------dance-single - ----------------
#NOTES:
     dance-single:
     :
     Medium:
     5:
     :
0000
0000
0000
0000
,
0000
0000
0000
0000
,
0000
0000
0000
0000
,
0000
0000
0000
0000
,
0110
0000
0000
0000
,
1001
0100
1000
0100
,
0001
0100
0010
0000
,
0001
0000
0100
0000
0010
0100
0010
0000
,
2000
3002
0203
0310
,
0110
0000
1000
0000
0100
0010
0100
0000
,
0001
0100
0001
0000
,
1000
0000
0010
0000
1000
0010
1000
0000
,
0001
0000
0010
0000
0001
0010
0001
0000
,
1000
0001
0100
1001
,
0001
1000
0010
1001
,
0100
0010
1000
0110
,
0001
0100
1000
0010
,
0110
0001
0010
0110
,
1000
0110
0001
0000
,
0100
0000
0001
1000
0001
1000
0001
0000
,
1000
0000
0010
0100
0010
0100
0010
0000
,
2000
3100
2000
3100
,
0020
0031
0020
0031
,
0200
0301
0200
0301
,
0020
1030
0020
1030
,
0002
0000
0103
0000
0001
0100
0001
0000
,
2000
0000
3100
0000
1000
0100
1000
0000
,
0010
0001
0010
0000
0010
0001
0010
0000
,
1000
0100
1000
0000
1000
0100
1000
0000
,
1001
0010
0001
1001
,
0100
1001
0010
0000
,
1000
0000
0100
1000
0100
1000
0100
0000
,
0001
0000
0100
0001
0100
0001
0100
0000
,
0110
0001
0010
0110
,
1000
0110
0001
0000
,
0100
0000
0001
1000
0001
1000
0001
0000
,
1000
0000
0010
0100
0010
0100
0010
0000
,
0001
0000
0100
0000
0001
0001
0100
0000
,
0010
1000
0010
1000
,
0001
0000
0100
0000
0001
0001
0100
0000
,
0010
0000
1000
0000
0001
0001
1000
0000
,
1001
0000
0000
0000
;

//---------------dance-single - ----------------
#NOTES:
     dance-single:
     :
     Hard:
     8:
     :
0000
0000
0000
0000
,
0000
0000
0000
0000
,
0000
0000
0000
0000
,
0000
0000
0000
0000
,
0220
0000
0000
0330
,
2001
0000
0000
0000
3010
0000
0100
0001
0000
0000
0100
0000
0010
0000
1000
0000
,
0002
0000
0000
0000
0013
0000
0100
1000
0000
0000
0100
0000
0010
0000
0001
0000
,
1000
0001
1000
0000
0001
0000
0100
0000
0010
0000
0100
0000
0001
1000
0001
0000
,
1000
0000
0100
0000
0010
0100
1000
0000
0001
0000
0010
0000
0100
0000
1000
0000
,
1002
0000
0000
0000
0103
0000
0010
1000
0000
0000
0010
0000
0100
0000
0001
0000
,
2001
0000
0000
0000
3100
0000
0010
0001
0000
0000
0010
0000
0100
0000
1000
0010
,
1000
0000
0001
0100
0001
0000
0100
0000
0010
0000
1000
0000
0001
0100
0010
0000
,
1000
0000
0001
0000
0010
0100
0010
0000
0002
0000
0000
0000
1003
0000
0001
0000
,
0100
0010
0000
1010
0000
1000
0000
0001
0000
0012
0000
0000
0103
0000
0000
0000
,
0010
0100
0000
0101
0000
0001
0000
1000
0000
2100
0000
0000
3010
0000
0000
0000
,
1000
0100
0000
1100
0000
1000
0000
0001
0000
0021
0000
0000
0130
0000
0000
1000
,
0001
0000
0100
0000
0100
0000
0010
0000
0010
0000
1000
0001
1000
0000
0100
1000
,
0100
0000
0000
0000
1001
0000
0100
0001
0100
0000
0000
0000
1001
0000
0010
0001
,
0010
0000
0000
0000
1001
0000
0010
1000
0020
0000
0000
0000
0130
0000
0001
0010
,
0100
0000
1000
0000
0001
0000
0110
0000
1000
0000
0110
0000
0001
0000
1000
0010
,
0100
0000
0001
0000
1000
0000
0110
0000
0001
0000
0110
0000
1000
0000
0001
0010
,
0100
0000
1000
0000
0010
0000
0200
0000
0000
0000
0320
0000
0000
0000
1030
0001
,
0010
0000
0001
0000
0100
0000
0020
0000
0000
0000
0230
0000
0000
0000
0301
1000
,
0100
1000
1000
0001
0001
0020
0000
2030
,
0000
3010
0001
0100
0010
1000
0101
1100
,
0000
0000
0010
1000
0001
0000
0100
0001
1000
0000
0100
0000
0001
0000
0100
0000
,
1000
0000
2000
0000
0001
0000
3002
0000
0000
0000
0103
0000
0010
0000
1000
0001
,
0010
0100
0010
0001
1000
0100
0010
0100
,
1000
1000
0001
0001
1010
0000
0101
0000
,
1001
0000
0000
0000
1000
0000
0100
1000
0020
0000
0000
0000
0031
0000
0010
1000
,
0200
0000
0000
0000
0301
0000
0100
1000
0002
0000
0000
0000
0013
0000
0001
0100
,
0010
0000
1000
0000
0001
0000
1100
0000
1000
0000
0101
0000
0001
0000
0010
0001
,
0100
0000
0010
0000
1000
0000
0011
0000
0001
0000
1010
0000
1000
0000
0100
0010
,
0100
0000
1000
0000
0001
0000
0100
0010
0100
0000
0001
0000
1000
0000
0001
0100
,
1000
0000
0100
0000
0001
0000
1000
0100
0001
0000
0100
0000
1000
0000
0001
1000
,
0010
0000
0100
0000
0010
0000
1001
0000
0100
0000
1001
0000
0010
0000
0100
1000
,
0001
0010
0100
1001
0100
1001
0010
0100
,
1002
0000
0000
0000
0103
0000
0001
0020
0000
0000
0230
0000
0000
0000
0010
0000
,
2300
0000
0000
0000
3010
0000
1000
0002
0000
0000
0203
0000
0000
0000
0010
0000
,
0302
0000
0000
0000
0013
0000
0001
0200
0000
0000
0320
0000
0000
0000
0001
0000
,
2030
0000
0000
0000
3100
0000
0010
0200
0000
0000
2300
0000
0000
0000
3001
0000
,
1001
0000
0000
0000
;

//---------------dance-double - ----------------
#NOTES:
     dance-double:
     :
     Beginner:
     1:
     :
00000000
00000000
00000000
00000000
,
00000000
00000000
00000000
00000000
,
00000000
00000000
00000000
00000000
,
00000000
00000000
00000000
00000000
,
00001000
00000000
00000000
00000000
,
00011000
00000000
00000000
00000000
,
00010000
00000000
00000000
00000000
,
00001000
00001000
00000000
00000000
,
00001000
00000000
00000000
00000000
,
00000010
00000010
00000000
00000000
,
00000100
00000000
00000000
00000000
,
00000001
00000001
00000000
00000000
,
00001000
00001000
00000000
00000000
,
00000200
00000000
00000000
00000300
,
00000100
00000000
00000000
00000000
,
00020000
00000000
00000000
00030000
,
00010000
00000000
00000000
00000000
,
00001000
00000000
00001000
00000000
,
00001000
00000000
00001000
00000000
,
00200000
00000000
00000000
00300000
,
00100000
00000000
00000000
00000000
,
01000000
00000000
00000000
00000000
,
01000000
00000000
00000000
00000000
,
00100000
00000000
00000000
00000000
,
00100000
00000000
00000000
00000000
,
00010000
00000000
00000000
00000000
,
00010000
00000000
00000000
00000000
,
10000000
00000000
00000000
00000000
,
10000000
00000000
00000000
00000000
,
01000000
00000000
01000000
00000000
,
01000000
00000000
01000000
00000000
,
00200000
00000000
00000000
00300000
,
00100000
00000000
00000000
00000000
,
00001000
00000000
00001000
00000000
,
00001000
00000000
00001000
00000000
,
00020000
00000000
00000000
00030000
,
00010000
00000000
00000000
00000000
,
00000100
00000000
00000000
00000000
,
00000010
00000000
00000000
00000000
,
00000001
00000000
00000000
00000000
,
00001000
00000000
00000000
00000000
,
00001001
00000000
00000000
00000000
;

//---------------dance-double - ----------------
#NOTES:
     dance-double:
     :
     Easy:
     2:
     :
00000000
00000000
00000000
00000000
,
00000000
00000000
00000000
00000000
,
00000000
00000000
00000000
00000000
,
00000000
00000000
00000000
00000000
,
01000000
00000000
00000000
00000000
,
01100000
00100000
00000000
10000000
,
00000000
10000000
00000000
00010000
,
01000000
01000000
00001000
00000000
,
00020000
00000000
00000000
00030000
,
00001000
00010000
00000000
00000010
,
00000010
00001000
00000000
00000001
,
00001000
00000001
00001000
00000000
,
00000010
00000100
00000010
00000000
,
00002000
00000000
00000000
00003000
,
00000200
00000000
00000000
00000300
,
00020000
00000000
00000000
00030000
,
00001000
00001000
00010000
00010000
,
00001000
00000000
00100000
00000000
,
00010000
00000000
10000000
00000000
,
10000000
02000000
00000000
03000000
,
10000000
02000000
00000000
03000000
,
00010000
00002000
00000000
00003000
,
00010000
00000020
00000000
00000030
,
00001000
00000002
00000000
00000003
,
00000100
00000020
00000000
00000030
,
00002000
00003000
00000002
00000003
,
00000200
00000300
00002000
00003000
,
00020000
00030000
00002000
00003000
,
00200000
00300000
00020000
00030000
,
10000000
00000000
01000000
00000000
,
00100000
00000000
00010000
00000000
,
01000000
00002000
00000000
00003000
,
00010000
00002000
00000000
00003000
,
00010000
00000000
00000010
00000000
,
00001000
00000000
00000001
00000000
,
00000100
00002000
00000000
00003000
,
00010000
00002000
00000000
00003000
,
00010000
00001000
00000000
00001000
,
00100000
00010000
00000000
01000000
,
00100000
10000000
00000000
10000000
,
10000000
01000000
00000000
00100000
,
10010000
00000000
00000000
00000000
;

//---------------dance-double - ----------------
#NOTES:
     dance-double:
     :
     Medium:
     5:
     :
00000000
00000000
00000000
00000000
,
00000000
00000000
00000000
00000000
,
00000000
00000000
00000000
00000000
,
00000000
00000000
00000000
00000000
,
01100000
00000000
00000000
00000000
,
10010000
01000000
10000000
01000000
,
00010000
00001000
00010000
00000000
,
00001000
00000000
00010000
00000000
00000010
00001000
00000010
00000000
,
00002000
00003002
00000203
00000310
,
00000110
00000000
00001000
00000000
00000100
00001000
00000100
00000000
,
00010000
00001000
00010000
00000000
,
00100000
00000000
00010000
00000000
01000000
00010000
01000000
00000000
,
00100000
00000000
10000000
00000000
01000000
10000000
01000000
00000000
,
00100000
00010000
01000000
10010000
,
00001000
00010000
00001000
00011000
,
00001000
00000001
00001000
00001001
,
00000010
00001000
00000001
00000100
,
00000110
00001000
00010000
00011000
,
00001000
00011000
00010000
00000000
,
00100000
00000000
00010000
01000000
00010000
01000000
00010000
00000000
,
00100000
00000000
01000000
10000000
01000000
10000000
01000000
00000000
,
00200000
01300000
00200000
01300000
,
00020000
00031000
00020000
00031000
,
00000200
00000310
00000200
00000310
,
00002000
00003100
00002000
00003100
,
00000002
00000000
00000103
00000000
00001000
00000100
00001000
00000000
,
00020000
00000000
00031000
00000000
00010000
00001000
00010000
00000000
,
00100000
00010000
00100000
00000000
00100000
00010000
00100000
00000000
,
10000000
00100000
10000000
00000000
10000000
00100000
10000000
00000000
,
10010000
10000000
00010000
00011000
,
00001000
00011000
00010000
00000000
,
00001000
00000000
00000100
00001000
00000100
00001000
00000100
00000000
,
00001000
00000000
00000001
00000100
00000001
00000100
00000001
00000000
,
00001001
00000001
00001000
00011000
,
00010000
00011000
00001000
00000000
,
00010000
00000000
01000000
00010000
01000000
00010000
01000000
00000000
,
00010000
00000000
10000000
01000000
10000000
01000000
10000000
00000000
,
00010000
00000000
01000000
00000000
00010000
00010000
01000000
00000000
,
00001000
00010000
00001000
00010000
,
00000100
00000000
00001000
00000000
00000001
00000001
00000100
00000000
,
00000010
00000000
00001000
00000000
00000100
00000100
00000010
00000000
,
00001001
00000000
00000000
00000000
;

//---------------dance-double - ----------------
#NOTES:
     dance-double:
     :
     Hard:
     8:
     :
00000000
00000000
00000000
00000000
,
00000000
00000000
00000000
00000000
,
00000000
00000000
00000000
00000000
,
00000000
00000000
00000000
00000000
,
02020000
00000000
00000000
03030000
,
00000000
10000000
01000000
10000000
00100000
00010000
00000000
00001000
,
00010000
00001000
01000000
00001000
00000000
00001100
00000000
00000100
,
00000001
00000010
00000001
00000010
00000100
00000000
00000100
00000000
00010000
00000000
00010000
00000000
00001000
00010000
00001000
00000000
,
00010020
00000000
00001000
00000000
00000100
00000100
00000130
00001000
,
00011000
00010000
01000000
10000000
00100000
10000000
00000000
01000000
,
00100000
00001000
00010000
01000000
00000000
11000000
00000000
10000000
,
00100000
01000000
00001000
01000000
00010000
00000000
00010000
00000000
00100000
00000000
00100000
00000000
00001000
00010000
00001000
00000000
,
00000100
00000001
00000010
00001000
00010000
00100000
10000000
01000000
,
10000000
10000000
00000000
01100000
00000000
00000000
00010000
00010000
00000000
00011000
00000000
00000000
00000100
00000000
00000001
00000000
,
00000010
00000010
00000000
00001100
00000000
00000000
00010000
00010000
00000000
00001010
00000000
00000000
00000010
00000000
00001000
00000000
,
00000100
00000100
00000000
00011000
00000000
00000000
01000000
01000000
00000000
10010000
00000000
00000000
00100000
00000000
10000000
00000000
,
01000000
00000000
00010000
00000000
00001000
00000000
00000100
00000000
00000001
00000000
00000010
00000000
00001000
00000000
00010000
00001000
,
00200000
00000000
00300000
00000000
00011000
00000000
00001000
00010000
00000020
00000000
00000030
00000000
00011000
00000000
00010000
01000000
,
20000000
00000000
30000000
00000000
10010000
00000000
10000000
00100000
00020000
00000000
00030000
00000000
00011000
00000000
00001000
00010000
,
00000100
00000000
00000100
00000000
00001000
00000000
00000011
00000000
00000100
00000000
00001010
00000000
00000100
00000000
00000001
00000010
,
00000100
00000100
00010000
00101000
01000000
10100000
01000000
00010000
,
10000000
01000000
00100000
00002000
00000000
00013000
01000000
10000000
,
00100000
01000000
00001000
00020000
00000000
00031000
00000010
00000001
,
00000100
00000001
00000010
00000100
00000000
00001000
00000010
00000100
,
00000000
00000001
00001000
00000100
00010000
00001000
01000000
00100000
,
00000000
10000000
00100000
00020000
00000000
00031000
01000000
00001000
,
00010000
00000100
00001000
00000002
00000000
00001003
00000010
00000100
,
00000001
00000010
00000100
00001000
00000001
00000010
00000100
00001000
,
00000001
00000000
00000010
00000000
00000100
00000000
00010000
00000000
00010100
00000000
00000000
00000000
01001000
00000000
00100000
10000000
,
02000000
00000000
03000000
00000000
10010000
00000000
00100000
00001000
02000000
00000000
03000000
00000000
00011000
00000000
00000010
00010000
,
00000200
00000000
00000300
00000000
00011000
00000000
00000010
00000001
00000200
00000000
00000300
00000000
00001001
00000000
00000001
00000100
,
00000010
00000000
00000010
00000000
00010000
00000000
01001000
00000000
00010000
00000000
01001000
00000000
00010000
00000000
00100000
00010000
,
01000000
00000000
01000000
00000000
00001000
00000000
00010100
00000000
00001000
00000000
00010100
00000000
00001000
00000000
00000010
00001000
,
00000200
00000000
00000300
00000000
00000011
00000000
00000100
00010000
00002000
00000000
00003000
00000000
00011000
00000000
00010000
00001000
,
02000000
00000000
03000000
00000000
10100000
00000000
01000000
00010000
00002000
00000000
00003000
00000000
00011000
00000000
00010000
00000100
,
00001000
00000000
00001000
00000000
00000100
00000000
00000011
00000000
00000100
00000000
00001010
00000000
00000100
00000000
00001000
01000000
,
00010000
00010000
01000000
10100000
01000000
00110000
01000000
00100000
,
01000000
00000000
00000000
00000000
00100000
00000000
00010000
01000000
00000000
00000000
00010000
00000000
00000000
00000000
10000000
00000000
,
11000000
00000000
00000000
00000000
00010000
00000000
00001000
00000100
00000000
00000000
00000001
00000000
00000000
00000000
00000010
00000000
,
00000110
00000000
00000000
00000000
00001000
00000000
00000001
00000100
00000000
00000000
00001000
00000000
00000000
00000000
00010000
00000000
,
00011000
00000000
00000000
00000000
00000100
00000000
00000001
00001000
00000000
00000000
00000100
00000000
00010000
00000000
00001000
00000000
,
00011000
00000000
00000000
00000000
;
