#TITLE:Rapper's Delight;
#ARTIST:Sugar Hill Gang;
#BANNER:Rapper's Delight.png;
#BACKGROUND:Rapper's Delight-bg.png;
#CDTITLE:./CDTITLES/Dance Dance Revolution UNIVERSE.png;
#MUSIC:Rapper's Delight.ogg;
#SAMPLESTART:10.714;
#SAMPLELENGTH:15;
#DISPLAYBPM:108;
#BPMS:0=110.803,20=111.18,36=111.3,52=110.45,68=110.7,84=111.4,100=111.9,116=110.45,132=112.5,148=111.524,164=111.41,180=110.41,188=112.5;

//---------------dance-single - ----------------
#NOTES:
     dance-single:
     :
     Beginner:
     1:
     :
0000
0000
0000
0000
,
0000
0000
0000
0000
,
0000
0000
0000
0000
,
0001
0000
0000
0000
,
1000
0000
0000
0000
,
0100
0000
0100
0000
,
0010
0000
0000
0000
,
0100
0000
0100
0000
,
0010
0000
0000
0000
,
0001
0000
0001
0000
,
1000
0000
0000
0000
,
0001
0000
0001
0000
,
1000
0000
0000
0000
,
1001
0000
0000
0000
,
0010
0000
0000
0000
,
1001
0000
0000
0000
,
0100
0000
0000
0000
,
1000
1000
1000
0000
,
0001
0000
0000
0000
,
1000
1000
1000
0000
,
0001
0000
0000
0000
,
0010
0000
0010
0000
,
0100
0000
0000
0000
,
0010
0000
0010
0000
,
0100
0000
0000
0000
,
1000
0000
1000
0000
,
0001
0000
0000
0000
,
1000
0000
1000
0000
,
0001
0000
0000
0000
,
1001
0000
0000
0000
,
0010
0000
0000
0000
,
1001
0000
0000
0000
,
0100
0000
0000
0000
,
1000
0000
0001
0000
,
1001
0000
0000
0000
,
0100
0000
0010
0000
,
0110
0000
0000
0000
,
1000
0000
1000
0000
,
0001
0000
0000
0000
,
1000
0000
1000
0000
,
0001
0000
0000
0000
,
1001
0000
0000
0000
,
0010
0000
0000
0000
,
1001
0000
0000
0000
,
0100
0000
0000
0000
,
0001
0001
0001
0000
,
1000
0000
0000
0000
,
0001
0001
0001
0000
,
1000
0000
0001
0000
,
1001
0000
0000
0000
;

//---------------dance-single - ----------------
#NOTES:
     dance-single:
     :
     Easy:
     2:
     :
0000
0000
0000
0000
,
0000
0000
0000
0000
,
0000
0000
0000
0000
,
0000
1000
0000
0000
,
0000
0010
0000
0000
,
0000
1000
0000
0001
,
0000
0100
0000
0010
,
0000
1000
0000
0010
,
0000
0001
0010
0000
,
0000
0100
0000
0100
,
0000
0001
0000
0010
,
0000
0100
0000
1000
,
0000
0100
0010
0000
,
1001
0000
0000
0000
,
1000
0100
0100
0000
,
0110
0000
0000
0000
,
0001
0100
0100
0000
,
1001
0000
0000
0000
,
0001
0010
0010
0000
,
0110
0000
0000
0000
,
1000
0100
0100
0000
,
0000
0100
0000
0010
,
0000
1000
0000
0001
,
0000
1000
0000
0100
,
0000
1000
0010
0000
,
2000
3000
0002
0003
,
0100
0000
0010
0000
,
2000
3000
0002
0003
,
0100
0010
0010
0000
,
1001
0000
0000
0000
,
1000
0001
0001
0000
,
0110
0000
0000
0000
,
0010
0100
0100
0000
,
0002
0003
0200
0300
,
0002
0000
0000
0003
,
1000
0000
0100
0000
,
1000
1000
0100
0000
,
0002
0003
2000
3000
,
0200
0000
0000
0300
,
0100
0010
0010
0000
,
0100
0000
0000
0000
,
1001
0000
0000
0000
,
0001
1000
1000
0000
,
0110
0000
0000
0000
,
0100
0010
0010
0000
,
1000
0001
1000
0000
,
0000
0110
0000
0001
,
1000
0100
0000
0010
,
0000
0100
0000
0001
,
1001
0000
0000
0000
;

//---------------dance-single - ----------------
#NOTES:
     dance-single:
     :
     Medium:
     5:
     :
0000
0000
0000
0000
,
0000
0000
0000
0000
,
0000
0000
0000
0000
,
2000
3002
0203
0000
,
0302
0003
1001
0000
,
0100
0110
1001
0000
,
1000
0100
1000
0000
0001
0000
0010
0000
,
0001
0100
0001
0000
1000
0100
1000
0000
,
0010
1000
0001
1000
0010
0000
0000
0000
,
0001
0101
1100
0000
,
0100
0001
0100
0000
0010
0000
1000
0000
,
0001
1000
0001
0000
0010
0100
0010
0000
,
0001
1000
0010
1000
0001
0000
0000
0000
,
0002
2003
3020
0030
,
1000
0010
0100
0001
1000
0000
0000
0000
,
2000
3002
0203
0300
,
0001
0010
0100
1000
0001
0000
0000
0000
,
0000
0100
0010
0000
1000
0000
0001
0000
,
1000
0010
0100
0000
0001
0000
1000
0000
,
0001
0110
1001
0000
,
0010
0100
0010
0100
0010
0000
0000
0000
,
0100
1100
0101
0000
,
1000
0100
0010
0000
0100
0000
0010
0000
,
0002
0203
0320
0030
,
0001
0010
0100
0000
1000
0000
0100
0000
,
0010
0001
0010
0000
0100
1000
0100
0000
,
0010
0001
1000
0001
0010
0000
0000
0000
,
1000
0100
1000
0000
0001
0100
0001
0000
,
0100
0010
1000
0010
0100
0000
0000
0000
,
0100
1001
0110
0000
,
1000
0001
1000
0001
1000
0000
0000
0000
,
0001
0110
1001
0000
,
0010
0100
0010
0100
0010
0000
0000
0000
,
0101
0000
0000
0010
1000
0000
0000
0100
,
0010
0001
1000
0000
,
0101
0000
0000
0100
1000
0000
0000
0100
,
0010
1000
0010
0001
0010
0000
1001
0000
,
0110
0000
0000
1000
0100
0000
0000
0001
,
0010
0200
0000
0300
,
1000
0110
1001
0000
,
0010
0100
0010
0100
0010
0000
0000
0000
,
0010
0011
1100
0000
,
0001
0100
0010
0000
1000
0010
0100
0000
,
0001
0101
1100
0000
,
0001
0010
0100
0000
1000
0100
0010
0000
,
0001
0100
0010
1000
,
0100
0001
0100
0000
0010
1000
0010
0000
,
0001
0100
0010
1000
,
0001
0100
0001
0100
0001
0000
1000
0000
,
1001
0000
0000
0000
;

//---------------dance-single - ----------------
#NOTES:
     dance-single:
     :
     Hard:
     8:
     :
0000
0000
0000
0000
,
0000
0000
0000
0000
,
0000
0000
0000
0000
,
0001
0000
0000
0000
0100
0000
0000
0000
0110
0000
0000
0000
0000
0000
0000
1000
,
0100
1000
0100
0000
0010
0000
0001
0000
0100
0000
0000
0000
0000
0000
0000
0000
,
0101
0000
0000
0000
1100
0000
0000
1000
0100
1000
0000
0001
0100
0010
0100
0000
,
0001
0000
0100
0000
0010
1000
0100
1000
0000
0100
0000
0000
1000
0000
0100
0000
,
0010
0000
0010
0000
0001
1000
0100
1000
0000
0010
0000
0100
0001
0000
0001
0000
,
0010
0000
0100
0000
0100
1000
0010
1000
0000
0000
0000
0000
0000
0000
0000
0000
,
0001
0000
0010
0000
0010
0000
0100
0000
0100
1000
0000
0100
0000
0000
0100
0000
,
1000
0000
0000
0000
1000
0000
0001
0100
0000
0000
0000
0000
0000
0000
0100
0000
,
0001
0000
0000
0100
0010
0000
0000
0000
0100
0000
0010
1000
0000
0000
0001
0100
,
0001
0000
0000
1000
0100
0000
0100
0010
0000
0000
0000
0000
0000
0000
0000
0000
,
1010
0000
0000
0000
0011
0000
0000
0000
1000
0000
0010
0100
0000
0000
0001
0000
,
0010
0001
0010
0001
0100
0000
0000
0000
,
0100
0000
0000
0000
0010
0000
1000
0100
0000
1000
0000
1000
0100
0000
0010
0000
,
0100
0010
0100
0010
1000
0000
0000
0000
,
0000
0000
0110
0000
1001
0000
0000
0010
1000
0010
1000
0100
1000
0000
1000
0100
,
0000
0010
0000
0010
0001
0000
0001
0100
0001
0000
0100
0000
0010
0000
1000
0000
,
0100
0000
0000
0000
0000
0000
0100
0010
0000
0000
0001
0000
0000
0100
0000
0001
,
1000
0001
1000
0000
0100
0000
1000
0000
0010
0100
0000
0100
0000
0000
0001
0000
,
1000
0000
0000
0000
0100
0000
0000
0000
0110
0000
0000
0000
0000
0000
0000
0010
,
1000
0100
1000
0010
1000
0100
1000
0010
,
0001
0000
0000
0000
0010
0000
0000
0000
0110
0000
0000
0000
0000
0000
0000
0010
,
0100
0010
0100
0000
0001
0000
1000
0000
0010
0000
0000
0000
0000
0000
0000
0000
,
0001
0000
0200
0010
0000
0010
0000
0310
2000
0001
0000
0001
0000
3001
0000
0100
,
0001
0000
1000
0000
0100
1000
0000
0010
0000
0000
0000
0000
0000
0000
0001
0100
,
0001
0000
0010
0000
0100
0000
0000
0000
1000
0000
0100
0000
0010
0000
0000
0001
,
0100
0000
0010
0000
1000
0000
1000
0001
0000
0000
0000
0000
0000
0000
0000
0000
,
0010
0000
0100
0000
0001
0000
0000
0000
0100
0000
0001
1000
0000
0000
0000
0010
,
1000
0001
0100
0001
0100
0000
0000
0000
,
1000
0000
0010
0000
0100
0000
0001
0000
1000
0000
0010
0000
0100
0000
0000
0001
,
1000
0000
0100
0000
1000
0000
0001
0010
0000
0000
0000
0000
0000
0000
0000
0000
,
1010
0000
0000
0000
0000
0001
0010
0000
0001
0000
0100
0000
0000
0001
0010
0000
,
0001
0000
0000
1000
0100
0000
1000
0010
0000
1000
0100
0000
0000
0001
0100
0000
,
0100
0000
0000
1000
0100
0000
0001
0100
0000
0100
0000
1000
0100
0000
0000
0001
,
1000
0000
0010
0000
0100
0000
0001
0010
0001
0000
0100
0010
0000
0000
1000
0000
,
0010
0100
0000
0100
0000
0000
0000
0000
0001
1000
0000
1000
0000
0000
0000
0010
,
0100
0000
0001
1000
0001
1000
0100
0000
0000
0000
0000
0000
0000
0000
0000
0000
,
0001
0000
0100
0000
0010
0000
1000
0000
0001
0000
0100
0000
0010
0000
0000
1000
,
0100
1000
0100
0000
0010
0000
0001
0000
0100
0000
0000
0000
0000
0000
0000
0000
,
1000
0000
0000
0000
0011
0000
0000
0000
1010
0000
0000
0000
0100
0000
0000
0100
,
1000
1000
0001
0010
0001
0001
0100
0010
,
0100
0000
0000
0000
0110
0000
0000
0000
1100
0000
0000
0000
0001
0000
0000
1000
,
0010
0010
0100
0001
1000
0010
0100
0001
,
1000
0000
0000
0000
0001
0000
0000
0000
1000
0000
0000
0010
0000
0000
0100
0000
,
0001
0010
0100
0010
0100
1000
0100
0000
,
0010
0000
0000
0000
0001
0000
0000
0001
0100
0001
0000
0001
0100
0001
1000
0001
,
0000
0001
0000
1000
0100
1000
0100
0010
0000
0001
0000
0100
0010
0100
0010
0000
,
1001
0000
0000
0000
;

//---------------dance-double - ----------------
#NOTES:
     dance-double:
     :
     Beginner:
     1:
     :
00000000
00000000
00000000
00000000
,
00000000
00000000
00000000
00000000
,
00000000
00000000
00000000
00000000
,
01000000
00000000
00000000
00000000
,
00100000
00000000
00000000
00000000
,
00001000
00000000
00000000
00000000
,
00010000
00000000
00000000
00000000
,
00000100
00000000
00000000
00000000
,
00000100
00000000
00000000
00000000
,
00000001
00000000
00000000
00000000
,
00000001
00000000
00000000
00000000
,
00000100
00000000
00000000
00000000
,
00001000
00000000
00000000
00000000
,
00010000
00000000
00000000
00100000
,
00100000
00000000
00000000
00000000
,
10000000
00000000
00000000
01000000
,
01000000
00000000
00000000
00000000
,
00000000
00010000
00010000
00000000
,
00001000
00000000
00000000
00000000
,
00000000
00000100
00000100
00000000
,
00000001
00000000
00000000
00000000
,
00001000
00000000
00000000
00000000
,
00010000
00000000
00000000
00000000
,
01000000
00000000
00000000
00000000
,
00100000
00000000
00000000
00000000
,
00010000
00000000
00010000
00000000
,
00001000
00000000
00000000
00000000
,
00000001
00000000
00000001
00000000
,
00000100
00000000
00000000
00000000
,
00010000
00000000
00000000
01000000
,
01000000
00000000
00000000
00000000
,
00010000
00000000
00000000
00100000
,
00100000
00000000
00000000
00000000
,
00001000
00000000
00000000
00000000
,
00000010
00000000
00000000
00000000
,
00000001
00000000
00000001
00000000
,
00000100
00000000
00000100
00000000
,
00001000
00000000
00000000
00000000
,
00010000
00000000
00000000
00000000
,
01000000
00000000
00000000
00000000
,
00100000
00000000
00000000
00000000
,
00001000
00000000
00000000
00000100
,
00000100
00000000
00000000
00000000
,
00000010
00000000
00000000
00001000
,
00001000
00000000
00000000
00000000
,
00010000
00000000
00010000
00000000
,
01000000
00000000
00000000
00000000
,
00001000
00000000
00000000
00000000
,
00010000
00000000
00010000
00000000
,
00011000
00000000
00000000
00000000
;

//---------------dance-double - ----------------
#NOTES:
     dance-double:
     :
     Easy:
     3:
     :
00000000
00000000
00000000
00000000
,
00000000
00000000
00000000
00000000
,
00000000
00000000
00000000
00000000
,
00000001
00000000
00001000
00000000
,
00000001
00000000
00000000
00000000
,
00000100
00000000
00001000
00000000
,
00010000
00000000
00000000
00000000
,
10000000
00000000
00100000
00000000
,
01000000
00000000
00000000
00000000
,
01000000
00000000
00010000
00000000
,
00001000
00000000
00000000
00000000
,
00000001
00000000
00000100
00000000
,
00000010
00000000
00000000
00000000
,
00002000
00000000
00000000
00003000
,
00010000
00010000
01000000
00000000
,
20000000
00000000
00000000
30000000
,
01000000
01000000
00010000
00000000
,
00000000
00001000
00010000
00001000
,
00010000
00000000
00000000
00000000
,
00000000
00000100
00000010
00000100
,
00000010
00000000
00000000
00000000
,
00000001
00000000
00001000
00000000
,
00000001
00000000
00000000
00000000
,
00000100
00000000
00001000
00000000
,
00010000
00000000
00000000
00000000
,
01000000
00000000
00100000
00000000
,
00010000
10000000
00010000
00000000
,
10000000
00000000
01000000
00000000
,
00010000
00001000
00010000
00000000
,
00000200
00000000
00000000
00000300
,
00001000
00000001
00000010
00000000
,
00000002
00000000
00000000
00000003
,
00000100
00001000
00010000
00000000
,
01100000
00000000
10010000
00000000
,
00100000
10000000
01000000
10000000
,
01000000
00000000
00010000
00000000
,
00002000
00000000
00000000
00003000
,
00000100
00000001
00000100
00000000
,
00002000
00000000
00000000
00003000
,
00010000
01000000
10000000
00000000
,
00200000
00000000
00000000
00300000
,
10010000
00000000
00000000
00000000
,
01000000
00010000
00001000
00000000
,
00000200
00000000
00000000
00000300
,
00000100
00001000
00010000
00000000
,
01000000
00000000
10000000
00000000
,
01000000
00010000
00001000
00000000
,
00000100
00000001
00001000
00000001
,
00001000
00000000
00010000
00000000
,
00011000
00000000
00000000
00000000
;

//---------------dance-double - ----------------
#NOTES:
     dance-double:
     :
     Medium:
     5:
     :
00000000
00000000
00000000
00000000
,
00000000
00000000
00000000
00000000
,
00000000
00000000
00000000
00000000
,
10000000
00010000
01000000
00000000
,
00011000
00000000
00000000
00000000
,
00000001
00001000
00000100
00000000
,
00000010
00000100
00001000
00000000
00000100
00000000
00010000
00000000
,
00001000
01000000
00100000
00000000
,
10000000
01000000
00010000
01000000
10000000
00000000
00000000
00000000
,
00010000
00100000
00001000
00000000
,
00100000
00010000
01000000
00000000
00010000
00000000
00100000
00000000
,
00001000
00010000
00000100
00000000
,
00000001
00000100
00001000
00000100
00000001
00000000
00000000
00000000
,
00000001
00001000
00000001
00001000
,
00000100
00010000
00001000
00000000
00010000
00000000
01000000
00000000
,
10000000
00010000
10000000
00010000
,
01000000
00001000
00010000
00000000
00001000
00000000
00000100
00000000
,
00000000
00000001
00001001
00000000
00000100
00000000
00000010
00000000
,
00010000
00001000
00010000
00001000
,
02000000
00000000
03100000
11000000
,
01000000
00010000
00001000
00010000
01000000
00000000
00000000
00000000
,
00010000
01000000
00001000
00000000
,
00010000
00001000
00000100
00000000
00001000
00000000
00000100
00000000
,
00000001
00001000
00000010
00000000
,
00001000
00000100
00000010
00000000
00000100
00000000
00010000
00000000
,
00002000
00000000
00003000
00010000
02000000
00000000
03000000
10000000
,
00200000
00300000
00020000
00030000
,
00000010
00000001
00001000
00000100
,
00001000
00000001
00000100
00000000
00011000
00000000
00000000
00000000
,
00000001
00001000
00000001
00001000
,
00000100
00010000
00001000
00000000
01000000
00000000
00100000
00000000
,
10000000
00010000
10000000
00010000
,
01000000
00001000
00010000
00000000
00001000
00000000
00000100
00000000
,
00001001
00000000
00000000
00001000
00000100
00000000
00000000
00010000
,
01000000
00000000
00100000
00000000
00001000
00010000
00000000
00000000
,
00000100
00000000
00001000
00000000
00000001
00000100
00000010
00000000
,
00001000
00000000
00000100
00000000
00010000
00001000
00010000
00000000
,
01000000
10000000
00010000
00000000
,
01000000
00010000
00001000
00000100
00000000
00000000
00000000
00000000
,
00000001
00001000
00000010
00000000
,
00000001
00000100
00001000
00000100
00000001
00000000
00000000
00000000
,
00000001
00001000
00000001
00001000
,
00000100
00010000
00001000
00000000
00010000
00000000
01000000
00000000
,
10000000
00010000
10000000
00010000
,
01000000
00001000
00010000
00000000
00001000
00000000
00000100
00000000
,
00000001
00000010
00001000
00010000
,
00001000
00010000
00001000
00000000
01000000
00000000
00100000
00000000
,
10000000
00010000
00100000
01000000
,
00010000
00000000
01000000
00000000
10000000
01000000
00010000
00001000
,
00000100
00000000
00000000
00000000
;

//---------------dance-double - ----------------
#NOTES:
     dance-double:
     :
     Hard:
     7:
     :
00000000
00000000
00000000
00000000
,
00000000
00000000
00000000
00000000
,
00000000
00000000
00000000
00000000
,
01000000
00000000
00000000
00000000
10010000
00000000
00000000
00000000
00011000
00000000
00000000
00000000
00000000
00000000
00000000
00000010
,
00000100
00000010
00000100
00000000
00000001
00000000
00001000
00000000
00000100
00000000
00000000
00000000
00000000
00000000
00000000
00000000
,
00001000
00000000
00000000
00000000
00000011
00000000
00000000
00000000
00001100
00000000
00000000
00000000
00000000
00000000
00000000
00000001
,
00001000
00000100
00010000
00000010
00000100
00000001
00001000
00000001
,
00000100
00000000
00000000
00000000
00001001
00000000
00000000
00000000
00011000
00000000
00000000
00000000
00000000
00000000
00000000
00100000
,
01000000
00010000
01000000
00100000
01000000
00000000
00000000
00000000
,
10000000
00000000
00000000
00000000
01010000
00000000
00000000
00000000
00010100
00000000
00000000
00000000
00000000
00000000
00000000
00001000
,
00010000
01000000
00010000
00001000
00000100
00000001
00000010
00001000
,
00010000
00000000
00000000
00000000
00011000
00000000
00000000
00000000
00001001
00000000
00000000
00000000
00000000
00000000
00000000
00000100
,
00000010
00001000
00000100
00000010
00000100
00000000
00000000
00000000
,
00002000
00000000
00000000
00000000
00203000
00000000
00000000
00000000
00310000
00000000
01000000
00010000
00000000
00000000
00100000
00000000
,
00010000
01000000
00100000
00010000
00001000
00000010
00001000
00010000
,
00002000
00000000
00000000
00000000
02003000
00000000
00000000
00000000
03100000
00000000
00000000
10000000
00000000
00000000
00100000
00000000
,
01000000
00010000
00100000
01000000
00010000
00001000
00000100
00000000
,
00000000
00001100
00011000
00000000
00010000
01000000
10000000
00100000
,
00010000
00001000
00000010
00000001
00000010
00001000
00010000
00100000
,
20000000
32000000
03010000
00000000
,
00100000
01000000
00010000
00100000
00001000
00100000
00010000
00100000
,
01000000
00000000
00000000
00000000
10010000
00000000
00000000
00000000
00011000
00000000
00000000
00000000
00000000
00000000
00000000
00010000
,
00001000
00010000
00000100
00010000
00001000
00010000
00000010
00010000
,
00001000
00000000
00000000
00000000
00001100
00000000
00000000
00000000
00000101
00000000
00000000
00000000
00000000
00000000
00000000
00000010
,
00000100
00001000
00000010
00000100
00000010
00000000
00000000
00000000
,
00000001
00001000
00000100
00000100
00010000
00001000
00100000
00000000
,
00100000
00010000
10000000
01000000
01000000
00000000
00000000
00000000
,
00010000
00001000
00000100
00000000
00010000
00001000
00000100
00000000
,
00000001
00001000
00000010
00000010
00001000
00000000
00000000
00000000
,
00000100
00000000
00000000
00000000
00001001
00000000
00000000
00000000
00011000
00000000
00000000
00000000
00000000
00000000
00000000
00001000
,
00010000
00001000
00100000
00001000
00010000
00001000
01000000
00001000
,
00010000
00000000
00000000
00000000
01010000
00000000
00000000
00000000
11000000
00000000
00000000
00000000
00000000
00000000
00000000
00100000
,
01000000
00010000
01000000
00100000
01000000
00000000
00000000
00000000
,
00110000
00000000
00000000
00011000
00010010
00000000
00000000
00000110
,
00000101
00000000
00001000
00000100
00000010
00000100
00001000
00000100
,
00010000
00000000
00000000
01000000
10000000
00000000
00000000
01000000
00000000
00010000
00000000
00001000
00000100
00000000
00000000
00000000
,
00000001
00000000
00001000
00000000
00000100
00001000
00000010
00000000
,
00010000
00000100
00001000
00000000
00010000
00000100
00001000
00000000
,
00000100
00010000
00010000
00000100
00000000
00000000
00000000
00001000
,
00010000
01000000
10000000
00100000
00010000
00001000
00010000
00000000
,
00000100
00001000
00000001
00000001
00001000
00000000
00000110
00000000
,
00000001
00000000
00000000
00000000
00001001
00000000
00000000
00000000
00011000
00000000
00000000
00000000
00000000
00000000
00000000
00010000
,
01000000
10000000
00100000
00010000
00001000
00000010
00000001
00000010
,
00000100
00000000
00000000
00000000
00010100
00000000
00000000
00000000
01010000
00000000
00000000
00000000
00000000
00000000
00000000
01000000
,
00100000
00010000
01000000
00100000
01000000
00000000
00000000
00000000
,
00200000
00000000
00000000
00000000
00302000
00000000
00000000
00000000
00013000
00000000
00000000
00000010
00000000
00000000
00001000
00000000
,
00000001
00000000
00001000
00000100
00000000
00000000
00010000
00000000
00001000
00000000
00010000
00000100
00000000
00000000
00001000
00000000
,
00000001
00000000
00000000
00000000
00001001
00000000
00000000
00000000
00011000
00000000
00000000
00000000
00010000
00000000
00000000
01000000
,
10000000
01000000
00100000
01000000
00010000
00000000
01000000
00000000
,
10000000
01010000
01001000
00000000
;
