#TITLE:Precious (Sasha's Gargantuan Vocal Mix);
#ARTIST:Depeche Mode;
#BANNER:Precious (Sasha's Gargantuan Vocal Mix).png;
#BACKGROUND:Precious (Sasha's Gargantuan Vocal Mix)-bg.png;
#CDTITLE:./CDTITLES/Dance Dance Revolution UNIVERSE.png;
#MUSIC:Precious (Sasha's Gargantuan Vocal Mix).ogg;
#SAMPLESTART:10.295;
#SAMPLELENGTH:15;
#BPMS:0=127;

//---------------dance-single - ----------------
#NOTES:
     dance-single:
     :
     Beginner:
     2:
     :
0000
0000
0000
0000
,
0000
0000
0000
0000
,
0000
0000
0000
0000
,
0000
0000
0000
0000
,
0000
0000
0000
0000
,
0001
0000
0001
0000
,
1000
0000
1000
0000
,
0010
0000
0010
0010
,
0010
0000
1000
0000
,
0001
0000
0001
0000
,
1000
0000
1000
0000
,
0100
0100
0100
0000
,
0010
0010
0010
0000
,
0001
0000
0001
0000
,
1000
0000
1000
0000
,
0001
0001
0001
0000
,
1000
1000
1000
0000
,
0010
0010
0000
0000
,
0100
0100
0000
0000
,
0001
0001
0001
0000
,
1000
1000
0000
0000
,
1000
1000
1000
0000
,
0001
0001
0000
0000
,
0001
0001
0001
0000
,
0010
0010
0000
0000
,
0010
0010
0010
0000
,
0100
0100
0000
0000
,
0100
0100
0100
0000
,
1000
0000
1000
0000
,
0001
0000
0001
0001
,
0000
0001
0000
1000
,
0000
1000
0000
0010
,
0000
0010
0000
0100
,
0000
0100
0000
0010
,
0000
0010
0000
1000
,
0000
1000
0000
0001
,
0000
0001
0000
0000
,
1001
0000
1000
1000
,
0000
0001
0001
0001
,
0000
1000
1000
1000
,
0000
0001
0001
0001
,
0001
0000
0010
0000
,
0100
0000
0010
0010
,
0010
0000
0100
0000
,
1000
1000
1000
1000
,
1000
0000
0001
0000
,
0001
0000
0001
0000
,
1000
0000
1000
0000
,
1000
0000
0010
0010
,
0010
0000
0100
0000
,
0100
0000
0100
0000
,
0001
0000
0001
0000
,
1000
0000
1000
0000
,
1001
0000
0000
0000
;

//---------------dance-single - ----------------
#NOTES:
     dance-single:
     :
     Easy:
     3:
     :
0000
0000
0000
0000
,
0000
0000
0000
0000
,
0000
0000
0000
0000
,
0000
0000
0000
0000
,
0000
0000
0000
0000
,
1000
0000
0010
0100
,
0100
0000
0010
0001
,
0001
0000
0010
1000
,
0001
0000
0010
0100
,
0100
0000
0010
1000
,
1000
0000
0010
0001
,
1000
0000
1000
0000
,
0001
0000
0001
1000
,
0010
0000
0100
0000
,
0010
0100
0010
0000
,
1000
0000
0001
0000
,
0010
0100
0010
0000
,
0001
0000
0001
0000
,
0100
0000
0010
1000
,
1000
0000
1000
0000
,
0100
0000
0010
0001
,
1000
1000
0010
0100
,
0100
0000
0000
0000
,
0001
0001
0010
0100
,
0100
0000
0000
0000
,
1000
1000
0001
0100
,
0100
0000
0000
0000
,
0010
0010
1000
0001
,
0002
0003
2000
3000
,
0100
0000
0100
0000
,
0100
0000
0100
0000
,
0010
0000
0010
0000
,
0001
0000
0001
0001
,
1000
0000
1000
0000
,
1000
0000
1000
1000
,
0010
0010
0010
0000
,
0100
0100
0100
0000
,
0001
0100
0001
0000
,
0100
0001
0010
0000
,
0100
1000
0100
0000
,
1000
0010
0100
0001
,
1000
0100
1000
0000
,
0100
1000
0010
0000
,
0100
0001
0100
0000
,
0001
0100
0010
1000
,
0001
0010
0000
0100
,
0000
0100
0000
1000
,
0001
0100
0000
0100
,
0010
0010
1000
1000
,
0001
0010
0000
0100
,
0000
0100
0000
1000
,
0001
0100
0000
0010
,
1000
0001
1000
0002
,
0000
0000
0000
0003
;

//---------------dance-single - ----------------
#NOTES:
     dance-single:
     :
     Medium:
     6:
     :
0000
0000
0000
0000
,
0000
0000
0000
0000
,
0000
0000
0000
0000
,
0000
0000
0000
0000
,
0000
0000
0000
0000
,
0010
0001
1000
1001
,
0010
1000
0001
1001
,
0100
0001
0010
0110
,
0100
1000
0010
0110
,
1001
0100
0010
1001
,
0110
1000
0001
0110
,
1001
0100
0010
1001
,
0110
0001
1000
0110
,
1100
0000
0011
0000
0010
0001
0010
0000
,
1010
0000
0101
0000
0001
0100
0001
0000
,
0011
0000
1100
0000
0100
1000
0100
0000
,
1010
0000
0101
0000
0001
0100
0001
0000
,
1001
0001
0100
0000
0010
1000
0100
0000
,
1001
1000
0100
0000
0010
0001
0100
0000
,
0011
0001
1000
0000
0010
0100
0001
0000
,
1010
1000
0001
0000
0010
0100
1000
0000
,
0200
1000
1000
1300
,
0001
0100
1000
0000
1000
0100
0001
0000
,
0020
0001
0001
0031
,
1000
0010
0001
0000
0001
0010
1000
0000
,
0020
1000
1000
1030
,
0010
1000
0100
0000
0010
0001
0100
0000
,
0200
0001
0001
0301
,
0100
0001
0010
0000
0100
1000
0010
0000
,
0002
1000
1000
1003
,
2000
0010
0010
3010
,
0020
0100
0100
0130
,
0200
0000
0001
0000
0001
0000
0301
0001
,
2000
0010
0010
3010
,
0200
0001
0001
0301
,
0020
0100
0100
0130
,
2000
0000
0001
0000
0001
0000
3001
1000
,
0001
1000
0010
0100
0001
1000
0100
0000
,
1000
0001
0010
0100
1000
0001
0100
0000
,
0010
0001
0100
0001
1000
0010
0100
0000
,
0010
1000
0100
1000
0001
0010
0100
0000
,
1000
0100
0001
0100
1000
0100
0010
0000
,
0001
0100
1000
0100
0001
0100
0010
0000
,
0010
0001
1000
0001
0010
0001
1000
0000
,
0100
1000
0001
1000
0100
1000
0001
0001
,
0012
0000
0103
0001
0010
0001
1000
0000
,
2010
0000
3100
1000
0010
1000
0001
0000
,
0201
0000
0301
1000
0100
0010
0100
0000
,
1200
0000
1300
0001
0100
0010
0100
0000
,
1000
0000
1001
1000
0001
0010
0001
0000
,
0100
0000
0001
0000
1000
0000
0001
0100
,
0010
0001
1000
0100
,
0001
0000
1000
0000
0010
0000
1000
0001
,
1001
0000
0000
0000
;

//---------------dance-single - ----------------
#NOTES:
     dance-single:
     :
     Hard:
     8:
     :
0000
0000
0000
0000
,
0000
0000
0000
0000
,
0000
0000
0000
0000
,
0000
0000
0000
0000
,
0000
0000
0000
0000
,
2000
0000
3001
0000
1000
0001
0100
0010
,
0100
0000
0010
0100
0000
0010
0010
0000
,
0200
0000
0310
0000
1000
0001
0100
0001
,
0100
0020
0000
2030
0000
0001
3001
0000
,
1001
0000
0110
0000
0010
1000
0100
0001
,
0100
1000
0010
0200
0000
0020
0300
0031
,
0010
1000
0000
0001
0000
0000
0000
0000
1001
0000
0000
0011
0000
0000
0000
0000
,
1000
0100
0000
1000
0000
0000
0000
0000
1001
0000
0000
1010
0000
0000
0000
0000
,
0100
0010
1001
0001
0100
0010
0101
1000
,
1001
0000
0000
0110
0000
0000
1001
0000
0000
0000
0010
0000
0010
0000
0010
0000
,
0100
0001
1000
0001
0010
0100
1000
0010
,
1010
0000
0000
0110
0000
0000
0202
0000
0000
0000
0000
0000
0303
0000
0000
0000
,
1001
0000
0000
0110
0000
0000
0010
0000
1000
0000
0001
0000
0100
0000
0010
0000
,
1000
0100
0010
0001
0000
1001
0000
0220
,
0000
0000
0000
0330
,
1001
0000
0000
0101
0000
0000
0001
0000
1001
0000
0000
1100
0000
0000
0000
0000
,
0001
0100
0010
1000
0100
1000
0001
0000
1001
0000
0000
0102
0000
0000
0000
0000
,
1000
0000
0000
0100
0003
0000
1000
0000
1100
0000
0000
0110
0000
0000
0000
0000
,
0001
0010
0100
1000
0100
0010
0001
0000
0011
0000
0000
2001
0000
0000
0000
0000
,
0010
0000
0000
0001
3000
0000
0010
0000
1010
0000
0000
0101
0000
0000
0000
0000
,
1000
0010
0100
0001
0010
0001
1000
0000
1001
0000
0000
2010
0000
0000
0000
0000
,
0001
0000
0000
0010
3000
0000
0001
0000
0011
0000
0000
0110
0000
0000
0000
0000
,
1000
0100
0010
0001
0010
0100
1000
0000
1100
0000
0000
1002
0000
0000
0000
0000
,
0100
0000
0000
1000
0003
0000
0100
0000
0101
0000
0000
2010
0000
0000
0000
0000
,
0010
0000
0010
0000
0001
0001
0001
0000
,
0100
0000
0100
0000
0010
0010
0010
0000
,
0001
0001
3001
0110
,
1001
0000
1001
0120
0000
0000
0000
0000
,
0000
0000
1000
0000
1000
0000
0100
1000
,
0100
0000
0001
0000
0001
0000
0100
0001
,
0100
0001
0100
1030
,
0110
0100
0100
0100
,
0110
1000
0100
0010
0001
0100
0010
1000
,
0100
0000
0010
0000
0100
0000
0010
0000
1001
0000
0000
0101
0000
0000
0000
0000
,
0001
0100
1000
0100
0001
0010
0100
1000
,
0010
0000
0100
0000
0010
0000
0100
0000
1001
0000
0000
1010
0000
0000
0000
0000
,
1001
0100
0110
0000
1100
0100
0011
1001
,
0110
0000
0000
0000
1001
0000
0000
0000
0110
0000
0000
1100
0000
0000
0000
0000
,
0110
0100
0011
0000
1001
0001
1100
0110
,
1001
0000
0000
0000
0110
0000
0000
0000
1001
0000
0000
0011
0000
0000
0000
0000
,
0002
0010
0013
0100
2000
0010
3010
0000
,
0101
0000
0000
0000
2100
0000
0000
0000
0010
0000
0000
0010
3000
0000
0000
0000
,
0020
0100
0130
0001
2000
0100
3100
0000
,
0110
0000
0000
0000
1002
0000
0000
0000
0100
0000
0000
0100
0003
0000
0000
0000
,
1001
0011
1010
1001
,
0110
0000
0000
0000
1001
0000
0000
0000
0110
0000
0000
0110
0000
0000
0000
0000
,
0010
1000
0100
0010
0001
0100
0010
0100
,
0001
0000
0010
0000
0100
0000
1000
0000
1001
0000
0000
0220
0000
0000
0000
0000
,
0000
0000
0000
0330
;

//---------------dance-double - ----------------
#NOTES:
     dance-double:
     :
     Beginner:
     1:
     :
00000000
00000000
00000000
00000000
,
00000000
00000000
00000000
00000000
,
00000000
00000000
00000000
00000000
,
00000000
00000000
00000000
00000000
,
00000000
00000000
00000000
00000000
,
00000001
00000000
00000001
00000000
,
00001000
00000000
00001000
00000000
,
00000010
00000000
00001000
00001000
,
00001000
00000000
00000001
00000000
,
00000100
00000000
00000100
00000000
,
00001000
00000000
00001000
00000000
,
00010000
00010000
00010000
00000000
,
00001000
00001000
00001000
00000000
,
00010000
00000000
00010000
00000000
,
00100000
00000000
00100000
00000000
,
10000000
10000000
10000000
00000000
,
00010000
00010000
00010000
00000000
,
01000000
01000000
00000000
00000000
,
00100000
00100000
00000000
00000000
,
10000000
10000000
10000000
00000000
,
01000000
01000000
00000000
00000000
,
00010000
00010000
00010000
00000000
,
00001000
00001000
00000000
00000000
,
00000100
00000100
00000100
00000000
,
00000010
00000010
00000000
00000000
,
00001000
00001000
00001000
00000000
,
00000001
00000001
00000000
00000000
,
00001000
00001000
00001000
00000000
,
00000001
00000000
00000001
00000000
,
00000100
00000000
00000100
00000100
,
00000000
00001000
00000000
00001000
,
00000000
00010000
00000000
00010000
,
00000000
00001000
00000000
00001000
,
00000000
00010000
00000000
00010000
,
00000000
00100000
00000000
00100000
,
00000000
10000000
00000000
10000000
,
00000000
00010000
00000000
00000000
,
10010000
00000000
01000000
01000000
,
00000000
00100000
00100000
00100000
,
00000000
10000000
10000000
10000000
,
00000000
01000000
01000000
01000000
,
01000000
00000000
00010000
00000000
,
00001000
00000000
00010000
00010000
,
00010000
00000000
00001000
00000000
,
00010000
00010000
00010000
00010000
,
00010000
00000000
00000010
00000000
,
00000010
00000000
00000010
00000000
,
00000100
00000000
00000100
00000000
,
00000100
00000000
00000001
00000001
,
00000001
00000000
00001000
00000000
,
00001000
00000000
00001000
00000000
,
00000010
00000000
00000010
00000000
,
00001000
00000000
00001000
00000000
,
00001001
00000000
00000000
00000000
;

//---------------dance-double - ----------------
#NOTES:
     dance-double:
     :
     Easy:
     3:
     :
00000000
00000000
00000000
00000000
,
00000000
00000000
00000000
00000000
,
00000000
00000000
00000000
00000000
,
00000000
00000000
00000000
00000000
,
00000000
00000000
00000000
00000000
,
00010000
00000000
00100000
10000000
,
10000000
00000000
00010000
01000000
,
01000000
00000000
00001000
00010000
,
00010000
00000000
00000010
00001000
,
00001000
00000000
00000001
00000100
,
00000100
00000000
00001000
00000100
,
00000100
00000000
00010000
00000000
,
00001000
00000000
00010000
00001000
,
00100000
00000000
01000000
00000000
,
10000000
00100000
01000000
00000000
,
00010000
00000000
10000000
00000000
,
01000000
10000000
01000000
00000000
,
00010000
00000000
00010000
00000000
,
00001000
00000000
00010000
00001000
,
00010000
00000000
00000100
00000000
,
00000001
00000000
00000010
00000001
,
00001000
00001000
00000010
00000100
,
00000100
00000000
00000000
00000000
,
00001000
00001000
00010000
00001000
,
00001000
00000000
00000000
00000000
,
00100000
00100000
00010000
10000000
,
10000000
00000000
00000000
00000000
,
00100000
00100000
10000000
00010000
,
20000000
30000000
00020000
00030000
,
01000000
00000000
01000000
00000000
,
00100000
00000000
00100000
00000000
,
10000000
00000000
10000000
00000000
,
01000000
00000000
00010000
00010000
,
00001000
00000000
00010000
00000000
,
00010000
00000000
00000010
00000010
,
00001000
00001000
00001000
00000000
,
00000001
00000001
00000001
00000000
,
00001000
00000100
00001000
00000000
,
00010000
00001000
00010000
00000000
,
00100000
00010000
00100000
00000000
,
10000000
00100000
01000000
00010000
,
10000000
01000000
10000000
00000000
,
01000000
00010000
00001000
00000000
,
00010000
00001000
00010000
00000000
,
00001000
00000100
00000010
00001000
,
00000001
00000100
00000000
00000010
,
00000000
00000010
00000000
00000100
,
00001000
00010000
00000000
00001000
,
00010000
00010000
01000000
01000000
,
10000000
00010000
00000000
00100000
,
00000000
00100000
00000000
01000000
,
00010000
00001000
00000000
00100000
,
00001000
00010000
00001000
00020000
,
00000000
00000000
00000000
00030000
;

//---------------dance-double - ----------------
#NOTES:
     dance-double:
     :
     Medium:
     6:
     :
00000000
00000000
00000000
00000000
,
00000000
00000000
00000000
00000000
,
00000000
00000000
00000000
00000000
,
00000000
00000000
00000000
00000000
,
00000000
00000000
00000000
00000000
,
00000001
00001000
00000010
00001010
,
00010000
00000100
00010000
00011000
,
00001000
00100000
00010000
00110000
,
00010000
01000000
00100000
01100000
,
10100000
00000000
01010000
00000000
,
00011000
00000000
00001010
00001001
,
00000110
00000001
00001000
00001001
,
00001100
00000100
00010000
00011000
,
00110000
00000000
11000000
00000000
10000000
01000000
10000000
00000000
,
10010000
00000000
01100000
00000000
00010000
10000000
00010000
00000000
,
00110000
00000000
00011000
00000000
00010000
00000100
00010000
00000000
,
00011000
00000000
00001100
00000000
00000100
00001000
00000100
00000000
,
00001100
00001000
00000010
00000000
00001100
00000000
00000110
00000000
,
00000011
00000001
00000100
00000000
00001100
00000000
00011000
00000000
,
00110000
00010000
01000000
00000000
01100000
00000000
10010000
00000000
,
10100000
10000000
01000000
00000000
11000000
00000000
01010000
00000000
,
00002000
00010000
00010000
00013000
,
00000100
00001000
00000001
00000000
00000001
00001000
00000100
00000000
,
00020000
00001000
00001000
00031000
,
01000000
00100000
10000000
00000000
10000000
00100000
01000000
00000000
,
00020000
00100000
00100000
00130000
,
00001000
00010000
00000100
00000000
00001000
00000100
00000010
00000000
,
00000200
00000010
00000010
00000310
,
00000001
00000010
00000100
00000000
00001000
00000100
00010000
00000000
,
00002000
00010000
00010000
00013000
,
02000000
00100000
00100000
03100000
,
00200000
10000000
10000000
10300000
,
02000000
00000000
00010000
00000000
00010000
00000000
03010000
00010000
,
01010000
00000000
00011000
00000000
,
00001010
00000000
00000101
00000000
,
00000110
00000000
00011000
00000000
,
20020000
00000000
00000000
00000000
30030000
00000000
00000000
10010000
,
10000000
01000000
00010000
00001000
00000010
00000001
00001000
00000000
,
00000100
00010000
00001000
00100000
00010000
00100000
00001000
00000000
,
00100000
00001000
00010000
00000100
00001000
00000100
00000010
00000000
,
00000001
00000100
00001000
00010000
00100000
10000000
00010000
00000000
,
10000000
01000000
00100000
00001000
00010000
00000100
00000010
00000000
,
00000001
00000010
00000100
00001000
00000010
00010000
00001000
00000000
,
00010000
00001000
00100000
00001000
00010000
00000100
00010000
00000000
,
00001000
00100000
01000000
10000000
01000000
00100000
00010000
10000000
,
00120000
00000000
01030000
00000000
00010000
00100000
00001000
00000000
,
00012000
00000000
00103000
00000000
00010000
00000100
00001000
00000000
,
00002010
00000000
00003001
00000000
00000001
00000010
00000100
00000000
,
00002100
00000000
00003010
00000000
00000100
00010000
00001000
00000000
,
00011000
00000000
00011000
00010000
00001000
00100000
00010000
00000000
,
10000000
00000000
01000000
00000000
10000000
00000000
00100000
01000000
,
00010000
01000000
00001000
01000000
,
00001000
00000000
00010000
00000000
00001000
00000000
00010000
00001000
,
00011000
00000000
00000000
00000000
;

//---------------dance-double - ----------------
#NOTES:
     dance-double:
     :
     Hard:
     8:
     :
00000000
00000000
00000000
00000000
,
00000000
00000000
00000000
00000000
,
00000000
00000000
00000000
00000000
,
00000000
00000000
00000000
00000000
,
00000000
00000000
00000000
00000000
,
00002000
00000000
00013000
00000000
00000010
00001000
00000001
00000100
,
00000001
00000000
00000010
00000100
00000000
00000001
00001000
00000000
,
00020000
00000000
00031000
00000000
00100000
00010000
10000000
01000000
,
00200000
00000000
00310000
02000000
00000000
10000000
13000000
00000000
,
01010000
00000000
01001000
00000000
00010000
00001000
00000100
00000001
,
00000100
00001000
00010000
00002000
00000000
00203000
00000000
00310000
,
01000000
00010000
00000000
00100000
00000000
00000000
00000000
00000000
10010000
00000000
00000000
10100000
00000000
00000000
00000000
00000000
,
00010000
01000000
00000000
00010000
00000000
00000000
00000000
00000000
00011000
00000000
00000000
00010100
00000000
00000000
00000000
00000000
,
00010000
00001000
00010000
00000010
00000100
00000010
00000110
00000000
,
00001001
00000000
00000000
00000010
00000000
00000000
00001001
00000000
00000000
00000000
00000100
00000000
00000100
00000000
00000000
00000000
,
00001000
00010000
01000000
10000000
00010000
10000000
00100000
10000000
,
10100000
00000000
00000000
10000000
00000000
00000000
02020000
00000000
00000000
00000000
00000000
00000000
03030000
00000000
00000000
00000000
,
00011000
00000000
00000000
00010100
00000000
00000000
00000000
00000000
00000010
00000000
00000001
00000000
00001000
00000000
00000100
00000000
,
00000010
00000001
00000100
00001000
00000000
00010100
00000000
00022000
,
00000000
00000000
00000000
00033000
,
00001000
00000000
00000000
00010000
00000000
00000000
00100000
00000000
10000000
00000000
00000000
01000000
00000000
00000000
00010000
00000000
,
00001000
00010000
00000000
00000010
00001000
00000000
00000100
00000000
00001100
00000000
00000000
00000012
00000000
00000000
00000000
00000000
,
00001000
00000000
00000000
00000103
00000000
00000000
00000100
00000000
00000101
00000000
00000000
00001100
00000000
00000000
00000000
00000000
,
00010000
00001000
00000000
00100000
00010000
00000000
01000000
00000000
01010000
00000000
00000000
20100000
00000000
00000000
00000000
00000000
,
00100000
00000000
00000000
30010000
00000000
00000000
00100000
00000000
10100000
00000000
00000000
01010000
00000000
00000000
00000000
00000000
,
10000000
01000000
00000000
00010000
00001000
00000000
00010000
00000000
00011000
00000000
00000000
00010020
00000000
00000000
00000000
00000000
,
00010000
00000000
00000000
00001030
00000000
00000000
00001000
00000000
00001100
00000000
00000000
00000011
00000000
00000000
00000000
00000000
,
00000001
00000100
00000000
00001000
00010000
00000000
00001000
00000000
00011000
00000000
00000000
00201000
00000000
00000000
00000000
00000000
,
00001000
00000000
00000000
00310000
00000000
00000000
00010000
00000000
01010000
00000000
00000000
10100000
00000000
00000000
00000000
00000000
,
01000000
00000000
00010000
00000000
00000010
00000010
00000010
00000000
,
00000100
00000000
00001000
00000000
00100000
00100000
00100000
00000000
,
00010000
00001000
00000010
00000110
,
00000101
00000000
00001100
00000000
00001000
00000000
00000100
00010000
,
00001000
00010000
00001000
00100000
,
00010000
00000000
10000000
00000000
01000000
00010000
01000000
10000000
,
00010000
00100000
00001000
00010000
,
00000100
00000000
00001000
00000000
00000001
00000000
00000010
00000100
,
00000110
00000001
00000100
00001000
00010000
00001000
00000010
00000100
,
00001000
00000000
00010000
00000000
01000000
00000000
00100000
00000000
01100000
00000000
00000000
00110000
00000000
00000000
00000000
00000000
,
00100000
10000000
01000000
00010000
00001000
00100000
01000000
00010000
,
00001000
00000000
00000100
00000000
00000001
00000000
00000010
00000000
00000110
00000000
00000000
00000011
00000000
00000000
00000000
00000000
,
00000010
00001000
00001100
00000000
00000010
00000001
00000100
00001000
,
00011000
00000000
00000000
00000000
00110000
00000000
00000000
00000000
10010000
00000000
00000000
11000000
00000000
00000000
00000000
00000000
,
00100000
00010000
01010000
00000000
00100000
10000000
01000000
00010000
,
00011000
00000000
00000000
00000000
00001010
00000000
00000000
00000000
00001001
00000000
00000000
00000101
00000000
00000000
00000000
00000000
,
00000020
00000100
00000130
00001000
00020000
00001000
00031000
00000000
,
01001000
00000000
00000000
00000000
01020000
00000000
00000000
00000000
10000000
00000000
00000000
10030000
00000000
00000000
00000000
00000000
,
00200000
01000000
01300000
00010000
00002000
00010000
00013000
00000000
,
00010010
00000000
00000000
00000000
00002010
00000000
00000000
00000000
00000001
00000000
00000000
00003001
00000000
00000000
00000000
00000000
,
00000011
00001100
00011000
00110000
,
11000000
00000000
00000000
00000000
10100000
00000000
00000000
00000000
01010000
00000000
00000000
00110000
00000000
00000000
00000000
00000000
,
00010000
00100000
10000000
01000000
00010000
00001000
00000100
00000010
,
00001000
00000000
00000100
00000000
00000001
00000000
00001000
00000000
00001001
00000000
00000000
00000220
00000000
00000000
00000000
00000000
,
00000000
00000000
00000000
00000330
;
