#TITLE:Power 4 (subTranced mix);
#ARTIST:DJ Jiggens;
#BANNER:Power 4 (subTranced Mix).png;
#BACKGROUND:Power 4 (subTranced Mix)-bg.png;
#MUSIC:Power 4 (subTranced Mix).ogg;
#SAMPLESTART:163.679;
#SAMPLELENGTH:15;
#DISPLAYBPM:115:226;
#BPMS:0=148.148,8=150,12=149.861,48=149.626,88=151.007,108=149.688,116=150,140=149.856,192=150,200=151.26,204=159.961,208=148.797,212=146.341,216=134.831,220=138.996,224=140.26,236=139.535,244=140.023,284=140.078,308=139.789,316=140.078,344=139.961,380=140.625,384=139.715,396=140.044,400=140.012,500=139.942,532=140.368,540=140.078,560=139.343,572=132.353,573=115.403,579=130.435,589=140.556,591=127.68,597=121.562,599=140.87,608=140.187,613=139.945,661=140.005,693=139.273,709=141.159,717=160.714,718=169.811,719=183.673,720=187.5,721=187.683,722=195.461,723=187.683,724=224.78,725=214.286,727=219.727,728=226.086,733=140.041;
#STOPS:572=1.387;

//---------------dance-single - ----------------
#NOTES:
     dance-single:
     :
     Beginner:
     1:
     :
0000
0000
0000
0000
,
0000
0000
0000
0000
,
0000
0000
0000
0000
,
0010
0000
1000
0000
,
0100
0000
0010
0000
,
0001
0000
1000
0000
,
0100
0000
0010
0000
,
1001
0000
0000
0000
,
0000
0000
0000
0000
,
0001
0000
0010
0000
,
0001
0000
0010
0000
,
1001
0000
0010
0000
,
1001
0000
0100
0000
,
1001
0000
0100
0000
,
0010
0000
0100
0000
,
0010
0000
0001
0000
,
0100
0000
0010
0000
,
1000
0000
0010
0000
,
1000
0000
0100
0000
,
0001
0000
0010
0000
,
0000
0000
0000
0000
,
0100
0000
0010
0000
,
0000
0000
0000
0000
,
0100
0000
0010
0000
,
0000
0000
0000
0000
,
0100
0000
0010
0000
,
0000
0000
0000
0000
,
0100
0000
0001
0000
,
0010
0000
1000
0000
,
0001
0000
0100
0000
,
1000
0000
0100
0000
,
0010
0000
0001
0000
,
0010
0000
1000
0000
,
0001
0000
0010
0000
,
0100
0000
0100
0000
,
1001
0000
0100
0000
,
1000
0000
0010
0000
,
0010
0000
0010
0000
,
1000
0000
0100
0000
,
0001
0000
0010
0000
,
0001
0000
0100
0000
,
0010
0000
0001
0000
,
0110
0000
0000
0000
,
0001
0000
1000
0000
,
0100
0000
0001
0000
,
0110
0000
0010
0000
,
1000
0000
0001
0000
,
0010
0000
1000
0000
,
0010
0000
0100
0000
,
0001
0000
0100
0000
,
0010
0000
0001
0000
,
0002
0000
0000
0003
,
0001
0000
0001
0000
,
2000
0000
0000
3000
,
1000
0000
1000
0000
,
1000
0000
0100
0000
,
0100
0000
0001
0000
,
1000
0000
0001
0000
,
1001
0000
0000
0000
,
0010
0000
0100
0000
,
0001
0000
1000
0000
,
0010
0000
0100
0000
,
1001
0000
0000
0000
,
0010
0000
0000
0000
,
0100
0100
0000
0000
,
0001
0000
1000
0000
,
0010
0000
0000
0000
,
1000
0000
0000
0000
,
0001
0000
0000
0000
,
0010
0000
1000
0000
,
0100
0000
0000
0000
,
1001
0000
0000
0000
,
1001
0000
0000
0000
,
0010
0010
0000
0000
,
0110
0000
0000
0000
,
0010
0000
0000
0000
,
1000
0000
0000
0000
,
0010
0000
0001
0000
,
0001
0000
1000
0000
,
0100
0000
0000
0000
,
0000
0000
0100
0000
,
0100
0000
0000
0000
,
0010
0000
0010
0000
,
0001
0000
1000
0000
,
0010
0000
0100
0000
,
0001
0000
0000
0000
,
1000
0000
0000
0000
,
0010
0000
1000
0000
,
0001
0000
0100
0000
,
0010
0000
1000
0000
,
0010
0000
0000
0000
,
1000
0000
0001
0000
,
1000
0000
0001
0000
,
1000
0000
0100
0000
,
0010
0000
0000
0000
,
0100
0000
0000
0000
,
1001
0000
0000
0000
,
0000
0000
0000
0000
,
0000
0000
0000
0000
,
0010
0000
0000
0000
,
0010
0000
0000
0000
,
0100
0000
0000
0000
,
0100
0000
0000
0000
,
1001
0000
0000
0000
,
0000
0010
0000
0000
,
0001
0000
1000
0000
,
0001
0000
1000
0000
,
0110
0000
0000
0000
,
0000
0100
0000
0000
,
1000
0000
0001
0000
,
0010
0000
0010
0000
,
1000
0000
0100
0000
,
0010
0000
0001
0000
,
0001
0000
0100
0000
,
0010
0000
1000
0000
,
0001
0000
0100
0000
,
0010
0000
1000
0000
,
1000
0000
0100
0000
,
0010
0000
0001
0000
,
1000
1000
0000
0000
,
0001
0001
0000
0000
,
0100
0100
0000
0000
,
0010
0010
0000
0000
,
0001
0001
0000
0000
,
0100
0100
0000
0000
,
1000
1000
0000
0000
,
0010
0010
0000
0000
,
0100
0000
0000
0000
,
0100
0000
0000
0000
,
0100
0000
0000
0000
,
0100
0000
0000
0000
,
0010
0000
0000
0000
,
0010
0000
0000
0000
,
0010
0000
0000
0000
,
0110
0000
0000
0000
,
1000
0000
0100
0000
,
0010
0000
0001
0000
,
1000
0000
0100
0000
,
0010
0000
0001
0000
,
0001
0000
0100
0000
,
0010
0000
1000
0000
,
0001
0000
0100
0000
,
0010
0000
1000
0000
,
0100
0000
0000
0000
,
1000
0000
0000
0000
,
0001
0000
0000
0000
,
0100
0000
0000
0000
,
0001
0000
0000
1000
,
0000
0000
0000
0100
,
0000
0000
0000
1000
,
0000
0000
0000
0001
,
0000
0010
0000
0010
,
0000
0010
0000
0000
,
0000
1000
1000
1000
,
1000
0000
0100
0000
,
0001
0000
0100
0000
,
1000
0000
1000
0000
,
1000
1000
0000
0100
,
0000
1000
0000
1001
,
0000
0001
0000
0100
,
0000
0001
0000
1001
,
0000
1000
0000
0100
,
0000
1000
0000
1001
,
0000
0001
0000
0100
,
0000
0001
0000
1001
,
0000
1000
0000
0010
,
0000
1000
0000
1000
,
0000
1001
0000
0010
,
0000
0100
0000
0100
,
0000
1000
0000
0010
,
0000
1000
0000
1000
,
0000
1001
0000
0010
,
0000
0100
0000
0100
,
0000
0100
0100
0100
,
0100
0000
0010
0010
,
0010
0000
1000
1000
,
1000
0000
0001
0001
,
0001
0000
0000
0000
,
0000
0100
0100
0100
,
0100
0000
0100
0000
,
0100
0000
0100
0000
,
0100
0000
0100
0000
,
0100
0000
0000
0000
,
0000
1001
0000
0000
;

//---------------dance-single - ----------------
#NOTES:
     dance-single:
     :
     Easy:
     3:
     :
0000
0000
0000
0000
,
0000
0000
0000
0000
,
0000
0000
0000
0000
,
0020
0000
2030
3000
,
0200
0000
0320
0030
,
0002
0000
2003
3000
,
0200
0000
0320
0030
,
2002
0000
0000
0000
,
0000
0000
0003
3000
,
0001
1000
0010
0100
,
0001
1000
0010
0100
,
1001
0000
0010
0100
,
1001
0000
0100
0010
,
1001
0000
0100
0001
,
1010
0000
0100
0001
,
0020
0001
0001
0030
,
0200
0010
0010
0300
,
2000
3100
0020
0031
,
2000
3020
0230
0300
,
0001
1000
0020
0000
,
0000
0000
0000
0030
,
0100
0001
0020
0000
,
0000
0000
0000
0030
,
0100
1000
0020
0000
,
0000
0000
0000
0030
,
0100
0001
0020
0000
,
0000
0000
0000
0030
,
0100
1000
0002
0003
,
0010
0100
2000
3000
,
0001
0010
0200
0300
,
1000
0001
0200
0300
,
0010
1000
0002
0003
,
0010
0100
2000
3000
,
0002
2003
3020
2030
,
3200
1300
0100
0010
,
1001
0001
0100
0010
,
1000
0100
0020
0031
,
1010
0001
0010
0100
,
1000
0001
0200
0301
,
0101
0100
0010
1000
,
0001
0010
0100
1000
,
0010
0100
0001
1000
,
0220
0000
0000
0330
,
0002
0003
1000
0010
,
0200
0300
0001
1000
,
0220
0330
0010
0100
,
2000
3000
0001
0100
,
0020
0030
1000
0001
,
0020
0030
0100
1000
,
0002
0023
0230
2300
,
3020
0230
0302
1003
,
2002
0000
0000
0000
,
0000
0000
0000
3003
,
0001
0000
0100
0000
,
1000
0000
0010
0000
,
1000
0000
0100
0000
,
0100
0000
0001
0000
,
1000
0000
0001
0000
,
2002
0000
0000
3003
,
0010
0000
0100
0000
,
0001
0000
1000
0000
,
0010
0000
0100
0000
,
2002
0000
0000
3003
,
0010
0000
0000
0000
,
0100
0100
0000
0000
,
0001
0000
1000
0000
,
0010
0000
0000
0000
,
1000
0000
0000
0000
,
0001
1000
0000
0000
,
0010
0000
1000
0000
,
0200
0000
0300
0000
,
1001
0000
0000
0000
,
1001
0000
0000
0000
,
1000
0001
1000
0000
,
0220
0000
0330
0000
,
0010
0000
0000
0000
,
1000
0000
0000
0000
,
0010
1000
0001
0000
,
0001
0000
1000
0000
,
0020
0000
0000
0000
,
0100
0000
0100
0030
,
0200
0000
0000
0000
,
0010
0000
0310
0000
,
0001
0000
1000
0000
,
0010
0000
0100
0000
,
0002
0000
0000
0003
,
2000
0000
0000
3000
,
0010
0000
1000
0000
,
0001
0000
0100
0000
,
0010
0000
1000
0000
,
0020
0000
0000
0030
,
1000
0000
0001
0000
,
1000
0000
0001
0000
,
1000
0000
0100
0000
,
0020
0000
0000
0030
,
0200
0000
0000
0300
,
2002
0000
0000
0000
,
0000
3003
0000
0000
,
1000
0000
0001
0000
,
0010
0001
1000
0000
,
0010
1000
0001
0000
,
0100
0001
1000
0000
,
0100
0000
1000
0001
,
0010
0000
0100
0000
,
0000
1000
0010
0100
,
0001
0000
0010
0100
,
1000
0000
0001
0100
,
0010
0000
0001
0000
,
0000
0010
0100
1000
,
0100
0000
0010
0000
,
0000
0001
0010
0100
,
0010
0000
0100
1000
,
0001
0000
0100
0010
,
1000
0000
0100
0010
,
1000
0000
0001
0100
,
0010
1000
0100
0000
,
0010
0001
0100
0000
,
0001
0010
0100
0000
,
1000
0010
0100
0000
,
0000
0001
0001
1000
,
0000
1000
1000
0001
,
0000
0010
0010
0100
,
0000
0100
0100
0010
,
0001
0100
0010
1000
,
1000
0100
0010
0001
,
0001
0100
0001
1000
,
1000
0100
1000
0001
,
0010
0000
0000
0000
,
0010
0000
0000
0000
,
0100
0000
0000
0000
,
0100
0000
0010
0000
,
0001
0000
1000
0001
,
1000
0000
0001
1000
,
0010
0000
0100
0010
,
0100
0010
0010
0100
,
0001
1000
0100
0010
,
0000
0001
0100
0010
,
1000
0001
0100
0010
,
0000
1000
0100
0010
,
0001
0100
0010
1000
,
1000
0010
0100
0001
,
1000
0100
0010
0001
,
0001
0010
0100
1000
,
1001
0000
0000
0000
,
0000
0000
0000
0000
,
0001
0100
0000
0000
,
0000
0000
0000
0000
,
0000
0010
0000
1000
,
0000
0100
0000
0010
,
0000
0001
0000
1000
,
0000
0001
0000
0100
,
0000
0010
0000
0010
,
0000
0010
0000
0010
,
0000
1000
1000
1000
,
1000
0000
0000
0000
0100
0000
0000
0000
0100
0000
0000
0000
0000
0010
0000
0010
,
0000
0001
0001
0001
,
0001
0000
0000
0000
0100
0000
0000
0000
0100
0000
0000
0000
0000
0010
0000
0010
,
0000
1000
0100
0100
,
0100
0000
0000
0000
0010
0000
0000
0000
0001
0000
0000
0000
0000
0001
0000
0001
,
0000
1000
0100
0100
,
0100
0000
0000
0000
0010
0000
0000
0000
0001
0000
0000
0000
0000
0001
0000
0001
,
0000
1000
0100
0100
,
0100
0000
0000
0000
0010
0000
0000
0000
0001
0000
0000
0000
0000
0001
0000
0001
,
0000
1000
0100
0100
,
0100
0010
0010
0001
,
0001
1000
0100
0010
,
0001
1000
0010
0100
,
0010
1001
0100
0010
,
0001
0100
1000
0100
,
0010
1001
0010
1000
,
0100
0010
0001
0100
,
0010
1001
0001
1000
,
0100
0010
0001
0100
,
0010
0100
0100
0100
,
0100
0010
0010
0010
,
0010
1000
1000
1000
,
1000
0001
0001
0001
,
0001
1001
0000
0000
,
0000
0100
0100
0100
,
0100
1000
0100
0010
,
0001
1000
0010
0100
,
0001
1000
0001
0010
,
0100
0000
0000
0000
,
0000
1001
0000
0000
;

//---------------dance-single - ----------------
#NOTES:
     dance-single:
     :
     Medium:
     6:
     :
0000
0000
0000
0000
,
0000
0000
0000
0000
,
0000
0000
0000
0000
,
0200
0010
2300
3000
,
0020
1000
0230
0300
,
0002
1000
0023
0030
,
0002
0100
2003
3000
,
0100
0010
0200
0000
1300
0001
0100
0000
,
0010
0100
0020
0000
1030
0001
0100
0000
,
0010
0000
1000
0000
0001
0010
0100
0000
,
1000
0000
0001
0000
0010
0100
0100
0000
,
2000
0000
3001
0000
0010
0100
0010
0000
,
0200
0000
0310
0000
0001
1000
0100
0000
,
2000
0000
3001
0000
0010
0001
0100
0000
,
0200
0000
0310
0000
1000
0010
0100
0000
,
0002
0000
0010
0010
0010
0000
0003
0000
,
0200
0000
1000
1000
1000
0000
0300
0000
,
0002
0010
0013
0000
0200
1000
1300
0000
,
0010
0010
1000
1000
0001
0001
1001
0000
,
0010
0001
0010
0002
0000
0000
0000
0000
,
0000
0000
0000
0003
,
1000
0100
1000
0200
0000
0000
0000
0000
,
0000
0000
0000
0300
,
0010
0001
0010
0002
0000
0000
0000
0000
,
0000
0000
0000
0003
,
1000
0100
1000
0200
0000
0000
0000
0000
,
0000
0000
0000
0300
,
0002
0013
0000
0002
0000
0000
0003
0000
,
0020
0130
0000
0020
0000
0000
0030
0000
,
0200
1300
0000
0020
0000
0000
0030
0000
,
2000
3001
0000
2000
0000
0000
3000
0000
,
0001
1000
0001
2000
0000
0000
3000
0000
,
0010
1000
0001
0020
0000
0000
0030
0000
,
0100
1000
0002
0000
0013
0001
2000
0000
,
3100
1000
0200
0000
0310
0001
2000
0000
,
3001
0000
1000
0001
2000
0000
3001
0000
,
0010
0000
0001
1000
0200
0000
0310
0000
,
0001
0000
1000
0001
2000
0000
3001
0000
,
0100
0000
0001
1000
0020
0000
0130
0000
,
0001
0000
1000
0001
2000
0000
3001
0000
,
0010
0000
0001
1000
0200
0000
0310
0000
,
0001
0000
1000
0001
2000
0000
3001
0000
,
2002
0000
0000
3003
,
0200
0000
1300
1000
0002
0000
0013
0000
,
0200
0000
1300
1000
0020
0000
0130
0000
,
0002
0000
1003
1000
0020
0000
0130
0000
,
0002
0000
0013
0010
0200
0000
1300
0000
,
0001
0000
1000
0001
2000
0000
3001
0000
,
0100
0000
0001
1000
0020
0000
0130
0000
,
0002
0000
0000
0003
2000
0000
0000
3000
0200
0000
0000
0300
1000
0000
0001
0000
,
0020
0000
0000
0030
0002
0000
0000
0003
0200
0000
0000
0300
0001
0000
1000
0000
,
0200
0300
0002
0003
,
0200
0300
2000
3000
,
0020
0030
0002
0003
,
0020
0030
2000
3000
,
0002
0103
0010
1000
0200
0000
0300
0020
,
0000
0031
0100
0010
1000
0100
0010
0002
,
0000
0103
0010
1000
0200
0000
0310
0002
,
0000
0000
0000
0003
0000
0100
0010
2000
,
0000
3100
0010
0001
0100
0000
0010
2000
,
0000
3100
0010
0001
0100
0010
1000
0200
,
0000
0310
0100
1000
0002
0000
0023
0000
,
0230
0000
0300
0000
,
0010
0000
0001
0200
0000
0000
0300
0000
,
0000
0000
0000
0020
0000
1030
0001
0100
,
0002
0000
1003
0200
0000
0320
0000
0032
,
0000
0000
0000
0003
0000
1000
0100
0010
,
0002
0000
1003
0200
0000
0000
0000
0300
,
0000
0000
0000
0020
0000
0031
0100
0010
,
2000
0000
3100
0020
0000
0032
0000
0203
,
0000
0000
0000
0300
0000
0000
0010
0100
,
0001
1000
0100
0020
0000
0030
0001
0100
,
0010
1000
0100
0020
0000
0030
0001
0100
,
0020
0000
2030
0000
3100
0010
0001
0200
,
0000
0000
0000
0300
0000
0000
0010
1000
,
0100
0000
0000
0010
0001
0000
0200
0000
0000
0000
0300
0000
0010
0000
1000
0000
,
0100
0000
0000
0010
0001
0000
2000
0000
0000
0000
3000
0000
0010
0000
0100
0000
,
0002
0000
1003
2000
0000
3000
0100
0020
,
0000
0032
0000
0203
0000
0320
0000
1030
,
1000
0000
0000
0001
0000
0000
0200
0000
0000
0000
0000
0000
1000
0000
0000
0000
,
0000
0000
0000
0000
0010
0000
0000
0000
0301
0000
0000
0010
0000
0000
0100
0000
,
0000
2000
0000
0000
0000
3000
0000
0002
,
0000
0000
0000
0203
0000
0310
1000
0100
,
0010
0000
0000
0001
0000
0000
1000
0000
0200
0000
0000
0000
0300
0000
0010
0000
,
0010
0000
0000
0001
0000
0000
0100
0000
0010
0000
0000
1000
0000
0000
0200
0000
,
0000
0000
1000
0000
0000
1000
0000
0000
1000
0000
0000
1000
0000
0000
1300
0000
,
0011
0000
1100
0000
1001
0000
0000
0200
,
0000
0310
1000
0100
0020
0000
0031
0200
,
0000
0310
1000
0100
0010
0000
0001
0200
,
0000
0310
1000
0100
0020
0000
0031
0200
,
0000
0000
0000
0300
0000
0010
1000
0200
,
0000
0310
0001
0100
0010
0000
1000
0200
,
0000
0310
0001
0100
0010
1000
0100
0010
,
0001
1000
0100
0020
0000
0031
0100
0010
,
2000
0200
3300
0010
,
2002
0000
0000
0003
,
0020
0000
0000
0030
,
0200
0000
0000
3300
,
0101
0000
0000
1001
0000
0000
1100
0000
,
0001
0000
1000
0100
1000
0000
0000
0000
,
1000
0000
0001
0100
0001
0000
0000
0000
,
0010
0000
0001
1000
0001
0000
0000
0000
,
0100
0000
1000
0001
1000
0000
0010
0100
,
0001
0000
0000
1000
0100
0000
0000
0000
,
0000
0010
0001
1000
,
0010
0000
0100
0000
0001
1000
0100
0000
,
0010
0000
0100
0000
1000
0001
0100
0010
,
1000
0000
0000
0001
0100
0000
0000
0000
,
0000
0010
1000
0001
,
0100
0000
0000
0010
1000
0000
0000
0000
,
0000
0001
0100
0001
0000
1000
0100
1000
,
0010
0000
1000
0100
0000
0010
0001
0000
,
0100
0000
0010
1000
0000
0001
0100
0000
,
0010
0000
1000
0100
0000
0001
0100
0000
,
0100
0000
0001
0010
0000
1000
0010
0000
,
1000
0000
0001
0100
0000
0010
1000
0100
,
1000
0000
0001
0010
0000
0100
1000
0001
,
0001
0000
1000
0100
0000
0010
0001
0100
,
0001
0000
1000
0010
0000
0100
0001
1000
,
0010
0100
0000
0001
0100
0000
0001
0000
,
0010
0100
0000
1000
0100
0000
1000
0000
,
0001
0100
0000
0010
0100
0000
0001
0000
,
1000
0100
0000
0010
0100
0000
1000
0000
,
0010
0100
0000
0001
0100
0001
0000
1000
,
0100
1000
0000
0010
0100
0010
0000
1000
,
0001
1000
0000
0001
0010
0001
0000
1000
,
0010
1000
0000
0001
1000
0100
0000
0010
,
0001
0001
0001
0000
,
1000
1000
1000
0000
,
0001
0000
0001
1000
0001
0000
0010
0000
,
1000
0000
1000
0001
1000
0000
0010
0000
,
0100
0000
0001
0000
0000
1000
0100
1000
,
0010
0000
1000
0000
0000
0001
0010
0001
,
1000
0100
1000
0000
0001
0100
0001
0000
,
1000
0010
1000
0000
0001
0010
0001
0010
,
0100
1000
0000
1000
0001
0000
0001
0100
,
0000
0001
0000
0001
1000
0000
1000
0100
,
0000
1000
0000
1000
0010
0000
0010
0100
,
0000
0001
0000
0001
0010
0000
0010
0100
,
0000
1000
0001
1000
0100
0000
0010
0000
,
0000
0001
1000
0001
0100
0000
0010
0000
,
0000
1000
0100
0010
0001
0000
0100
0000
,
0000
0001
0100
0010
1000
0000
0100
0000
,
1001
0000
0000
0000
,
0000
0000
0000
0000
,
0001
1000
0000
0100
,
0000
0000
0000
0000
,
0000
1000
0010
0100
,
0000
0001
0010
0100
,
0000
1000
1000
1000
,
0000
0001
0001
0001
,
0000
1000
0000
0001
,
0000
1000
0010
0100
,
0001
1000
1000
1000
,
1000
0100
0010
0000
0010
0000
0010
0000
,
0010
0001
1000
0000
1000
0000
1000
0000
,
1000
0010
0100
0000
0100
0000
0100
0000
,
0100
0001
0010
0100
1000
0000
0010
0100
,
0001
0000
1000
0100
0001
0100
1000
0100
,
0001
0000
1000
0010
0100
0000
0001
0010
,
0100
0000
1000
0010
0001
0010
1000
0010
,
0001
0000
1000
0001
0100
0000
1000
0001
,
0100
0000
0010
1000
0010
0001
0010
1000
,
0100
0000
0010
0001
0100
0000
0010
1000
,
0100
0000
0010
0001
0100
1000
0100
0001
,
0010
0000
1000
0000
1000
0100
1000
0100
,
0010
0000
0001
0000
0100
0010
1000
0001
,
0010
0000
0100
0000
0100
1000
0100
1000
,
0001
0000
0100
0000
0010
1000
0001
0010
,
0100
0000
1000
0000
0001
0100
0001
0100
,
0010
0000
1000
0000
0100
0010
0001
0100
,
0010
0000
1000
0000
1000
0100
1000
0100
,
0010
0000
0001
0000
1000
0010
0100
0001
,
1000
0100
0100
0100
,
0100
0010
0001
0000
0001
0000
0001
0000
,
0001
0100
0010
0000
0010
0000
0010
0000
,
0010
1000
0001
0000
0001
0000
0001
0010
,
0100
1000
0001
0000
0000
0000
0000
0000
,
0000
0100
0100
0100
,
0100
0001
0100
1000
,
0100
0001
0010
1000
,
0010
0001
1000
0010
,
0100
0000
0000
0000
,
0000
1001
0000
0000
;

//---------------dance-single - ----------------
#NOTES:
     dance-single:
     :
     Hard:
     9:
     :
0000
0000
0000
0000
,
0000
0000
0000
0000
,
0000
0000
0000
0000
,
0010
0010
1000
0001
0100
0010
1000
0100
,
0010
0100
1000
1000
0100
0010
0001
1000
,
0002
2003
3200
0320
,
0032
0100
0103
0000
2000
0100
3100
0000
,
0100
0100
0001
1000
0010
0100
0001
0010
,
0100
0010
0001
0001
0010
0100
1000
0001
,
2000
3002
0023
0230
,
2300
0010
3010
0000
0002
0010
0013
0000
,
0010
0010
0001
1000
0010
0100
0010
0000
,
0100
0010
0100
0001
1000
0100
0010
0001
,
0100
0100
0010
1000
0001
0010
0100
0000
,
0010
0100
1000
0001
0100
0010
0010
0000
,
0100
0001
0010
0001
0010
0001
0010
0100
,
1000
0010
1000
0010
1000
0010
0100
0001
,
1000
0100
1000
0010
0100
0001
0100
0010
,
1000
0100
0010
0001
1000
0100
0010
0001
,
0202
0000
0000
0000
,
0000
0000
0000
0303
,
2002
0000
0000
0000
,
0000
0000
0000
3003
,
2200
0000
0000
0000
,
0000
0000
0000
3300
,
0220
0000
0000
0000
,
0000
0000
0000
0330
,
1002
0100
0000
1000
0000
0010
0000
1000
,
0000
0100
0000
0010
0000
0103
0101
0000
,
2001
0100
0000
0001
0000
0010
0000
3001
,
1001
0200
0000
0310
1010
0002
0000
0013
,
0210
1000
0000
0010
0000
0001
0000
1000
,
0000
0001
0000
0010
0000
0001
0000
1300
,
1002
0100
0000
0013
2001
0100
0000
3010
,
2002
0000
0000
0000
0000
0000
0000
0000
3003
0000
0000
0001
1000
0000
0010
0000
,
0100
0001
0100
0010
1000
0100
0010
0000
,
0100
1000
0001
0100
0010
1000
0100
0100
,
1000
0010
1000
0001
0010
0100
1000
0000
,
0010
1000
0100
0010
0001
0100
0010
0010
,
1000
0100
1000
0010
0100
0001
0010
0000
,
0001
0100
0010
1000
0100
1000
0010
0010
,
0100
0001
0100
0010
1000
0100
0001
0000
,
0100
1000
0010
0000
0001
0010
1000
0000
,
0001
0010
0100
0010
0001
1000
0100
0010
,
0001
0100
0010
0100
0001
1000
0010
0100
,
0001
0010
0100
0010
0001
0100
0010
1000
,
0001
0100
0010
0100
0001
0010
0100
1000
,
0010
0001
0010
0001
0010
0001
0010
1000
,
0100
0001
0100
0001
0100
0001
0100
1000
,
0001
0100
1000
0100
0001
0100
1000
0100
,
0001
0010
1000
0010
0001
0010
1000
0010
,
2002
0000
0000
0000
,
0000
0000
0000
0000
0000
0000
0000
0000
3000
0000
0000
0000
0000
0000
0000
0100
,
0003
0200
0000
0000
0000
0000
0000
1300
0000
2000
0000
0000
0000
0000
0000
3100
,
0000
0200
0000
0000
0000
0000
0301
0000
0002
0000
0000
0000
0000
0000
1003
0000
,
1000
0000
0010
0000
0100
0000
0010
0000
1000
0100
0000
0010
0001
0000
0100
0000
,
0001
0000
0010
0000
0100
0000
1000
0000
0010
0100
0000
0001
0010
0000
0100
0000
,
0001
1000
0010
0100
0001
0000
1000
0010
,
0000
0100
0000
0000
0010
1000
0000
0000
0000
0001
0010
0000
0100
0000
0100
0000
,
1000
0000
0100
0000
0010
0000
0001
0000
0100
0010
0000
0000
1000
0000
0100
0000
,
0010
0000
0001
0000
0100
0000
0010
0000
1000
0100
1000
0000
0001
0000
0100
0000
,
0010
0100
0001
1000
0100
0000
0010
0001
,
0000
0100
0000
0000
0010
0000
0000
0100
0000
0000
0001
0000
1000
0000
0100
0000
,
0001
0000
0000
0000
0010
0000
0100
0000
0000
0000
1000
0000
0000
1000
0000
0000
,
0000
0100
0000
0010
0000
0001
1000
0010
,
1000
0000
0100
0010
0000
0001
0000
1000
,
0000
0000
0010
0000
0000
0100
0000
0000
0001
0000
0000
0100
0000
0000
0010
0000
,
0001
0000
0000
0000
1000
0000
0010
0000
0000
0000
0100
0000
0000
0100
0000
0000
,
0000
0001
0000
0010
0000
0000
0100
0000
0000
0000
0010
0000
0001
0000
0010
0000
,
0100
0000
1000
0010
0000
0100
0000
0001
,
0000
0000
0010
0000
0010
0000
0000
0000
0100
0000
0000
1010
0000
0000
1100
0000
,
0011
0000
0000
1001
0000
0000
1100
0000
0000
0110
0000
0000
1000
0000
1000
0000
,
0011
0000
0000
0110
0000
0000
1100
0000
0000
1001
0000
0000
0100
0000
0100
0000
,
0010
0001
0010
0000
0100
1000
0100
0010
,
0000
0000
0101
0000
0000
1010
0000
0000
1100
0000
0000
0101
0000
0000
0011
0000
,
0100
0000
0000
0010
1000
0000
0001
0000
0000
0000
0100
0000
0100
0000
0100
0000
,
0010
0000
0000
1000
0100
0000
0010
0000
0000
0000
0001
0000
0001
0000
1000
0000
,
0010
0000
1000
0100
0000
0000
0100
0001
,
0000
0010
0000
0001
0000
0100
0000
0010
,
0000
2002
0000
3003
,
1000
0000
0100
0000
0010
0000
0001
0000
0100
0000
0000
0010
0000
0000
1000
0000
,
0000
0000
0200
0000
0000
0000
0000
0000
0000
0000
0000
0000
0300
0000
0010
0002
,
0000
0000
0003
0100
0000
0010
1000
0100
,
0010
0100
0000
0001
0100
0000
0010
0000
1000
0000
0100
0000
0000
0000
0010
0000
,
0001
1000
0000
0100
0010
0000
0001
0000
1000
0000
0000
0100
0000
0000
0010
0000
,
0000
0000
1000
0000
0000
0100
0000
0000
0010
0000
0000
0001
0000
0000
0100
0000
,
0010
1000
0001
0100
0010
1000
0100
0010
,
0001
0100
0001
0000
1000
0000
1000
0000
0000
0010
0100
0000
0001
0000
0001
0000
,
1000
0000
0100
0000
0010
0000
0001
0000
0100
0010
0100
0000
0001
0000
0001
0000
,
1000
0100
1000
0000
0010
0000
0010
0000
0100
0001
0100
0000
0001
0000
0001
0000
,
0000
0000
1000
0000
0000
0001
0000
0100
0000
0010
1000
0000
0100
0000
0100
0000
,
0010
1000
0010
0000
0100
0000
0100
0000
0001
0100
0000
0000
0010
0000
0010
0000
,
1000
0001
1000
0000
0100
0000
0100
0000
0010
0001
0000
0000
0100
0000
0100
0000
,
0010
0000
0001
0000
0100
0000
0010
1000
0000
0001
0100
0000
0010
0000
0010
0000
,
1000
0100
1000
0000
0001
0000
0000
0100
0010
0000
1000
0000
0000
0001
0000
0000
,
1000
0100
0000
0011
0000
0000
0001
0100
0000
1010
0000
0000
1000
0000
0100
0000
,
2002
0000
0000
3003
,
0202
0000
0000
0303
,
0022
0000
0000
0000
0000
0000
0033
0000
0000
1000
0100
1000
0000
1000
0000
0000
,
0010
0000
0000
0001
1000
0000
0100
0000
0100
0000
0000
0000
0000
0000
0000
0000
,
0010
0000
0000
1000
0001
0000
0100
0000
0100
0000
0000
0000
0000
0000
0000
0000
,
0100
0000
0000
0001
1000
0000
0010
0000
0010
0000
0000
0000
0000
0000
0000
0000
,
1000
0001
0000
0100
0000
0100
0001
0000
0001
1000
0000
0100
1000
0000
0001
0000
,
0020
0000
0000
0000
0030
0000
0001
0100
0002
0000
0000
0000
0000
0000
0000
0000
,
0003
2000
3002
0203
,
0310
1000
0010
0000
0100
0001
0100
0000
,
0010
1000
0100
0001
0100
1000
0010
0100
,
0001
0000
0000
0000
0000
0000
1000
0100
2000
0000
0000
0000
0000
0000
0000
0000
,
3000
0002
0203
0320
,
2030
0000
3000
0001
0200
0000
0000
0000
,
0300
0010
1000
0001
0100
0010
1000
0100
,
1000
0000
0000
1000
0100
0000
0010
0000
0000
0010
0001
0000
0100
0000
0100
0000
,
0001
0000
0000
0001
0100
0000
0010
0000
0000
0010
1000
0000
0100
0000
0100
0000
,
0010
0000
0000
0010
0001
0000
1000
0000
0000
1000
0100
0000
1000
0000
0100
0000
,
0010
0000
0000
0010
1000
0000
0001
0000
0000
0001
0100
0000
0001
0000
0100
0000
,
0010
0000
0000
0010
0100
0000
0001
0000
0000
0001
1000
0000
0100
0000
0100
0000
,
0010
0000
0000
0010
0100
0000
1000
0000
0000
1000
0001
0000
0100
0000
0100
0000
,
0010
0000
0000
1000
0100
0000
0010
0000
0000
0001
0100
0000
0010
0000
0010
0000
,
1000
0100
0000
0000
0010
0000
0010
0000
0001
0100
0000
0000
0010
0000
0010
0000
,
0000
0000
1000
0000
0000
0100
0000
0000
0010
0000
0001
0000
0000
0100
0000
0100
,
0000
0000
0001
0000
0000
0100
0000
0000
0010
0000
0000
1000
0000
0100
0000
0100
,
0000
0000
0010
0000
0000
0100
0000
0000
1000
0000
0000
0001
0000
1000
0000
1000
,
0000
0000
0010
0000
0000
0100
0000
0000
0001
0000
0000
1000
0000
0001
0000
0001
,
0000
0000
1000
0100
0000
0100
0000
0000
0010
0001
0000
0001
0000
0100
0000
0100
,
0000
0000
0001
0100
0000
0100
0000
0000
0010
1000
0000
1000
0000
0100
0000
0100
,
0000
0000
0010
0001
0000
1000
0000
0000
1000
0100
0000
0010
0000
0001
0000
0001
,
0000
0000
1000
0100
0000
0010
0000
0000
0010
0001
0000
0100
0000
0010
0000
0100
,
0001
0000
0000
0001
1000
0000
1000
0000
0200
0000
0000
0000
0300
0000
0000
0000
,
1000
0000
0000
1000
0001
0000
0001
0000
0200
0000
0000
0000
0300
0000
0000
0000
,
0001
0000
0000
0001
1000
0000
1000
0000
0200
0000
0000
0000
0310
0000
0000
0000
,
1000
0000
0000
1000
0001
0000
0001
0000
0100
0000
0010
0000
0100
0000
0000
0000
,
0001
0100
0000
0000
0100
0010
0000
0000
0010
1000
0000
0000
1000
0001
0000
0000
,
0001
0010
0000
0000
0010
0100
0000
0000
0100
1000
0000
0000
1000
0001
0000
0000
,
1000
0100
0010
0001
0100
0010
1000
0100
,
0010
0001
0010
0000
0001
0000
0001
0000
1000
0100
1000
0000
0100
0000
0100
0000
,
0010
0000
0001
0000
0000
0100
0000
0000
0010
0000
0000
1000
0000
0100
0000
0100
,
0000
0000
1000
0000
0000
0100
0000
0000
0010
0000
0000
0001
0000
0100
0000
0100
,
0000
0000
0010
0000
0000
1000
0000
0000
0001
0000
0000
1000
0000
0001
0000
0001
,
0000
0000
0010
0000
0000
0001
0000
0000
1000
0000
0000
0001
0000
1000
0000
1000
,
0000
0000
0010
1000
0000
1000
0100
0000
0010
0001
0000
0001
0000
0100
0000
0100
,
0000
0000
0001
0010
0000
0010
0100
0000
0100
1000
0000
1000
0000
0001
0000
0001
,
0000
0000
0100
0010
0000
0010
1000
0000
1000
0001
0000
0001
0000
0100
0000
0100
,
0000
0000
0001
0010
0000
0010
0100
0000
0100
1000
0000
1000
0001
0000
0001
0000
,
1001
0000
0010
0100
0010
0100
0010
0100
,
0010
0100
0010
0000
0000
0000
1000
0000
,
0001
0000
0100
0000
0000
0010
1000
0000
,
0000
0000
0000
0000
,
0000
0000
0001
0000
0000
0000
0010
0100
,
0000
1000
0000
0000
0010
0000
0000
0000
0000
0000
0000
0000
0100
0000
0000
0000
,
0001
0000
0000
0000
1000
0000
0000
0000
0000
0000
0100
0000
0100
0000
0000
0010
,
0000
0001
0000
0000
0000
0000
0001
0000
,
0000
1000
0000
0010
,
0000
0010
0000
0010
,
0000
0000
0000
0000
1000
0000
0001
0100
0000
1000
0100
0000
0000
0000
0001
0100
,
0000
1000
0100
0000
0000
0000
0001
0100
0000
1000
0100
0000
0010
0000
0001
0000
,
0100
0000
0010
0000
0000
0000
1000
0100
0000
0001
0100
0000
0000
0000
1000
0100
,
0000
0001
0100
0000
0000
0000
1000
0100
0000
0001
0100
0000
0010
0000
1000
0000
,
0100
1000
0100
1000
0001
0000
0100
0000
0010
0000
1000
0000
0001
0000
0010
0000
,
0100
0000
1000
0000
0001
0000
0100
0000
0010
0000
1000
0000
0001
0100
0000
0100
,
0000
0000
0010
1000
0001
0010
0100
1000
,
0001
0000
0100
0000
0010
0000
1000
0000
0001
0000
0010
0000
0100
1000
0000
1000
,
0000
0000
1000
0100
0010
0001
1000
0010
,
0100
0000
0001
0000
1000
0000
0100
0000
0001
0000
0100
0000
1000
0001
0000
0001
,
0000
0000
0010
0100
1000
0001
0100
1000
,
0100
0000
0001
0000
0010
0000
1000
0000
0010
0000
0001
0000
0100
0010
0000
0010
,
0000
0000
1000
0000
0001
0100
0000
0010
1000
0000
0100
0010
0000
0001
1000
0000
,
0010
0000
0100
0000
0001
0010
0000
0100
1000
0000
0010
0100
0000
0001
1000
0000
,
0100
0000
0010
0000
0001
1000
0000
0010
0100
0000
0001
0010
0000
0100
1000
0000
,
0010
0000
0100
0000
0001
0010
0000
0100
1000
0000
0001
0100
0000
0010
1000
0000
,
0100
0000
0010
0000
0001
1000
0000
0100
0010
0000
0001
0100
0000
0010
1000
0000
,
0100
0000
0010
0000
0001
0100
0000
0010
1000
0000
0100
0010
0000
0001
0100
0000
,
0010
0000
1000
0000
0001
0010
0000
0100
1000
0000
0010
0100
0000
0001
1000
0000
,
0100
0000
0010
0000
0001
0100
0000
0010
1000
0000
0100
0010
0000
0001
1000
0000
,
0010
0000
0100
0000
0000
0000
0001
1000
0000
0100
0010
0000
0000
0000
0001
0100
,
0000
0010
1000
0000
0000
0000
0001
0010
0000
0100
1000
0000
0010
0000
0100
0000
,
0001
0010
0100
1000
0100
1000
0100
1000
,
0010
0100
0001
0100
0001
0010
0100
0010
,
0100
1000
0001
0000
0000
1000
0000
1000
,
0000
0001
0000
0001
0000
0010
0000
0010
,
0000
0100
1000
0000
0001
0000
0100
0000
,
0010
1000
0100
0000
1000
0001
1000
0001
,
1000
0000
0010
0100
0010
0100
0010
0100
,
0010
0100
0000
0000
0000
0000
0000
0000
,
0000
2002
0000
0000
,
0000
3003
0000
0000
;
