#TITLE:Power 3 (south beach mix);
#ARTIST:dj nagi;
#BANNER:Power 3 (south beach mix).png;
#BACKGROUND:Power 3 (south beach mix)-bg.png;
#MUSIC:Power 3 (south beach mix).ogg;
#SAMPLESTART:16.41;
#SAMPLELENGTH:15;
#DISPLAYBPM:125:150;
#BPMS:0=127.66,12=128.023,32=127.984,60=128.016,116=127.962,128=128.016,184=127.059,196=126.761,204=127.208,208=125.405,212=127.886,220=126.331,228=127.644,236=126.538,244=127.208,252=127.119,292=127.016,320=125.466,324=127.66,332=141.732,336=130.403,340=136.397,344=135.849,348=136.042,380=136.106,396=135.952,436=135.935,460=136.098,476=136.122,484=135.849,492=132.094,500=150.628,504=141.176,512=142.892,516=142.292,528=136.882,532=141.176,596=141.018,624=141.919,636=141.176,652=141.593,668=141.176,676=140.808;

//---------------dance-single - ----------------
#NOTES:
     dance-single:
     :
     Beginner:
     1:
     :
0000
0000
0000
0000
,
0000
0000
0000
0000
,
0000
0000
0000
0000
,
1000
0000
0001
0000
,
1000
0000
0001
0000
,
1000
0000
0000
0000
,
0010
0000
0000
0000
,
1000
0000
0001
0000
,
1000
0000
0001
0000
,
1000
0000
0000
0000
,
0100
0000
0100
0000
,
0100
0000
0000
0000
,
0010
0000
0010
0000
,
0010
0000
0000
0000
,
0001
0000
0001
0000
,
0001
0000
0000
0000
,
1000
0000
1000
0000
,
1000
0000
0000
0000
,
0110
0000
0000
0000
,
1000
0000
0001
0000
,
0100
0100
0100
0000
,
0001
0000
0000
0000
,
0110
0000
0000
0000
,
1000
0000
0001
0000
,
0100
0100
0100
0000
,
0001
0000
0000
0000
,
1000
0000
0000
0000
,
0010
0000
0010
0000
,
0100
0000
0100
0000
,
0001
0000
0000
0000
,
1000
0000
0000
0000
,
0100
0000
0010
0000
,
0100
0100
0100
0000
,
0001
0000
0000
0000
,
1000
0000
0000
0000
,
0100
0000
0010
0000
,
0100
0100
0100
0000
,
0001
0000
0001
0000
,
0001
0000
0000
0000
,
0100
0000
0100
0000
,
0100
0000
0000
0000
,
0010
0000
0010
0000
,
0010
0000
0000
0000
,
1000
0000
1000
0000
,
1000
0000
0000
0000
,
1001
0000
0000
0000
,
0100
0000
0000
0000
,
0010
0000
0000
0000
,
1000
0000
1000
0000
,
1001
0000
0000
0000
,
0100
0000
0100
0000
,
0100
0000
0000
0000
,
0010
0000
0010
0000
,
0010
0000
0000
1000
,
0000
1000
0000
0001
,
0000
0001
0000
1000
,
0000
1000
0000
0000
,
0010
0000
0000
0000
,
0010
0000
0000
0000
,
0100
0000
0000
0000
,
0100
0000
0000
0000
,
0001
0000
0001
0000
,
0001
0000
0001
0000
,
1000
0000
1000
0000
,
1000
0000
1000
0000
,
0010
0000
0010
0000
,
0100
0000
0000
0000
,
0100
0000
0100
0000
,
0010
0000
0000
0000
,
2000
0000
0000
3000
,
1000
0000
0000
0000
,
0002
0000
0000
0003
,
0001
0000
0000
0000
,
2000
0000
0000
3000
,
1000
1000
1000
1000
,
1000
0000
0000
0000
,
0110
0000
0000
0000
,
0010
0000
0010
0000
,
0100
0000
0100
0000
,
0001
0000
0001
0000
,
1000
0000
1000
0000
,
1001
0000
0000
0000
,
0001
0000
0001
0000
,
1000
1000
1000
0000
,
0100
0000
0100
0000
,
0001
0001
0001
0000
,
0100
0000
0100
0000
,
1000
1000
1000
0000
,
0100
0000
0100
0000
,
0001
0001
0001
0000
,
0100
0000
0100
0000
,
1001
0000
0000
0000
,
0010
0000
0010
0000
,
1001
0000
0000
0000
,
0100
0000
0100
0000
,
1001
0000
0000
0000
,
0010
0000
0010
0000
,
1001
0000
0000
0000
,
0100
0000
0100
0000
,
1000
0000
0000
0110
,
0000
0000
1000
1000
,
1000
0000
0000
0110
,
0000
0000
0001
0001
,
0001
0000
0000
0110
,
0000
0000
0100
0100
,
0100
0000
0000
1001
,
0000
0000
0010
0010
,
0010
0000
1000
0000
,
0100
0000
1000
0000
,
0001
0001
0001
0001
,
0001
0000
0000
0000
,
1001
0000
0100
0000
,
0010
0000
0100
0000
,
1001
0000
0100
0000
,
0010
0000
0100
0100
,
0100
0000
0001
0000
,
1000
0000
0110
0000
,
0100
0000
0001
0000
,
1000
0000
0001
0001
,
0001
0000
0100
0000
,
0010
0000
0100
0000
,
1001
0000
0100
0000
,
0010
0000
0100
0100
,
0100
0000
0000
0000
,
1001
0000
0000
0000
,
0001
0000
0000
0000
,
0100
0000
0000
0000
,
1000
0000
0000
0000
,
0001
0000
0001
0000
,
1000
0000
0010
0000
,
0010
0000
0100
0100
,
0100
0000
0001
0000
,
1000
1000
0000
0000
,
0001
0000
0000
0000
,
0100
0000
0000
0000
,
0010
0000
0000
0000
,
0100
0000
0000
0000
,
0010
0000
1000
0000
,
0010
0000
0000
0000
,
1000
0000
0001
0000
,
1000
0000
0000
0000
,
0100
0000
0000
0000
,
0001
0000
0000
0000
,
0010
0000
0000
0000
,
0100
0000
0100
0000
,
0010
0000
0000
0000
,
0100
0000
0000
0000
,
0001
0000
0000
0000
,
1000
0000
0000
0000
,
1001
0000
0000
0000
,
0110
0000
0000
0000
,
1001
0000
0000
0000
,
1001
0000
0001
0000
,
1000
1000
1000
0000
,
1000
0000
0000
0000
,
0010
0010
0010
0000
,
0010
0000
0000
0000
,
0100
0100
0100
0000
,
0100
0000
0000
0000
,
0001
0001
0001
0000
,
0001
0000
0000
0000
,
1000
0000
0000
0000
,
0100
0000
0000
0000
,
1000
0000
0000
0000
,
0010
0000
0000
0000
,
0001
0000
0000
0000
,
0100
0000
0000
0000
,
0010
0000
0010
0010
,
0010
0000
1000
0000
,
1000
0000
0001
0000
,
1001
0000
0000
0000
;

//---------------dance-single - ----------------
#NOTES:
     dance-single:
     :
     Easy:
     3:
     :
0000
0000
0000
0000
,
0000
0000
0000
0000
,
0000
0000
0000
0000
,
0001
0000
0001
0000
,
1000
0100
0100
1000
,
0100
0000
0100
0000
,
0010
0000
0010
0000
,
0001
0000
0001
0000
,
0100
0001
0001
0100
,
0001
0000
1000
0000
,
1000
0010
0001
0000
,
1000
0100
0001
0001
,
0100
0100
1000
0000
,
0001
0000
1000
0000
,
1000
0010
0001
0000
,
1000
0100
0001
0001
,
0100
0100
1000
0000
,
0010
0001
0100
0000
,
0010
0001
0100
0000
,
0001
0000
0100
0000
,
0010
0000
1000
0000
,
0010
1000
0100
0000
,
0010
1000
0100
0000
,
1000
0000
0100
0000
,
0010
0000
0001
0000
,
1000
0100
0010
0001
,
1000
0100
0010
0001
,
0200
0300
0002
0003
,
2000
3000
0002
0003
,
0100
0001
0100
0000
,
0010
1000
0010
0000
,
0100
0001
0100
0000
,
0020
0000
0000
0030
,
1000
0001
1000
0000
,
0010
0100
0010
0000
,
1000
0001
1000
0000
,
0010
0010
0100
0100
,
0001
0000
1000
0000
,
1000
0010
0001
0000
,
1000
0100
0001
0001
,
0100
0100
1000
0000
,
1000
0000
0001
0000
,
1000
0010
0001
0000
,
1000
0100
0001
0001
,
0100
0100
1000
0000
,
0001
0000
0100
0000
,
0010
0000
1000
0000
,
1000
0100
0010
0001
,
1000
0100
0010
0001
,
0002
0000
0000
0003
,
0001
1000
0001
1000
,
1001
0001
0000
0001
,
0000
1000
0000
1000
,
0001
0100
0000
0100
,
0010
1000
0000
1000
,
0100
0010
0000
0010
,
0001
1000
0000
1000
,
0010
0200
0000
0301
,
1000
0002
0000
0003
,
0010
0200
0000
1300
,
2001
0000
0002
3003
,
1000
0002
0000
0103
,
0010
2000
0000
3000
,
0001
2000
0000
3100
,
0010
0002
0000
0003
,
0100
0000
0110
0000
,
0020
0030
0200
0300
,
1000
0000
1001
0000
,
0002
0003
2000
3000
,
0002
0103
2000
3100
,
0002
0013
2000
3010
,
0001
0100
0001
0100
,
0020
0000
0000
0030
,
0110
0000
0000
0000
,
1000
0100
0010
0001
,
1001
0000
0000
0000
,
0000
0001
0000
0000
0000
0000
0000
0000
,
0001
0100
0010
1000
,
0010
0100
0001
0000
,
1000
0100
0010
0001
,
0010
0100
1000
0000
,
0001
1000
0001
1000
,
0002
2003
3002
1003
,
0010
0000
0000
0000
1000
0001
1000
0000
,
0100
0010
0001
1000
,
0010
1000
0100
0001
,
0000
0000
0000
0000
0001
1000
0001
0000
,
0010
0000
0010
0001
,
0100
1000
0010
0001
,
0100
0000
0001
1000
,
0010
0000
0001
0000
1000
0001
1000
0000
,
0010
0000
0000
0000
,
1000
0000
0000
0000
,
0100
0000
0000
0000
,
0001
1000
0001
1000
,
0010
0000
0000
0000
,
0001
0000
0000
0000
,
0100
0000
0000
0000
,
1000
0000
0000
0000
,
0010
0000
0000
0001
0001
0000
0100
0100
,
0000
0000
0001
1000
,
0010
0000
0000
0001
0001
0000
0100
0100
,
0000
0000
0001
1000
,
0010
0000
0000
1000
1000
0000
0100
0100
,
0000
0000
1000
0001
,
0010
0000
0000
1000
1000
0000
0100
0100
,
0000
0000
1000
0001
,
0010
0000
0000
0001
0001
0000
0100
0100
,
0000
0000
0001
1000
,
0010
1000
0100
0001
,
0010
0000
1000
0001
,
0010
0001
0100
1000
,
0010
1000
0100
0001
,
0010
0000
0100
0000
,
1000
0001
0010
0100
,
1000
0000
0001
0000
,
0010
0001
0100
1000
,
1000
0000
0001
0000
,
0010
0100
1000
0001
,
0100
0000
1000
0000
,
0010
0001
0100
1000
,
0010
0000
0100
0000
,
0001
0000
1000
0000
,
0100
0000
1000
0000
,
0001
0000
1000
0001
,
0010
0000
0100
0000
,
0010
0000
1000
0001
,
0010
0000
0100
0000
,
0010
0000
0001
1000
,
0002
0003
2000
3000
,
0002
0003
2000
3000
,
0020
0030
0200
0300
,
0001
1001
0000
0000
,
1000
0000
0100
0000
,
0010
0000
0100
0100
,
0010
0000
0001
0000
,
1000
0000
0020
0030
,
1000
0000
0001
0000
,
0010
0000
0100
0100
,
0010
0000
0001
0000
,
0100
0000
0020
0030
,
1000
0000
0001
0000
,
1000
0000
0001
0100
,
1000
0000
0001
0000
,
1000
0000
0001
0010
,
1000
0000
0100
0000
,
0010
0000
0100
1000
,
0010
0000
0100
0000
,
0010
0000
0100
0001
,
0020
0000
0030
0010
,
0010
0100
0110
0010
,
0002
0000
0003
1000
,
1001
0001
1001
1000
,
0001
1000
0001
0000
,
2000
0000
3002
0000
,
0103
0010
0100
0000
,
0020
0000
0230
0000
,
0301
0100
0001
0000
,
0200
0000
0302
0000
,
1003
0100
1000
0000
,
0200
0000
2300
0000
,
3001
0010
0100
1000
,
0001
0000
0001
0000
,
0001
0100
0010
1000
,
0100
0000
0100
0000
,
0100
1000
0001
1000
,
0010
0000
0010
1000
,
1010
0000
0100
0001
,
0101
0000
0001
1000
,
1001
0000
0010
0100
,
0220
0000
0000
0330
;

//---------------dance-single - ----------------
#NOTES:
     dance-single:
     :
     Medium:
     5:
     :
0000
0000
0000
0000
,
0000
0000
0000
0000
,
0000
0000
0000
0000
,
0020
0030
2000
3000
,
0100
1000
0010
0001
,
0100
0010
1000
0100
,
0010
0001
0100
0010
,
0001
1000
0100
0001
,
1001
0110
1001
0110
,
1000
0010
1000
0000
0100
0000
0010
0000
,
0001
0100
0010
0100
,
0001
0100
0010
0000
1000
0000
0100
0000
,
0001
0100
1000
0100
,
1000
0010
1000
0000
0100
0000
0010
0000
,
0001
0100
0010
0100
,
0001
0100
0010
0000
1000
0000
0100
0000
,
0001
0100
1000
0100
,
1000
0001
1000
0000
0100
0000
0000
0000
,
0100
0011
1100
0000
,
0010
0000
0100
0000
0001
0100
0001
0000
,
1000
0100
0010
0000
,
0001
1000
0001
0000
0100
0000
0000
0000
,
0100
1010
0101
0000
,
0100
0000
0010
0000
1000
0100
1000
0000
,
0100
0010
0001
0100
,
2000
0000
0000
0000
0000
0000
0000
0000
0000
0000
0000
0000
0000
0000
0000
0000
0100
0000
0000
0000
0000
0000
0000
0000
0000
0000
0000
0000
0000
0000
0000
3000
0200
0000
0000
0000
0000
0000
0000
0000
0000
0000
0000
0000
0000
0000
0000
0000
0001
0000
0000
0000
0000
0000
0000
0000
0000
0000
0000
0000
0000
0000
0000
0000
,
0302
0010
0023
0100
,
0230
1000
2300
0010
,
3010
0000
0100
0000
0100
0001
1000
0000
,
0100
0010
0100
0000
1000
0000
0001
0000
,
1000
0000
0010
0000
0100
0001
0100
0000
,
0010
1000
0010
0000
0100
0000
0001
0000
,
0010
1000
0010
0001
,
0000
0100
0010
0000
1000
0000
0100
0000
,
0001
0000
0100
0000
1000
0010
1000
0000
,
0001
0100
0001
0000
0100
0000
0010
0000
,
0100
1001
0100
1001
,
0100
0001
0010
0100
,
1000
0100
0010
0000
0100
0000
1000
0000
,
0001
0100
0010
0000
0100
0000
0001
0000
,
0100
0010
1000
0000
0100
0000
1000
0000
,
0010
0001
0010
1000
,
0100
0010
1000
0000
0010
0000
0001
0000
,
0100
0010
1000
0000
0100
0000
0010
0000
,
0001
0100
1000
0000
0100
0000
0001
0000
,
0020
0030
0200
0300
,
1000
0100
0001
0100
,
2000
3000
0020
0030
,
0100
0001
0010
0001
,
0200
0001
0010
1300
,
0100
0010
0001
1000
0100
0010
0100
0001
,
1000
0000
0100
0000
1000
1000
0100
0000
,
0001
0000
0010
0000
0001
0001
0010
0000
,
0001
0011
1000
1100
,
0001
0011
1000
1100
,
0001
0101
1000
1010
,
0101
1100
0101
0000
,
0020
1030
0010
0001
,
0200
0000
1300
0000
0010
0001
0100
0000
,
0020
0130
0001
1000
,
1001
0000
0000
0000
0220
0000
0000
0330
,
1002
0013
1000
0100
,
2001
0000
3010
0110
0000
0000
0101
0000
,
1100
0000
0010
0001
0000
0000
0001
0000
,
1000
0100
1000
0100
0001
0010
0100
1000
,
0001
0000
0100
0000
1000
0001
1000
0000
,
0010
1000
0100
0000
0010
1000
0100
0000
,
1000
0000
0100
0000
0001
1000
0001
0000
,
0010
0001
0100
0000
0010
0001
0100
0000
,
1000
0000
0001
0000
1000
0000
0001
0100
,
0010
0100
0010
1000
,
0100
0001
1000
0001
1000
0000
0100
0000
,
1000
0010
0100
0000
0001
0010
0100
0000
,
0110
0000
0000
0000
,
0001
0010
0001
0000
0100
0010
0100
0000
,
0110
0000
0000
0000
,
0000
0000
0000
0000
,
0010
0000
0100
0000
0001
1000
0001
0000
,
0010
0001
0100
0000
0010
0001
0100
0000
,
1000
0000
0001
0000
0100
0010
0100
0000
,
1000
0100
0001
0000
1000
0100
0001
0000
,
0001
0001
0100
0100
0010
0010
1000
0000
,
0110
1001
0110
1001
,
0110
0000
0000
0000
1000
0001
1000
0000
,
0100
0000
0010
0000
0001
1000
0001
0000
,
0010
1000
0100
0110
,
0000
0000
0000
0000
0001
1000
0001
0000
,
0110
0000
0010
0001
,
0100
1000
0010
0001
,
0110
0000
0000
0000
1000
0001
1000
0000
,
0010
0000
0001
0000
0001
1000
0001
0000
,
0010
0001
0100
1000
,
0100
0001
0010
1000
,
0110
0000
0100
1000
,
0001
1000
0001
1000
,
0010
1000
0100
0001
,
0010
0001
0100
1000
,
0110
0000
0100
0001
,
0010
0001
0100
1000
,
0010
0001
0000
0001
0100
0000
0100
1000
,
0000
0000
1000
0001
,
0010
0001
0000
0001
0100
0000
0100
1000
,
0000
0000
1000
0001
,
0010
1000
0000
1000
0100
0000
0100
0001
,
0000
0000
0001
1000
,
0010
1000
0000
1000
0100
0000
0100
0001
,
0000
0000
0001
1000
,
0010
0001
0000
0001
0100
0000
0100
1000
,
0000
0000
1000
0001
,
0010
1000
0100
0001
,
0010
0000
1000
0001
,
0010
0001
0100
1000
,
0010
1000
0100
0001
,
0110
0000
1001
0000
,
0010
0001
0100
1000
,
1000
0000
0001
0000
,
0010
0001
0100
1000
,
0110
0000
1001
0000
,
0010
0001
0100
1000
,
0100
0000
1000
0000
,
0010
0001
0100
1000
,
0010
0000
0100
0000
,
0110
0000
1001
0000
,
0100
0000
1000
0000
,
0110
0000
0010
0110
,
1000
0000
0001
0000
1000
0000
0001
0100
,
0010
1000
0001
1000
,
0100
0000
0001
0000
0100
0000
1000
0001
,
2000
3002
2003
3002
,
0103
0000
0000
0110
0000
0000
1010
0000
,
0101
0000
0000
1001
0000
0000
0011
0000
,
1100
0000
0000
1001
0000
0000
0110
0000
,
1001
2002
0000
3003
,
0100
0000
0010
0100
0010
0000
1000
0001
,
1000
1000
0001
0001
,
0010
0100
1000
0001
,
0200
0000
0000
0000
0010
0010
0310
0000
,
1000
0000
0001
1000
0001
0000
0010
0100
,
0010
0010
0100
0100
,
1000
0010
0100
0001
,
0020
0000
0000
0000
0100
0100
0130
0200
,
0000
0000
0000
0000
,
0300
0100
0100
0100
,
1000
0001
0100
0000
0001
1000
0010
0000
,
1000
0001
0010
0000
0001
1000
0100
0020
,
0000
0000
0000
0000
,
0030
0010
0010
0010
,
0001
1000
0010
0000
1000
0001
0100
0000
,
0001
1000
0100
0000
1000
0001
0010
0000
,
0200
0000
1000
1300
0000
0000
0001
0000
,
1000
0010
0201
0320
,
2030
0000
0100
3100
0000
0000
0010
0000
,
0202
0000
0000
0000
0303
0000
2002
0000
0000
0000
0000
3003
0000
0000
0000
0000
,
0012
0000
1000
0000
,
0103
0000
0110
0000
,
2010
0000
0001
0000
,
3100
0000
0110
0000
,
0021
0000
0100
0000
,
1030
0001
0110
0000
,
1020
0000
0100
0000
,
0031
2002
0000
3003
,
0100
0010
1000
0000
0100
0010
0001
0000
,
1000
0100
0010
0001
,
1000
0010
0100
0000
0001
0010
0100
0000
,
1000
0001
0010
0100
,
1000
0100
0001
0000
0100
1000
0010
0000
,
0001
0010
1000
0100
,
1001
0000
0000
0110
0000
0000
0101
0000
,
1010
0000
0000
1001
0000
0000
1100
0000
,
0011
0000
0001
1001
0000
0010
0110
0000
,
2002
0000
0000
3003
;

//---------------dance-single - ----------------
#NOTES:
     dance-single:
     :
     Hard:
     9:
     :
0000
0000
0000
0000
,
0000
0000
0000
0000
,
0000
0000
0000
0000
0000
0000
0100
1000
,
0010
0000
0010
0000
,
0100
0000
0001
0000
0100
0000
0010
1000
,
0100
0000
0100
0000
,
0010
0000
1000
0000
0010
0000
0001
1000
,
0100
0001
0100
1000
,
0010
1000
0100
0001
0100
0010
0001
0010
,
0100
0000
1000
0000
0010
0100
0001
0000
,
1000
0100
0010
0000
0100
1000
0001
0000
,
0010
0001
0100
1000
0100
0010
1000
0000
,
0100
0010
0001
0010
1000
0010
0001
0000
,
0001
0010
1000
0000
1000
0010
0001
0000
,
0100
0010
1000
0000
0100
0010
0001
0000
,
1000
0010
0001
0010
0100
0001
0100
0000
,
0010
1000
0010
0100
0001
0010
0100
0000
,
1000
0010
0100
0000
0110
0000
1001
0000
,
0001
0100
0010
1000
0100
0000
1100
0000
,
0010
0001
0100
0000
0010
1000
0100
0000
,
1000
0010
0100
0000
0001
0100
1000
0000
,
0001
0010
1000
0000
0001
0000
0100
0000
,
0010
1000
0100
0010
0001
0000
1001
0000
,
0100
0100
0000
1000
0100
0001
0100
0000
,
0010
0001
0100
1000
0100
0001
0100
0000
,
0010
1000
0010
0100
,
0001
0010
0100
1000
,
1000
0100
0010
1000
0100
1000
0001
0100
,
0001
0000
0000
0000
0100
0000
0000
0000
0010
0000
0000
0000
1000
0100
1000
0100
,
1000
0001
0100
0000
0010
0000
0100
0000
,
0001
0010
1000
0010
0001
0000
0100
0000
,
0010
1000
0001
0000
0010
1000
0001
0000
,
0101
0000
1100
0000
0100
0010
0001
0010
,
0000
0000
0110
0000
0010
0001
1000
0000
,
0100
0010
1000
0000
0010
0001
0100
0000
,
0010
1000
0100
0010
,
0001
0010
0001
0010
0100
1000
0100
1000
,
0010
0000
1000
0000
0010
0100
0001
0000
,
1000
0010
0001
0000
0001
0010
1000
0000
,
0100
0010
0001
0010
1000
0010
0100
0000
,
1000
0100
0010
0100
1000
0100
0001
0000
,
0010
0001
0100
0000
0010
1000
0100
0000
,
0001
1000
0100
0000
0001
1000
0100
0000
,
0001
0100
0010
1000
0001
0100
0010
0000
,
1000
0100
0010
0100
1000
0010
0100
0000
,
0010
1000
0001
0000
0010
1000
0001
0000
,
0100
0010
1000
0000
0100
0001
0010
0000
,
0100
1000
0010
0000
0100
0010
0001
0000
,
0100
0010
1000
0000
0100
0000
0010
0000
,
0120
0000
0000
0000
2030
0000
0000
0000
0200
3000
0000
0000
0020
0300
0000
0000
,
0032
0000
0200
0003
2000
0300
3200
0000
0002
0300
2000
0003
3100
1000
0100
1000
,
2100
0000
3010
0000
0001
0010
0100
0000
,
1000
0010
0100
0001
0100
0010
1000
0000
,
0001
1000
0000
0001
0000
0020
0000
0000
0000
0000
0000
0030
1000
0000
0100
0000
,
0001
0000
0000
1000
0000
0000
0010
0000
0001
0200
0000
0000
0000
0000
0300
0000
,
1000
0010
0000
1000
0000
0200
0000
0000
0000
0000
0000
0000
1300
0000
0100
0000
,
0011
0000
1000
0000
0001
0000
0100
0000
0010
0100
0010
0000
1001
0000
0000
0000
,
1000
0000
0000
0100
1000
0000
0000
0000
0001
0000
0100
0000
0010
0000
0000
0000
,
0001
0000
1000
0100
0000
0000
0110
0000
0000
0000
0000
0000
1001
0000
0000
0000
,
0001
0000
0000
0010
0001
0000
0000
0000
0001
0000
0100
0000
0001
0000
0000
0000
,
0001
0010
0100
1000
0002
0200
0000
0303
,
0101
0000
1100
1000
0000
0001
1000
0001
,
0100
0000
0010
1010
0000
0001
0101
0000
,
0101
0000
0001
0100
0000
0000
0110
0000
,
1000
0100
1000
0001
0010
0100
1000
0001
,
2000
0000
3200
0000
0301
0010
0001
0000
,
0001
0010
0001
0010
0000
0000
0100
0000
1000
0010
1000
0010
0000
0000
0100
0000
,
0002
0000
0203
0000
1300
0010
1000
0000
,
1000
0100
1000
0100
0000
0000
0010
0000
0001
0100
0001
0100
0000
0000
0010
0000
,
0200
0000
0000
0000
0010
0000
0000
0000
0301
0000
0000
0000
1000
0100
1000
0100
,
1000
0000
0001
0010
0000
0001
0100
1000
,
0010
1000
0001
0100
0001
0010
1000
0100
,
1000
0000
0000
0000
0000
0010
0000
0000
0000
0000
1000
0000
0000
0000
0000
0000
0001
0000
0000
0000
0000
0100
0000
0000
0000
0000
0010
0000
0000
0000
0000
0000
1000
0000
0000
0000
0000
0100
0000
0000
0000
0000
0010
0000
0000
0000
0000
0000
0001
0000
0000
0000
0000
0000
0000
0000
0010
0000
0000
0000
0000
0000
0000
0000
,
0001
0000
0000
0000
,
1001
0100
0010
1000
0110
0001
0100
0010
,
1001
0000
0000
0000
,
0000
0000
0000
0000
,
1000
0100
0001
0100
1000
0100
0001
0010
,
1000
0010
0001
1000
0100
0000
0000
0000
,
0001
0100
1000
0100
0001
0100
1000
0010
,
0001
0010
1000
0001
0100
0000
0000
0000
,
1000
0100
1000
0002
0203
0302
1003
0000
,
0010
0000
1000
0100
0000
0100
1000
0000
0001
0000
0010
0001
0000
0001
0010
0000
,
0010
1000
0010
0000
0100
0010
0100
0000
,
0100
0001
0100
0001
1000
0001
1000
0000
,
0010
0000
1000
0000
0100
0010
0100
0000
,
0001
0000
0000
0000
0001
1000
0001
0000
,
0110
0000
0010
0001
,
0100
0000
1000
0000
0010
0001
0010
0000
,
0110
0000
0000
0000
1000
0001
1000
0000
,
0010
0000
0001
0000
0001
1000
0001
0000
,
0010
1000
0010
0000
0100
0010
0100
0000
,
0100
0001
0100
0001
1000
0001
1000
0000
,
0010
1001
0110
1001
,
0010
1001
0100
1001
,
0010
1000
0100
0001
,
0010
0001
0100
1000
,
0010
1000
0010
1000
0100
0010
0100
0010
,
0100
0001
0100
0001
1000
0001
1000
0000
,
0010
0100
0000
1000
0001
0000
0010
0100
,
0000
0001
0010
0000
0100
0001
1000
0000
,
0100
0010
0000
1000
0001
0000
0100
0010
,
0000
1000
0010
0000
0100
1000
0001
0000
,
0010
0001
0100
1000
,
0010
1000
0100
0001
,
0010
0100
0000
1000
0001
0000
0010
0100
,
0000
1000
0010
0000
0100
0001
1000
0000
,
0100
0010
0000
1000
0001
0000
0100
0010
,
0000
1000
0010
0000
0100
1000
0001
0000
,
0001
1000
0010
0100
0001
1000
0010
0100
,
1000
0001
0100
0010
1000
0001
1000
0000
,
0010
1000
0100
0001
,
0010
0001
0100
1000
,
0100
0001
0010
1000
,
0100
1001
0110
1001
,
0010
1001
0100
1001
,
0010
0001
0100
1000
,
0110
0000
1001
0000
,
0010
1001
0110
1001
,
0010
1001
0100
1001
,
0010
0001
0100
1000
,
0010
1000
0100
0001
,
0110
0000
1001
0000
,
0010
0001
0100
1000
,
0010
0000
0100
0000
,
0001
0000
0000
0110
0000
0000
0100
0000
1000
0000
0100
0000
1000
0000
0010
0000
,
0100
0000
0000
1001
0000
0000
0001
0000
0100
0000
0001
0000
0100
0000
0010
0000
,
1000
0000
0000
0101
0000
0000
0100
0000
0010
0000
0100
0000
0010
0000
1000
0000
,
0001
0000
0000
1100
0000
0000
1000
0000
0010
0000
1000
0000
0010
0000
0100
0000
,
1001
0000
0000
0001
1000
0000
1001
0000
0000
1000
0001
0000
1001
0000
0000
0000
,
0110
0000
0000
0010
0100
0000
0110
0000
0000
0100
0010
0000
0110
0000
0000
0000
,
0101
0000
0000
0100
0001
0000
0101
0000
0000
0001
0100
0000
0101
0000
0000
0000
,
1001
0220
0000
0330
,
0001
0000
0000
0100
1000
0100
0000
1000
0000
0100
0000
0000
0001
0000
0010
0000
,
0001
0000
0000
1000
0001
1000
0000
0001
0000
1000
0000
0000
0001
0000
0010
0000
,
0100
0000
0000
1000
0100
1000
0000
0100
0000
0010
0000
0000
0001
0000
0100
0000
,
1000
0000
0000
0100
0001
0100
0000
0001
0000
0010
0000
0100
0000
0010
0001
0000
,
0000
0000
0000
0010
0100
0010
0000
0100
0000
1000
0000
0000
0001
0000
0100
0000
,
1000
0000
0000
0100
0001
0100
0000
0001
0000
0010
0000
0000
0100
0000
1000
0000
,
0010
0000
0000
0100
0001
0100
0000
0001
0000
1000
0000
0000
0001
0000
0100
0000
,
2000
0000
0000
0000
0000
0000
0000
3100
0000
0001
0000
0010
0000
1000
0010
0000
,
0001
0100
0001
1000
0100
1000
0010
0001
,
0010
1000
0010
0100
0001
1000
0010
1000
,
0010
1000
0010
0100
0010
0001
0010
0001
,
0010
0001
0010
1000
0100
0010
0001
1000
,
0100
0010
0100
1000
0010
0001
0010
1000
,
0010
0100
0010
0100
0010
0100
0001
0010
,
1000
0010
1000
0010
1000
0010
0001
0100
,
0010
1000
0001
0100
0010
1000
0001
0000
,
0100
0000
0000
0100
0010
0000
0000
0000
0011
0000
0000
0000
1000
0000
0001
0000
,
1000
0000
0000
1000
0010
0000
0000
0000
2002
0000
0000
0000
3000
0000
0000
0000
,
0103
0000
0000
0100
0010
0000
0000
0000
1010
0000
0000
0000
0010
0000
0001
0000
,
0101
0000
0000
0110
0000
0000
0000
0000
,
1000
0000
0000
0000
0100
0000
0000
0000
2002
0000
0000
0003
0000
0000
0001
0000
,
0001
3001
0000
0000
0110
0000
0000
0000
,
0010
0000
0010
0000
0202
0000
0300
0100
,
0100
0103
0000
0000
0020
0000
0000
0000
,
1030
0000
0100
0000
1000
0000
0100
0000
2000
0000
0000
0000
0000
0000
3001
0100
,
0001
0100
0000
0000
0020
0000
0000
0000
,
1030
0000
0100
0000
1000
0000
0100
0000
2000
0000
0000
0000
0000
0000
3001
0100
,
0001
0200
0000
0000
0000
0000
0300
0000
,
1000
0100
0010
0100
1000
0100
0001
0010
,
0001
0010
0001
0010
0100
1000
0001
0100
,
0010
0100
0010
0100
0010
1000
0001
0100
,
1000
0100
1000
0100
1000
0010
0100
0001
,
0010
0100
1000
0100
0001
0100
0010
0001
,
1000
0010
0001
0010
1000
0100
0010
0000
,
0110
0000
0000
0011
0000
0000
1100
0000
,
1001
0000
0000
1000
0001
0000
1001
0000
0000
0001
1000
0000
1001
0000
0000
0000
,
0110
0000
0000
0100
0010
0000
0110
0000
0000
0010
0100
0000
0110
0000
0000
0000
,
2002
0000
0000
3003
;
