#TITLE:Power 1 (acid-tech mix);
#ARTIST:dj nagi;
#BANNER:Power 1 (acid-tech mix).png;
#BACKGROUND:Power 1 (acid-tech mix)-bg.png;
#MUSIC:Power 1 (acid-tech mix).ogg;
#SAMPLESTART:54.657;
#SAMPLELENGTH:15;
#DISPLAYBPM:140:148;
#BPMS:0=144,8=145.001,191=151.005,196=144.996;
#STOPS:712=0.407,715=0.833;

//---------------dance-single - ----------------
#NOTES:
     dance-single:
     :
     Beginner:
     1:
     :
0000
0000
0000
0000
,
0000
0000
0000
0000
,
0000
0000
0000
0000
,
0000
0000
0000
0000
,
1000
0000
0000
0000
,
1000
0000
0000
0000
,
0001
0000
0000
0000
,
0001
0000
0000
0000
,
0002
0000
0000
0003
,
0001
0000
0000
0000
,
1000
0000
0000
0000
,
1000
0000
0000
0000
,
1000
0000
0000
0000
,
0010
0010
0000
0000
,
0010
0010
0000
0000
,
0100
0100
0000
0000
,
0100
0100
0000
0000
,
1001
0000
0000
0000
,
1001
0000
0000
0000
,
1001
0000
0000
0000
,
1001
0000
0000
0000
,
1000
0000
0000
0000
,
1000
0000
0000
0000
,
0001
0000
0000
0000
,
0001
0000
0000
0000
,
1000
0000
0000
0000
,
1000
0000
0000
0000
,
0010
0000
0000
0000
,
0010
0000
0000
0000
,
0100
0000
0000
0000
,
0100
0000
0000
0000
,
0001
0000
0000
0000
,
0001
0000
0000
0000
,
1000
1000
0000
0000
,
1000
1000
0000
0000
,
0001
0001
0000
0000
,
0001
0001
0000
0000
,
0010
0000
0010
0000
,
0100
0000
0100
0000
,
0010
0000
0010
0000
,
0200
0000
0000
0300
,
0000
1000
0000
1000
,
0000
1000
0000
1000
,
0000
0001
0000
0001
,
0000
0001
0000
0001
,
0000
0010
0000
0010
,
0000
0010
0000
0010
,
0000
0100
0000
0100
,
0110
0000
0000
0000
,
0010
0000
0010
0000
,
0010
0000
0000
0000
,
0001
0000
0001
0000
,
0001
0000
0000
0000
,
1000
0000
1000
0000
,
1000
0000
0000
0000
,
0001
0000
0001
0000
,
1001
0000
0000
0000
,
0001
0001
0001
0000
,
0001
0000
0000
0000
,
1000
1000
1000
0000
,
1000
0000
0000
0000
,
0100
0100
0100
0000
,
0100
0000
0000
0000
,
0010
0010
0010
0000
,
0010
0000
0000
0000
,
0001
0000
0001
0000
,
0001
0000
0001
0000
,
1000
0000
1000
0000
,
1000
0000
1000
0000
,
0100
0000
0100
0000
,
0010
0000
0010
0000
,
0100
0000
0100
0000
,
1000
0000
1000
0000
,
1001
0000
0000
0000
,
0001
0000
0000
0000
,
0110
0000
0000
0000
,
0100
0000
0000
0000
,
0001
0000
0001
0000
,
1000
0000
1000
0000
,
0001
0000
0000
0000
,
0010
0000
0010
0000
,
0100
0000
0100
0000
,
0010
0000
0010
0000
,
0100
0000
0000
0000
,
1000
0000
1000
0000
,
0001
0000
0001
0000
,
1000
0000
1000
0000
,
0001
0000
0000
0000
,
1000
0000
1000
1000
,
1000
0000
0001
0001
,
0001
0000
0100
0100
,
0100
0000
0010
0010
,
0010
0000
1000
1000
,
1000
0000
0001
0001
,
0001
0000
0100
0100
,
0010
0000
0010
0000
,
0010
0000
0100
0000
,
0010
0000
0100
0000
,
1000
0000
0001
0000
,
1000
0000
0001
0000
,
0100
0000
0010
0000
,
0100
0000
0010
0000
,
2000
0000
3000
0000
,
1000
0000
1000
0000
,
1001
0000
0000
0000
,
0000
0000
0000
0000
,
0100
0000
1000
0000
,
0100
0000
1000
0000
,
0001
0000
0010
0000
,
0001
0000
0010
0000
,
0001
0000
0100
0000
,
0001
0000
0100
0000
,
0000
0010
0000
1000
,
0000
0100
0000
0000
,
0000
0010
0000
0001
,
0000
0100
0000
0001
,
0000
0010
0000
0100
,
0000
1000
0000
0000
,
0000
0010
0000
0100
,
0000
0001
0000
0000
,
2000
0000
3000
0000
,
1000
0000
1000
0000
,
0002
0000
0003
0000
,
0001
0000
0001
0000
,
0200
0000
0300
0000
,
0100
0000
0100
0000
,
0020
0000
0000
0030
,
0110
0000
0000
0000
,
0010
0000
0010
0000
,
0100
0000
0100
0000
,
0010
0010
0010
0000
,
1000
1000
1000
0000
,
0001
0000
0001
0000
,
1000
0000
1000
0000
,
0100
0100
0100
0000
,
0010
0010
0010
0000
,
0010
0010
0000
0000
,
0000
0000
0000
0000
,
0000
0100
0000
0100
,
0000
1000
0000
0000
,
0000
0001
0000
0001
,
0000
0100
0000
0000
,
0000
0010
0000
0010
,
0000
0010
0000
0010
,
0000
1000
0000
1000
,
0000
0001
0000
0001
,
0000
1000
0000
1000
,
0000
0100
0000
0000
,
0000
0010
0000
0010
,
0000
0001
0000
0000
,
0000
0100
0000
0100
,
0000
0100
0000
0100
,
0000
0001
0000
0001
,
0000
1000
0000
1000
,
1000
0000
0000
0000
,
0100
0000
0000
0000
,
0001
0000
0000
0000
,
0100
0000
0000
0000
,
1000
0000
0000
0000
,
0010
0000
0000
0000
,
0000
0100
0000
0100
,
0000
0001
0000
0000
,
0000
1000
0000
1000
,
0000
0100
0000
0000
,
0000
0001
0000
0001
,
0000
0001
0000
0001
,
0000
0100
0000
0010
,
0000
0100
0000
0010
,
0010
0000
0000
0000
,
0001
0000
0000
0000
,
0100
0000
0000
0000
,
1000
0000
0000
0000
,
0100
0000
0000
0000
,
0001
0000
0000
0000
,
1000
0000
0001
0000
,
1000
0000
0001
0000
,
0010
0000
0010
0000
,
0100
0000
1000
0000
,
0001
0000
0000
1000
,
0000
1000
0000
0100
,
0000
0001
0000
0010
,
0000
1000
1000
0000
,
0000
0000
0000
0000
,
0000
0000
0000
0000
,
0000
0001
0001
0000
;

//---------------dance-single - ----------------
#NOTES:
     dance-single:
     :
     Easy:
     3:
     :
0000
0000
0000
0000
,
0000
0000
0000
0000
,
0000
0000
0000
0000
,
0000
0000
0000
0000
,
0010
0000
0000
0000
,
0100
0000
0000
0000
,
0001
0000
1000
0000
,
0001
0000
1000
0000
,
0020
0000
0000
0030
,
0010
0000
0100
0000
,
0010
0000
0100
0000
,
0001
0000
1000
0000
,
0001
0000
0001
0000
,
1000
0000
1000
0000
,
0100
0000
0100
0000
,
0010
0000
0010
0000
,
0002
0000
0000
0003
,
1000
0100
0000
0000
,
0001
0010
0000
0000
,
1000
0100
0000
0000
,
0001
0010
0000
0000
,
0100
1000
0000
0000
,
0010
0001
0000
0000
,
0100
1000
0000
0000
,
0010
0001
0000
0000
,
1000
0000
1000
0000
,
1001
0000
0010
0000
,
0100
0000
0001
0000
,
1001
0000
0000
0000
,
1001
0000
0100
0000
,
1001
0000
0000
0000
,
0110
0000
0000
0000
,
1001
0000
0000
0000
,
0001
1000
0001
0000
,
0010
0000
0010
0000
,
1000
0001
1000
0000
,
0100
0000
0100
0000
,
0010
1000
0100
0000
,
0010
0000
0010
0000
,
0010
0001
0100
0000
,
1002
0000
0000
0003
,
1000
0000
0010
0010
,
0100
0000
0001
0001
,
1000
0000
1000
1000
,
0010
0100
0001
0000
,
0010
1000
0010
0000
,
1000
0010
1000
0000
,
0001
0100
0001
0000
,
0100
0100
0100
0100
,
0001
1000
0000
1000
,
0010
0100
0000
0100
,
0001
0010
0000
0010
,
0100
1000
0000
1000
,
0010
0100
0000
0100
,
1000
0010
0000
0010
,
0100
0001
0000
0001
,
1001
0000
0000
0000
,
0001
0100
0001
0000
,
0001
0100
0001
0000
,
1000
0100
1000
0000
,
1000
0100
1000
0000
,
0001
0010
0001
0000
,
0001
0010
0001
0000
,
1000
0010
1000
0000
,
0200
0300
0020
0030
,
0100
0010
0100
0010
,
1000
0001
1000
0000
,
0001
1000
0001
1000
,
0010
0100
0010
0000
,
0001
0001
0001
0000
,
1000
1000
1000
0000
,
0010
0010
0010
0000
,
0110
0000
0110
0000
,
1001
0000
0001
0000
,
0100
0000
0100
0000
,
0110
0000
0010
0000
,
0010
0000
1000
0000
,
1000
0000
0001
0000
,
0001
0000
0100
0000
,
1001
0000
0000
0000
,
0001
1000
0000
1000
,
0100
0010
0000
0010
,
0001
0100
0000
0100
,
0010
1000
0000
1000
,
0100
0010
0000
0010
,
1000
0100
0000
0100
,
0010
0001
0000
0001
,
1000
0010
1000
0000
,
0010
1000
0010
0000
,
0001
0010
0001
0000
,
0010
0001
0010
0000
,
1000
0100
1000
0000
,
0100
1000
0100
0000
,
0001
0100
0001
0000
,
1000
0010
1000
0000
,
0100
0100
0100
0000
,
0000
1000
0000
0001
,
0100
0010
0000
1000
,
0000
0010
0000
0100
,
0001
0100
0000
0010
,
0000
1000
0000
0100
,
0010
0001
0000
0010
,
0000
0100
0000
1000
,
0100
1000
0000
0010
,
0220
0000
0000
0000
,
0330
0000
0000
0000
,
1000
0000
0100
0000
,
1000
0000
0010
0000
,
1000
0000
0100
0000
,
0010
0000
0001
0000
,
0100
0000
0001
0000
,
0010
0000
0002
0003
,
1000
0000
0010
0000
,
0100
0000
0100
0000
,
0001
0000
0010
0000
,
0100
0000
0100
0000
,
0001
0000
0010
0000
,
0100
0000
0100
0000
,
0000
1000
0000
0010
,
0000
0100
0000
0100
,
0000
0001
0000
0010
,
0000
0010
0000
1000
,
0001
0010
0000
1000
,
0000
0010
0000
0001
,
1000
0100
0000
0001
,
0000
0100
0000
1000
,
0001
0100
0000
1000
,
0000
0200
0000
0300
,
1000
1000
0100
0000
,
1000
1000
0100
0000
,
0010
0010
0100
0000
,
0010
0010
0100
0000
,
0001
0100
0010
1000
,
0100
0010
0001
0000
,
1000
1000
1000
0000
,
2000
0000
0000
3000
,
0001
2000
0000
0000
,
3000
0000
0000
0000
,
0000
0010
0001
0001
,
0000
1000
0010
0010
,
0000
1000
0000
0010
,
0000
0100
0000
0001
,
1000
0000
0001
0000
,
1000
0000
0001
0000
,
0000
0010
0010
0100
,
0100
1000
0001
1000
,
0000
0100
1000
1000
,
0000
0001
0100
0100
,
0000
0001
0000
0100
,
0000
0010
0000
1000
,
0001
0000
1000
0000
,
0001
0000
1000
0000
,
0000
0100
0100
0010
,
0010
0001
1000
0001
,
0000
0100
0000
0100
,
0000
0010
0000
0010
,
0000
1000
0000
1000
,
0000
0100
0000
0100
,
0000
0010
0000
0010
,
0000
0001
0000
0001
,
0000
0010
0100
0100
,
0000
1000
0010
0010
,
0000
1000
0000
0010
,
0000
0100
0000
0001
,
1000
1000
0001
0001
,
1000
1000
0001
0001
,
0000
0010
0010
0100
,
0100
1000
0001
1000
,
0000
0100
0000
0100
,
0000
0010
0000
0010
,
0000
0001
0000
0001
,
0000
0100
0000
0100
,
0000
0010
0000
0010
,
0000
1000
0000
1000
,
2000
3000
0002
0003
,
2000
3000
0002
0003
,
1000
0000
0010
0000
,
0001
0000
0100
0000
,
2000
0000
3000
0002
,
0000
1003
0000
0100
,
0000
0001
0100
1000
,
0001
0100
0020
0000
,
0000
0030
0000
0000
,
0000
0000
0000
0000
,
0000
1000
0002
0000
,
0000
0003
0000
0000
;

//---------------dance-single - ----------------
#NOTES:
     dance-single:
     :
     Medium:
     5:
     :
0000
0000
0000
0000
,
0000
0000
0000
0000
,
0000
0000
0000
0000
,
0000
0000
0000
0000
,
0010
0000
1000
0000
,
0100
0100
1000
0000
,
0010
0010
0001
0100
,
0001
0001
0010
0000
,
0001
0100
0010
0000
,
1000
0100
1000
0000
0001
0000
0000
0000
,
0001
0100
0001
0000
1000
0000
0000
0000
,
0010
0010
0010
0000
0000
0000
0000
0000
,
0100
0100
0100
0000
0000
0000
0000
0000
,
0010
0010
0010
0000
0001
0000
0001
0000
,
1000
1000
1000
0000
0100
0000
0000
0000
,
0010
0010
0010
0000
0001
0000
0001
0000
,
0100
0001
0100
0000
0010
0100
0010
0000
,
1000
0000
0100
0000
1000
1000
0000
0000
,
0001
0000
0100
0000
0001
0001
0000
0000
,
0010
0000
0100
0000
1000
1000
0000
0000
,
0001
0001
0001
0001
0000
0000
0000
0000
,
0001
0000
0010
0000
0001
0001
0000
0000
,
1000
0000
0010
0000
1000
1000
0000
0000
,
0100
0000
0010
0000
0001
0001
0000
0000
,
1000
1000
1000
1000
0000
0000
0000
0000
,
1000
0010
1000
0010
,
0001
1000
0010
1000
,
0001
0100
0001
0100
,
0001
1000
0100
1000
,
0010
0000
0001
0000
,
1000
0000
0001
0000
,
0100
0000
0000
0000
,
1001
0000
0000
0000
,
0100
1000
1000
1000
,
0001
0010
0001
0001
,
0100
0001
0100
0100
,
1000
0010
1000
1000
,
0100
1000
0001
0001
,
0100
0010
1000
1000
,
0100
0010
0001
0001
,
1000
0100
2000
3000
,
1000
0001
1000
1000
,
0100
0010
0001
0001
,
0010
0100
1000
1000
,
0010
0000
0100
0000
0001
0100
0001
0000
,
1000
0010
0100
0100
,
0001
1000
0010
0010
,
0001
1000
0100
0100
,
0010
0001
0100
0000
1100
0000
0101
0000
,
0010
1000
0100
0001
,
0010
1000
0100
0001
,
0010
1000
0100
0001
,
0010
0010
0100
0100
,
0010
0001
0100
1000
,
0010
0001
0100
1000
,
0010
0001
0100
1000
,
0001
1001
0000
0110
0000
1000
1001
0000
,
0010
0000
0001
0000
1000
0100
1000
0000
,
0010
0000
1000
0000
0001
0100
0001
0000
,
0100
0000
0001
0000
1000
0010
1000
0000
,
0100
0000
1000
0000
0001
0010
0001
0000
,
1000
0100
0010
0000
0001
0100
0010
0000
,
1000
0100
0010
0000
0001
0100
0010
0000
,
0200
0300
0020
0030
,
2000
3200
0320
0032
,
1003
1100
0001
0101
,
1000
1100
0001
0101
,
1000
1010
0001
0011
,
1000
1010
0001
0011
,
0010
0001
0100
0000
0000
0000
1001
0000
,
0010
1000
0100
0000
0000
0000
1001
0000
,
0100
1000
0001
0000
0000
0000
1001
0000
,
0100
0110
0000
1001
0000
0010
0110
0000
,
0001
0100
0010
1000
,
0010
1000
0100
0010
,
0001
1000
0100
0010
,
0001
0010
0100
1000
,
0001
0100
0001
0000
1000
0100
1000
0000
,
0001
0010
0001
0000
1000
0010
1000
0000
,
0001
0010
0100
1000
,
0010
0000
1000
0000
0010
0010
1000
0000
,
0001
0000
0010
0000
0001
0001
0010
0000
,
0100
0000
1000
0000
0100
0100
1000
0000
,
0001
0000
0100
0000
0001
0001
0100
0000
,
0010
1000
0100
0001
,
0010
1000
0100
0001
,
0010
0001
0100
1000
,
0010
0001
0100
1002
,
1003
1100
0001
0101
,
1000
1100
0001
0101
,
1000
1010
0001
0011
,
1000
1010
0001
0011
,
0010
0001
0100
0000
0000
0000
1001
0000
,
0010
1000
0100
0000
0000
0000
1001
0000
,
1000
0001
2000
0000
0000
0000
0000
3000
,
0001
0100
2000
0000
0000
0000
0000
3000
,
0010
1000
0001
0000
0010
0000
0010
0000
,
1000
0001
1000
0000
1001
0000
0000
0000
,
0010
0001
1000
0000
0010
0000
0010
0000
,
0001
1000
0001
0000
1001
0000
0000
0000
,
1000
0010
0100
0000
0001
0000
0001
0000
,
0010
0100
0010
0000
0110
0000
0000
0000
,
0001
0010
0100
0000
1000
0000
1000
0000
,
0010
0100
0010
0000
0020
0000
0030
0000
,
1001
0000
0000
0010
0000
0000
0000
0000
,
0000
0000
0000
0000
0000
0001
0100
0001
,
0101
0101
0010
1000
,
0100
1000
0100
0000
0010
0001
0010
0001
,
0010
0000
0001
0000
1000
0100
1000
0000
,
0010
0000
0001
0000
0100
0001
0100
0001
,
0100
0000
0010
0000
0100
0010
0100
0000
,
0010
0000
1000
0000
0001
1000
0001
1000
,
0001
0000
0010
0000
0001
0001
0001
0000
,
0100
0000
0010
0000
1000
0100
1000
0010
,
1000
0000
0001
0000
1000
1000
1000
0000
,
0100
0000
0010
0000
0001
0100
0001
0010
,
0001
0000
0100
0000
0010
0010
0010
0000
,
1000
0000
0001
0000
1000
0010
1000
0100
,
1000
0000
0001
0000
0100
0100
0100
0000
,
0010
0000
0100
0000
0010
1000
0010
0001
,
0010
0000
1000
0000
0001
0100
0001
0000
,
1000
0010
1000
0000
0001
0010
0001
0000
,
1000
0100
1000
0000
0010
1000
0010
0000
,
0100
0001
0100
0000
0010
0001
0010
0000
,
0100
1000
0100
0000
0010
0100
0010
0000
,
0100
0010
0100
0000
0001
1000
0001
0000
,
0010
1000
0001
0100
,
0001
0100
0001
0100
0010
0100
0010
0001
,
1000
0100
0001
0000
1000
0010
0100
0000
,
0001
0100
1000
0000
0001
0100
0010
0000
,
0010
1000
0100
0000
0010
0001
0100
0000
,
0010
1000
0001
0000
1000
1000
0010
0000
,
0100
0001
1000
0000
0001
0001
0010
0000
,
0200
1000
0010
0301
,
0020
0230
2300
3020
,
0230
0302
1003
0000
,
0010
0020
0000
0000
,
0000
0000
0000
0030
0000
0001
0000
0100
,
0000
0010
1000
0001
0100
0000
0100
0000
,
0000
0010
1000
0000
0100
0000
0010
0020
,
0000
0001
0000
0001
0000
1000
0000
1000
,
0000
0130
0000
0001
0100
0000
1000
0001
,
0010
1001
0100
1001
,
0010
0101
0010
1100
,
0000
0010
0001
0000
0100
0000
1000
0000
,
0100
0010
0100
0001
,
0000
0100
0001
1000
0010
0000
0010
0000
,
0000
0100
0001
0000
0010
0000
0100
0200
,
0000
1000
0000
1000
0000
0001
0000
0001
,
0000
0310
0000
1000
0010
0000
0001
1000
,
0100
1001
0010
1001
,
0100
1010
0100
0011
,
0000
0100
1000
0000
0010
0000
0001
0000
,
0010
0100
0010
1000
,
0002
0023
0230
2300
,
3200
0320
0032
2003
,
3020
0032
0023
2030
,
3002
0023
2030
3020
,
0032
0203
0320
2030
,
3002
0103
1010
0101
,
0000
0100
0001
1000
0010
0000
0020
0000
,
0030
0100
0002
0000
0013
0000
0100
0200
,
0000
1000
0000
1000
0000
0001
0000
0001
,
0000
0310
0000
1000
0010
0000
0001
1000
,
0100
1001
0010
1001
,
0100
1010
0100
0011
,
0000
0100
1000
0000
0010
0000
0001
0000
,
0010
0100
0010
1000
,
0002
0203
0320
2030
,
3020
0230
0302
2003
,
3200
0302
0203
2300
,
3002
0203
2300
3200
,
0302
0023
0230
2300
,
3002
0103
1010
0101
,
1000
0001
0010
0100
,
0001
0100
0010
0001
,
1000
1000
1000
0000
0001
0001
0001
0000
,
0100
0010
0100
0010
,
0110
0000
0000
0110
,
0100
0001
1000
0100
,
0010
0000
0001
1000
0001
1000
0001
1000
,
0100
0100
0020
0000
0200
0000
0000
0000
,
0000
0000
0000
0000
,
0000
0000
0000
0000
,
0030
0000
0000
0000
0000
0000
0000
0000
0000
0000
0000
0000
0000
0000
0000
0300
1000
0000
0000
0000
0000
0000
0000
0000
0000
0000
0000
0000
0000
0000
0000
0000
0002
0000
0000
0000
0000
0000
0000
0000
0000
0000
0000
0000
0000
0000
0000
0000
0000
0000
0000
0000
0000
0000
0000
0000
0000
0000
0000
0000
0000
0000
0000
0000
,
0000
0003
0000
0000
;

//---------------dance-single - ----------------
#NOTES:
     dance-single:
     :
     Hard:
     8:
     :
0000
0000
0000
0000
,
0000
0000
0000
0000
,
0000
0000
0000
0000
,
0000
0000
0000
0000
,
0002
0000
0100
0103
,
2000
0000
0100
3100
,
0002
0000
1000
0013
,
2000
0000
0001
3010
,
0002
1003
2002
3003
,
2000
3020
0130
0001
,
2000
0000
3020
0000
0130
0001
0001
0000
,
0002
0023
0130
0100
,
1000
1000
0010
0000
0001
0001
0010
0000
,
2000
0000
3100
0000
0010
0100
0010
0100
,
2000
0000
3001
0000
0100
0010
0100
0010
,
2000
0000
3010
0000
0100
0100
0010
0000
,
0001
0010
0001
0010
0100
1000
0100
1000
,
0010
0000
0100
0000
0001
0100
0001
0000
,
0100
0000
0010
0000
1000
0010
1000
0010
,
1000
0000
0001
0000
1000
0100
1000
0000
,
0001
0000
0010
0000
0001
0010
0001
0001
,
1000
0000
0010
0000
0100
0001
0100
0000
,
1000
1000
1000
1000
0100
0000
0100
0000
,
0001
0001
0001
0001
0100
0000
0100
0000
,
1000
1000
0001
0001
0000
0000
0000
0000
,
1001
0000
1000
0100
0000
0100
1000
0010
,
0010
0000
0100
0001
0000
0001
0100
0010
,
0010
0000
1000
0001
0000
0001
1000
0000
,
0010
0100
0010
0100
0001
1000
0001
0000
,
1001
0000
0010
0100
0000
0100
0010
0000
,
0110
0000
0000
0000
,
1001
0000
0000
0000
,
0110
0000
0000
0000
,
0001
0000
1000
0000
0010
1000
0100
0000
,
0010
0000
0001
1000
0100
0000
0010
0000
,
1000
0000
0001
0000
0010
0001
0100
0000
,
0001
0000
0100
0010
1000
0000
0001
0000
,
1000
0100
1000
0100
1000
0000
0001
0000
,
0010
0001
0010
0001
0010
0000
0100
0000
,
1000
0010
1000
0010
1000
0000
0100
0000
,
0001
0100
0001
0100
0002
0000
0000
0003
,
1000
1000
0100
0100
0010
0010
0001
0000
,
1000
1000
0010
0010
0100
0001
1000
0000
,
0001
0001
0010
0010
0100
0100
1000
0000
,
0001
0001
0010
0100
0010
0001
0100
0000
,
0010
0010
1000
0010
1000
0100
0001
0000
,
0010
0010
0001
0010
0001
0100
1000
0000
,
0010
0010
0100
0010
1000
0001
0010
0000
,
0200
0000
0000
0000
0000
0000
0000
0000
0000
0000
0000
0000
0000
0000
0000
0000
0310
0000
0000
0000
0000
0000
0000
0000
0000
0000
0000
0000
0000
0000
0000
0000
1000
0001
0000
0000
0000
0000
0000
0000
0000
0000
0000
0000
0000
0000
0000
0000
0100
0010
0000
0000
0000
0000
0000
0000
0000
0000
0000
0000
0000
0000
0000
0000
,
1001
0000
0100
0010
0000
0001
0100
0010
,
0100
0001
1000
0100
0000
0010
0001
0100
,
0010
1000
0010
0100
0000
0001
0010
1000
,
0010
0001
0100
0010
0000
1000
0100
0001
,
0100
0010
0001
0100
0000
0010
1000
0010
,
0100
1000
0100
0001
0000
1000
0010
0001
,
0010
1000
0100
0010
0000
0001
1000
0010
,
1000
0000
0001
1000
0001
1000
0001
1000
0100
0000
0010
0000
0001
0000
0000
0000
,
0100
0010
1000
0100
0000
0001
0100
1000
,
0001
0010
1000
0010
0000
0001
1000
0010
,
0001
0010
1000
0100
0000
0010
0001
0100
,
1000
0100
0010
1000
0000
0001
0010
0100
,
1000
0100
1000
0100
0010
0001
0010
0001
,
0100
0001
0100
0001
1000
0010
1000
0010
,
0100
0001
0010
0100
1000
0010
0100
0010
,
2000
3002
2003
3002
,
0013
1100
0010
0101
,
0001
1100
1000
0101
,
0001
1010
1000
0011
,
0110
1001
0110
1001
,
0010
1000
1100
0000
0010
0000
1001
0000
,
0010
0001
0101
0000
0010
0000
1001
0000
,
0100
0100
1001
0000
0010
0000
1001
0000
,
0010
0000
0100
1000
0100
1000
0100
1000
0100
0000
0010
0000
0001
0000
0000
0000
,
0100
0000
0010
0000
0100
0001
0000
1000
0100
0000
0010
0000
0001
0100
0000
0001
,
1000
0000
0010
0000
1000
0100
0000
1000
0010
0000
0100
0000
0001
0010
0000
0100
,
0010
0000
0001
0000
1000
0010
0000
1000
0100
0000
0010
0000
0001
1000
0000
0010
,
1000
0000
0100
0000
0010
0001
0000
1000
0010
0000
0100
0000
0010
1000
0000
0001
,
1000
0100
0010
0100
1000
0100
0010
0100
,
1000
0001
0100
0010
0100
0001
0100
0010
,
2000
3000
0002
0003
,
1000
0100
0100
1000
0010
0010
0100
0000
,
0001
0100
0100
0001
0010
0010
0100
0000
,
1000
0001
0001
0010
0100
0100
1000
0000
,
0001
1000
1000
0010
0100
0100
0001
0000
,
1000
0100
0010
0100
1000
0010
0001
0010
,
1000
0001
0010
0100
0001
0100
0010
0000
,
1000
0100
1000
0001
1000
0100
0001
0100
,
0010
0001
0010
0100
0010
0001
2000
0000
,
3010
0101
0010
1100
,
1000
0101
0001
1100
,
1000
0011
0001
1010
,
0110
1001
0110
1001
,
0010
0001
0101
0000
0010
0000
1001
0000
,
0010
1000
1100
0000
0010
0000
1001
0000
,
0001
0010
0001
0000
0200
0000
0000
0000
0010
0000
0000
0000
0310
0000
0000
0000
,
1000
0100
1000
0000
0200
0000
0000
0000
0010
0000
0000
0000
0310
0000
0000
0000
,
1000
0100
0000
0100
1000
0000
0000
0000
0010
0000
0000
0000
0100
0000
0000
0000
,
0001
0100
0000
0100
0001
0000
0000
0000
0010
0000
0100
0000
1000
0000
0000
0000
,
0010
0100
0000
0100
0010
0000
0000
0000
0100
0000
0000
0000
0001
0000
0000
0000
,
1000
0010
1000
0100
0010
0100
1000
0000
,
0001
0100
0000
0100
0001
0000
0000
0000
1001
0000
0000
0000
0100
0000
0000
0000
,
1000
0001
0000
0001
1000
0000
0000
0000
0010
0000
0100
0000
0001
0000
0000
0000
,
1000
0100
0000
0100
1000
0000
0000
0000
0100
0000
0000
0000
0010
0000
0000
0000
,
0001
1000
0101
1100
,
0220
0000
0000
0000
,
0330
0000
0000
0000
0000
0000
1000
0000
0001
1000
0000
0100
0000
0000
0010
0000
,
0001
0000
0000
0000
0000
0000
0100
0000
0010
0000
0000
1000
0000
0000
0001
0000
,
0000
0000
0000
0000
0000
0000
0100
0000
0001
0100
0000
0010
0000
0000
0100
0000
,
1000
0000
0000
0000
0000
0000
0100
0000
0010
0000
0000
1000
0000
0000
0001
0000
,
0000
0000
0000
0000
0000
0000
1000
0000
0001
0100
0000
0010
0000
0000
0100
0000
,
0001
0000
0000
0000
0000
0000
0010
0000
0100
0000
0000
1000
0000
0000
0001
0000
,
0000
0000
0000
0000
0000
0000
1000
0000
0100
0010
0000
0001
0000
0000
1000
0000
,
0100
0010
0001
0010
0001
0010
0001
1000
,
0001
0000
0010
0000
0100
0000
1000
0000
0010
1000
0000
0010
0000
0000
0100
0000
,
0001
0010
0100
1000
0100
1000
0100
1000
,
0100
0000
0010
0000
0001
0000
0100
0000
0010
1000
0000
0001
0000
0000
1000
0000
,
0001
0100
0010
1000
0010
1000
0010
1000
,
0010
0000
0100
0000
0001
0000
0010
0000
0100
1000
0000
0100
0000
0000
0010
0000
,
0001
0000
0000
0000
0000
0000
1000
0000
0001
0000
0000
0100
0000
0000
0001
0000
,
0000
0000
0000
0000
0000
0000
0010
0000
0100
1000
0000
0001
0000
0000
1000
0000
,
0010
0000
0100
0000
0000
0010
0000
0000
1000
0000
0000
0001
0000
0000
1000
0000
,
0000
0000
0001
1000
0000
0100
0000
0000
0010
0001
0000
0100
0000
0000
1000
0000
,
0100
0000
0001
0000
0000
0010
0000
0000
0001
0000
0000
1000
0000
0000
0100
0000
,
0000
0010
0000
0010
0000
0010
0000
0000
0001
0100
0000
0001
0000
0000
1000
0000
,
0000
0000
0100
0000
0000
1000
0000
0000
0001
0000
0000
1000
0000
0000
0010
0000
,
0000
0000
0100
0010
0000
0100
0000
0000
0010
1000
0000
0001
0000
0000
1000
0000
,
0010
0000
1000
0000
0000
0100
0000
0000
0010
0000
0000
0001
0000
0000
0200
0000
,
0000
0000
0000
0000
0000
0300
0000
0000
,
1000
1100
0001
0110
,
0010
1010
0100
0110
,
0101
0110
1010
1010
,
1100
0110
0011
0011
,
2010
3010
1002
1003
,
0210
0310
1002
0103
,
0101
0011
1010
1100
,
0101
0011
1010
1100
,
1001
0220
0000
0000
,
0000
0000
0000
0000
0330
0100
0000
0010
,
1001
0100
0010
0001
0100
0010
0200
0000
,
0000
0310
0001
0010
1000
0001
0010
0001
,
0000
1100
0000
1010
0000
0101
0000
0011
,
0000
1001
0000
0100
1000
0010
0100
0001
,
0010
0100
1001
1000
0010
0100
1001
0010
,
0001
0100
1001
0010
1000
0100
0010
0002
,
0000
0103
1000
0100
0010
0001
0010
1000
,
0100
1000
0010
1000
0100
0010
0001
0010
,
1001
0010
0100
1000
0010
0100
0020
0000
,
0000
0130
1000
0100
0001
1000
0100
1000
,
0000
0011
0000
0101
0000
1010
0000
1100
,
0000
1001
0000
0010
1000
0100
0010
0001
,
0100
1000
1100
0100
0001
0010
1010
1000
,
0010
0100
0101
0001
0100
1000
1001
2000
,
0000
3010
0001
0010
0100
1000
0100
0001
,
0010
0001
0100
0001
0010
0100
1000
0001
,
1000
1100
1010
1002
,
0103
0011
0101
2001
,
3100
1100
0110
0012
,
0103
0110
1010
2100
,
3010
0102
0013
0210
,
1300
0210
0301
1001
,
0010
0100
1000
0001
0010
0001
0100
0002
,
0000
1003
0100
1000
0010
1000
0001
0200
,
0000
0310
0100
0001
0010
1000
0010
0001
,
0100
0010
0001
0010
1000
0100
0010
0001
,
0100
0010
0100
0000
1001
0000
0000
0000
0010
0100
0010
0000
1001
0000
0000
0000
,
0100
1000
0010
0000
1010
0000
0000
0000
0100
0001
0010
0000
0011
0000
0002
0000
,
0000
0103
1000
0100
0010
0001
0010
1000
,
0100
1000
0010
1000
0100
0010
0001
1000
,
1002
0000
0000
0000
0013
0100
0000
0000
0210
0000
0000
0000
1300
0010
0000
0000
,
1020
0000
0000
0000
0130
0001
0000
0000
0102
0000
0000
0000
0013
1000
0000
0000
,
1020
0000
0000
0000
0031
0100
0000
0000
0201
0000
0000
0000
1300
0100
0000
0000
,
0210
0000
0000
0000
0301
1000
0000
0000
2001
0000
0000
0000
3100
1000
0000
0000
,
0120
0000
0000
0000
0031
0100
0000
0000
0201
0000
0000
0000
1300
0100
0000
0000
,
0210
0000
0000
0000
0301
0001
0000
0000
1000
1000
0000
0000
0100
0100
0000
0000
,
1100
1000
0010
0011
0010
0100
0101
0100
,
0001
0011
0001
1000
1100
1000
0010
0110
,
0010
1000
0100
0001
0010
1000
0100
0010
,
0001
0100
1000
0010
0001
0100
0010
1000
,
1001
0000
0000
0000
0110
0000
0000
1001
0000
1001
0000
0000
0110
0000
0000
0000
,
2002
0000
0000
3003
1010
0000
0100
0000
0101
0000
0010
0000
0011
0000
0100
0000
,
1100
0010
1010
1001
1100
0110
0011
1001
,
0101
0110
2000
0000
0002
0000
0000
0000
,
0000
0000
0000
0000
,
0000
0000
0000
0000
,
0000
3003
0020
0000
0200
0000
0000
0000
,
0330
0000
0000
0000
;
