#TITLE:PUT YOUR FAITH IN ME (Steve Porter Mix);
#ARTIST:UZI-LAY;
#BANNER:PUT YOUR FAITH IN ME (Steve Porter Mix).png;
#BACKGROUND:PUT YOUR FAITH IN ME (Steve Porter Mix)-bg.png;
#CDTITLE:./CDTITLES/Dance Dance Revolution UNIVERSE.png;
#MUSIC:PUT YOUR FAITH IN ME (Steve Porter Mix).ogg;
#SAMPLESTART:13.538;
#SAMPLELENGTH:15;
#BPMS:0=128;

//---------------dance-single - ----------------
#NOTES:
     dance-single:
     :
     Beginner:
     1:
     :
0000
0000
0000
0000
,
0000
0000
0000
0000
,
0000
0000
0000
0000
,
1000
0000
0001
0000
,
1000
0000
0001
0000
,
1000
0000
0000
0000
,
0010
0000
0000
0000
,
1000
0000
0001
0000
,
1000
0000
0001
0000
,
1000
0000
0000
0000
,
0100
0000
0100
0000
,
0100
0000
0000
0000
,
0010
0000
0010
0000
,
0010
0000
0000
0000
,
0001
0000
0001
0000
,
0001
0000
0000
0000
,
1000
0000
1000
0000
,
1000
0000
0000
0000
,
0110
0000
0000
0000
,
1000
0000
0001
0000
,
0100
0100
0100
0000
,
0001
0000
0000
0000
,
0110
0000
0000
0000
,
1000
0000
0001
0000
,
0100
0100
0100
0000
,
0001
0000
0000
0000
,
1000
0000
0000
0000
,
0010
0000
0010
0000
,
0100
0000
0100
0000
,
0001
0000
0000
0000
,
1000
0000
0000
0000
,
0100
0000
0010
0000
,
0100
0100
0100
0000
,
0001
0000
0000
0000
,
1000
0000
0000
0000
,
0100
0000
0010
0000
,
0100
0100
0100
0000
,
0001
0000
0001
0000
,
0001
0000
0000
0000
,
0100
0000
0100
0000
,
0100
0000
0000
0000
,
0010
0000
0010
0000
,
0010
0000
0000
0000
,
1000
0000
1000
0000
,
1000
0000
0000
0000
,
1001
0000
0000
0000
,
0100
0000
0000
0000
,
0010
0000
0000
0000
,
1000
0000
1000
0000
,
1001
0000
0000
0000
;

//---------------dance-single - ----------------
#NOTES:
     dance-single:
     :
     Easy:
     3:
     :
0000
0000
0000
0000
,
0000
0000
0000
0000
,
0000
0000
0000
0000
,
0001
0000
0001
0000
,
1000
0100
0100
1000
,
0100
0000
0100
0000
,
0010
0000
0010
0000
,
0001
0000
0001
0000
,
0100
0001
0001
0100
,
0001
0000
1000
0000
,
1000
0010
0001
0000
,
1000
0100
0001
0001
,
0100
0100
1000
0000
,
0001
0000
1000
0000
,
1000
0010
0001
0000
,
1000
0100
0001
0001
,
0100
0100
1000
0000
,
0010
0001
0100
0000
,
0010
0001
0100
0000
,
0001
0000
0100
0000
,
0010
0000
1000
0000
,
0010
1000
0100
0000
,
0010
1000
0100
0000
,
1000
0000
0100
0000
,
0010
0000
0001
0000
,
1000
0100
0010
0001
,
1000
0100
0010
0001
,
0200
0300
0002
0003
,
2000
3000
0002
0003
,
0100
0001
0100
0000
,
0010
1000
0010
0000
,
0100
0001
0100
0000
,
0020
0000
0000
0030
,
1000
0001
1000
0000
,
0010
0100
0010
0000
,
1000
0001
1000
0000
,
0010
0010
0100
0100
,
0001
0000
1000
0000
,
1000
0010
0001
0000
,
1000
0100
0001
0001
,
0100
0100
1000
0000
,
1000
0000
0001
0000
,
1000
0010
0001
0000
,
1000
0100
0001
0001
,
0100
0100
1000
0000
,
0001
0000
0100
0000
,
0010
0000
1000
0000
,
1000
0100
0010
0001
,
1000
0100
0010
0001
,
1001
0000
0000
0000
;

//---------------dance-single - ----------------
#NOTES:
     dance-single:
     :
     Medium:
     5:
     :
0000
0000
0000
0000
,
0000
0000
0000
0000
,
0000
0000
0000
0000
,
0020
0030
2000
3000
,
0100
1000
0010
0001
,
0100
0010
1000
0100
,
0010
0001
0100
0010
,
0001
1000
0100
0001
,
1001
0110
1001
0110
,
1000
0010
1000
0000
0100
0000
0010
0000
,
0001
0100
0010
0100
,
0001
0100
0010
0000
1000
0000
0100
0000
,
0001
0100
1000
0100
,
1000
0010
1000
0000
0100
0000
0010
0000
,
0001
0100
0010
0100
,
0001
0100
0010
0000
1000
0000
0100
0000
,
0001
0100
1000
0100
,
1000
0001
1000
0000
0100
0000
0000
0000
,
0100
0011
1100
0000
,
0010
0000
0100
0000
0001
0100
0001
0000
,
1000
0100
0010
0000
,
0001
1000
0001
0000
0100
0000
0000
0000
,
0100
1010
0101
0000
,
0100
0000
0010
0000
1000
0100
1000
0000
,
0100
0010
0001
0100
,
2000
0100
3200
0001
,
0302
0010
0023
0100
,
0230
1000
2300
0010
,
3010
0000
0100
0000
0100
0001
1000
0000
,
0100
0010
0100
0000
1000
0000
0001
0000
,
1000
0000
0010
0000
0100
0001
0100
0000
,
0010
1000
0010
0000
0100
0000
0001
0000
,
0010
1000
0010
0001
,
0000
0100
0010
0000
1000
0000
0100
0000
,
0001
0000
0100
0000
1000
0010
1000
0000
,
0001
0100
0001
0000
0100
0000
0010
0000
,
0100
1001
0100
1001
,
0100
0001
0010
0100
,
1000
0100
0010
0000
0100
0000
1000
0000
,
0001
0100
0010
0000
0100
0000
0001
0000
,
0100
0010
1000
0000
0100
0000
1000
0000
,
0010
0001
0010
1000
,
0100
0010
1000
0000
0010
0000
0001
0000
,
0100
0010
1000
0000
0100
0000
0010
0000
,
0001
0100
1000
0000
0100
0000
0001
0000
,
0020
0030
0200
0300
,
1000
0100
0001
0100
,
2000
3000
0020
0030
,
0100
0001
0010
0001
,
0110
0000
0000
0000
;

//---------------dance-single - ----------------
#NOTES:
     dance-single:
     :
     Hard:
     7:
     :
0000
0000
0000
0000
,
0000
0000
0000
0000
,
0000
0000
0000
0000
0000
0000
0100
1000
,
0010
0000
0010
0000
,
0100
0000
0001
0000
0100
0000
0010
1000
,
0100
0000
0100
0000
,
0010
0000
1000
0000
0010
0000
0001
1000
,
0100
0001
0100
1000
,
0010
1000
0100
0001
0100
0010
0001
0010
,
0100
0000
1000
0000
0010
0100
0001
0000
,
1000
0100
0010
0000
0100
1000
0001
0000
,
0010
0001
0100
1000
0100
0010
1000
0000
,
0100
0010
0001
0010
1000
0010
0001
0000
,
0001
0010
1000
0000
1000
0010
0001
0000
,
0100
0010
1000
0000
0100
0010
0001
0000
,
1000
0010
0001
0010
0100
0001
0100
0000
,
0010
1000
0010
0100
0001
0010
0100
0000
,
1000
0010
0100
0000
0110
0000
1001
0000
,
0001
0100
0010
1000
0100
0000
1100
0000
,
0010
0001
0100
0000
0010
1000
0100
0000
,
1000
0010
0100
0000
0001
0100
1000
0000
,
0001
0010
1000
0000
0001
0000
0100
0000
,
0010
1000
0100
0010
0001
0000
1001
0000
,
0100
0100
0000
1000
0100
0001
0100
0000
,
0010
0001
0100
1000
0100
0001
0100
0000
,
0010
1000
0010
0100
,
0001
0010
0100
1000
,
1000
0100
0010
1000
0100
1000
0001
0100
,
0001
0000
0000
0000
0100
0000
0000
0000
0010
0000
0000
0000
1000
0100
1000
0100
,
1000
0001
0100
0000
0010
0000
0100
0000
,
0001
0010
1000
0010
0001
0000
0100
0000
,
0010
1000
0001
0000
0010
1000
0001
0000
,
0101
0000
1100
0000
0100
0010
0001
0010
,
0000
0000
0110
0000
0010
0001
1000
0000
,
0100
0010
1000
0000
0010
0001
0100
0000
,
0010
1000
0100
0010
,
0001
0010
0001
0010
0100
1000
0100
1000
,
0010
0000
1000
0000
0010
0100
0001
0000
,
1000
0010
0001
0000
0001
0010
1000
0000
,
0100
0010
0001
0010
1000
0010
0100
0000
,
1000
0100
0010
0100
1000
0100
0001
0000
,
0010
0001
0100
0000
0010
1000
0100
0000
,
0001
1000
0100
0000
0001
1000
0100
0000
,
0001
0100
0010
1000
0001
0100
0010
0000
,
1000
0100
0010
0100
1000
0010
0100
0000
,
0010
1000
0001
0000
0010
1000
0001
0000
,
0100
0010
1000
0000
0100
0001
0010
0000
,
0100
1000
0010
0000
0100
0010
0001
0000
,
0100
0010
1000
0000
0100
0000
0010
0000
,
1001
0000
0000
0000
;

//---------------dance-double - ----------------
#NOTES:
     dance-double:
     :
     Beginner:
     1:
     :
00000000
00000000
00000000
00000000
,
00000000
00000000
00000000
00000000
,
00000000
00000000
00000000
00000000
,
00010000
00000000
00010000
00000000
,
00001000
00000000
00001000
00000000
,
00000100
00000000
00000000
00000000
,
00000001
00000000
00000000
00000000
,
00001000
00000000
00001000
00000000
,
00000001
00000000
00000001
00000000
,
00000010
00000000
00000000
00000000
,
00001000
00000000
00010000
00000000
,
00001000
00000000
00000000
00000000
,
00010000
00000000
01000000
00000000
,
00010000
00000000
00000000
00000000
,
10000000
00000000
00010000
00000000
,
10000000
00000000
00000000
00000000
,
00010000
00000000
01000000
00000000
,
00010000
00000000
00000000
00000000
,
00011000
00000000
00000000
00000000
,
00001000
00000000
00001000
00000000
,
00000100
00000100
00000100
00000000
,
00000010
00000000
00000000
00000000
,
00000001
00000000
00000000
00000000
,
00000100
00000000
00000100
00000000
,
00001000
00001000
00001000
00000000
,
00010000
00000000
00000000
00000000
,
01000000
00000000
00000000
00000000
,
10000000
00000000
10000000
00000000
,
00100000
00000000
00100000
00000000
,
01000000
00000000
00000000
00000000
,
00010000
00000000
00000000
00000000
,
00001000
00000000
00010000
00000000
,
00001000
00001000
00001000
00000000
,
00000100
00000000
00000000
00000000
,
00000001
00000000
00000000
00000000
,
00000010
00000000
00000010
00000000
,
00000100
00000100
00000100
00000000
,
00001000
00000000
00001000
00000000
,
00010000
00000000
00000000
00000000
,
01000000
00000000
00000000
00000000
,
10000000
00000000
00000000
00000000
,
00100000
00000000
00100000
00000000
,
00010000
00000000
00000000
00000000
,
00001000
00000000
00000000
00000000
,
00000100
00000000
00000000
00000000
,
00000001
00000000
00000000
00000000
,
00000100
00000000
00000000
00000000
,
00001000
00000000
00000000
00000000
,
00010000
00000000
00010000
00000000
,
00011000
00000000
00000000
00000000
;

//---------------dance-double - ----------------
#NOTES:
     dance-double:
     :
     Easy:
     3:
     :
00000000
00000000
00000000
00000000
,
00000000
00000000
00000000
00000000
,
00000000
00000000
00000000
00000000
,
00100000
00000000
10000000
00000000
,
00010000
00000000
10000000
00000000
,
01000000
00010000
00001000
00000000
,
00010000
00001000
00000100
00000000
,
00000001
00000000
00000010
00000000
,
00000001
00001000
00000001
00001000
,
00000001
00000000
00000010
00000000
,
00001000
00000000
00010000
00000000
,
00100000
00000000
10000000
00000000
,
00010000
00000000
00010000
00000000
,
10000000
00000000
00100000
00000000
,
00010000
00000000
00001000
00000000
,
00000010
00000000
00000001
00000000
,
00001000
00000000
00001000
00000000
,
00000001
00000010
00000001
00000000
,
00000100
00001000
00010000
00000000
,
00010000
00000000
01000000
00000000
,
01000000
00000000
10000000
00000000
,
10000000
00100000
10000000
00000000
,
01000000
00010000
00001000
00000000
,
00001000
00000000
00000100
00000000
,
00000100
00000000
00000001
00000000
,
00002000
00003000
00000002
00000003
,
00000200
00000300
00002000
00003000
,
00020000
00000000
00000000
00030000
,
00000000
01000000
01000000
10000000
,
10000000
01000000
10000000
00000000
,
01000000
00010000
00001000
00000000
,
00001000
00000000
00000100
00000000
,
00001001
00000000
00000000
00000000
,
00000001
00001000
00000001
00000000
,
00000010
00000001
00000100
00000000
,
00001000
00000000
00001000
00000000
,
00010000
00010000
00001000
00001000
,
00010000
00000000
01000000
00000000
,
10000000
00000000
00010000
00000000
,
10000000
01000000
00010000
00000000
,
10000000
01000000
00010000
00000000
,
00001000
00000000
00010000
00000000
,
00001000
00000000
00000100
00000000
,
00000001
00000100
00001000
00000000
,
00000001
00000100
00001000
00000000
,
00010000
00000000
00001000
00000000
,
00010000
00000000
01000000
00000000
,
10000000
00000000
00100000
00000000
,
10000000
01000000
01000000
01000000
,
01000000
00000000
00000000
00000000
;

//---------------dance-double - ----------------
#NOTES:
     dance-double:
     :
     Medium:
     5:
     :
00000000
00000000
00000000
00000000
,
00000000
00000000
00000000
00000000
,
00000000
00000000
00000000
00000000
,
00000100
00000010
00000001
00000100
,
00001000
00010000
00001000
00000100
,
00000001
00001000
00000002
00000000
00000003
00000000
00000200
00000000
,
00000300
00002000
00003000
00010000
,
01000000
10000000
01000000
00100000
,
02000000
00010000
00010000
03010000
,
10000000
01000000
00010000
00001000
,
00000100
00000001
00000100
00000000
00000000
00000000
00000000
00000000
,
00001000
00000001
00001000
00000000
00000001
00000000
00000010
00000000
,
00001000
00010000
01000000
00000000
,
10000000
01000000
00010000
00001000
,
00000100
00000001
00000100
00000000
00000000
00000000
00000000
00000000
,
00001000
00000001
00001000
00000000
00000001
00000000
00000010
00000000
,
00001000
00010000
01000000
00000000
,
10000000
01000000
00100000
00000000
01000000
00000000
10000000
00000000
,
10000000
01000000
00010000
00001000
,
00010000
00001000
00000100
00000001
,
00000010
00001000
00000010
00000001
,
00000001
00000010
00000100
00000000
00000010
00000000
00000001
00000000
,
00000001
00000000
00001000
00010000
,
00001000
00010000
01000000
10000000
,
00100000
00010000
00100000
10000000
,
10000000
01000000
00100000
00100000
,
00001000
00010000
00001000
00000000
,
00000010
00000001
00000100
00001000
,
00000100
00000000
00000001
00000000
00000100
00001000
00000100
00000000
,
00001000
00010000
01000000
00000000
10000000
00000000
01000000
00000000
,
00100000
00010000
10000000
01000000
,
00010000
00001000
00000100
00000001
,
00000010
00000100
00001000
00000001
,
00000100
00001000
00010000
00000000
01000000
00000000
10000000
00000000
,
00010000
00100000
01000000
10000000
,
01000000
00010000
00001000
00000100
,
00000020
00001000
00001000
00001030
,
00000001
00000100
00000001
00000000
00001000
00000000
00000100
00000000
,
00000010
00000001
00000000
00000000
00000000
00000000
00000000
00000000
,
00001000
00010000
00001000
00000000
00010000
00000000
01000000
00000000
,
10000000
00100000
01000000
00000000
,
00010000
01000000
00010000
00000000
00100000
00000000
01000000
00000000
,
10000000
00010000
00000000
00000000
00000000
00000000
00000000
00000000
,
00010000
00001000
00010000
00000000
00001000
00000000
00000100
00000000
,
00000001
00000010
00000100
00000000
,
00000001
00000100
00001000
00000100
,
00000001
00000100
00001000
00001000
,
00010000
01000000
10000000
01000000
,
00010000
01000000
10000000
01000000
,
10010000
00000000
00000000
00000000
;

//---------------dance-double - ----------------
#NOTES:
     dance-double:
     :
     Hard:
     7:
     :
00000000
00000000
00000000
00000000
,
00000000
00000000
00000000
00000000
,
00000000
00000000
00000000
00000000
00000000
00000000
00010000
01000000
,
00100000
00100000
10000000
10000000
,
01000000
00000000
00010000
00000000
00001000
00000000
00000100
00000001
,
00000010
00000010
00000100
00000100
,
00001000
00000000
00000001
00000000
00000100
00000000
00001000
00010000
,
01000000
01000000
00010000
00010000
,
01100000
00101000
00011000
00010100
,
00001000
00000010
00000001
00000000
00000010
00001000
00000100
00000000
,
00000010
00000001
00001000
00000000
00000100
00001000
00000010
00000000
,
00000100
00000001
00001000
00000100
00010000
00001000
00010000
01000000
,
00100000
00010000
00100000
01000000
10000000
00100000
01000000
00000000
,
00010000
00100000
10000000
00000000
00100000
00010000
01000000
00000000
,
00100000
10000000
01000000
00000000
10000000
00010000
00100000
00000000
,
01000000
10000000
00100000
01000000
00001000
00010000
00001000
00000100
,
00000010
00000100
00001000
00000100
00000001
00000010
00000100
00000000
,
00000010
00000001
00001000
00000000
00000100
00000000
00001001
00000000
,
00000001
00000100
00001000
00010000
01000000
10000000
00100000
00000000
,
10000000
00100000
01000000
00000000
00010000
00100000
00001000
00000000
,
00010000
00001000
00000100
00000000
00000001
00000010
00000100
00000000
,
00000001
00000100
00001000
00010000
01000000
10000000
00100000
00000000
,
01000000
00010000
00100000
00001000
00010000
00001000
00000100
00000000
,
00000001
00000010
00000100
00000000
00001000
00000001
00000100
00000000
,
00000010
00001000
00000100
00000010
00000001
00000100
00001000
00000000
,
00010000
00100000
10000000
00100000
,
00010000
00001000
00000010
00000001
,
00000010
00000001
00000100
00001000
00010000
01000000
10000000
00100000
,
01000000
00000000
01010000
00000000
11000000
00000000
01000000
00100000
,
00010000
00100000
01000000
00000000
00100000
00001000
00010000
00000000
,
00001000
00000100
00000010
00000000
00001000
00000001
00000100
00000000
,
00000010
00001000
00000100
00000000
00000010
00000001
00000100
00000000
,
00011000
00000000
00000000
00000000
00000100
00001000
00010000
01000000
,
00000000
01000000
10010000
00000000
10000000
00100000
01000000
00000000
,
00010000
10000000
00100000
00000000
01000000
00001000
00010000
00000000
,
01000000
10000000
00100000
00000000
00010000
10000000
00100000
00000000
,
00010000
00100000
10000000
01000000
00010000
00001000
00000100
00000001
,
00000100
00000000
00001000
00000000
00000100
00000010
00001000
00000000
,
00000100
00000010
00000001
00000000
00001000
00000001
00000010
00000000
,
00001000
00000100
00000001
00000100
00001000
00000100
00000010
00000000
,
00000001
00000100
00001000
00010000
01000000
10000000
00100000
00000000
,
00010000
01000000
00100000
00000000
01000000
00001000
00010000
00000000
,
01000000
10000000
00100000
00000000
01000000
00010000
00100000
00000000
,
00010000
01000000
10000000
01000000
00010000
01000000
00100000
00000000
,
00010000
00100000
10000000
01000000
00010000
00001000
00000100
00000001
,
00000010
00000000
00000100
00000000
00001000
00000000
00000001
00000100
,
00001000
00000000
00010000
00000000
00100000
00000000
01000000
00010000
,
10000000
00000000
01000000
00000000
00010000
00000000
00001000
00000100
,
00000010
00001000
00000100
00000010
,
00001001
00000000
00000000
00000000
;
