#TITLE:ON THE JAZZ (Smooth House Mix);
#ARTIST:Jonny Dynamite!;
#BANNER:ON THE JAZZ (Smooth House Mix).png;
#BACKGROUND:ON THE JAZZ (Smooth House Mix)-bg.png;
#CDTITLE:./CDTITLES/Dance Dance Revolution UNIVERSE DLC.png;
#MUSIC:ON THE JAZZ (Smooth House Mix).ogg;
#SAMPLESTART:33.191;
#SAMPLELENGTH:15;
#BPMS:0=130.01;

//---------------dance-single - ----------------
#NOTES:
     dance-single:
     :
     Beginner:
     1:
     :
0000
0000
0000
0000
,
0000
0000
0000
0000
,
0000
0000
0000
0000
,
0000
0000
0000
0000
,
1000
0000
0000
0000
,
0001
0000
0000
0000
,
0100
0000
0000
0000
,
0100
0100
0100
0000
,
0010
0000
0000
0000
,
0010
0010
0010
0000
,
1000
0000
0000
0000
,
0001
0000
0000
0000
,
1000
0000
0100
0000
,
0001
0000
0100
0000
,
0010
0000
0000
0000
,
0100
0000
0000
0000
,
0010
0000
1000
0000
,
0100
0000
0010
0000
,
0001
0000
1000
0000
,
0100
0000
0100
0000
,
0010
0010
0010
0000
,
0001
0000
1000
0000
,
0001
0000
0000
0000
,
0100
0000
0000
0000
,
0010
0000
0000
0000
,
0010
0010
0010
0010
,
0010
0000
0000
0000
,
1000
0000
0000
0000
,
0100
0000
0000
0000
,
0001
0000
0000
0000
,
0010
0000
0010
0000
,
0001
0000
1000
0000
,
0100
0000
0100
0000
,
0010
0000
0010
0000
,
1000
0000
0001
0000
,
0100
0000
0001
0001
,
0001
0000
0000
0000
,
0100
0000
0000
0000
,
0010
0000
1000
0000
,
0001
0001
0001
0000
,
1000
0000
0100
0000
,
0010
0010
0010
0000
,
1000
0000
0001
0000
,
1000
1000
1000
0000
,
0010
0000
0000
0000
,
0100
0000
0000
0000
,
1000
0000
0100
0000
,
0001
0000
0100
0000
,
1000
1000
1000
0000
,
0010
0000
0100
0000
,
0010
0010
0010
0000
,
0001
0000
0001
0000
,
1000
0000
0000
0000
,
0001
0000
0000
0000
,
1001
0000
0000
0000
;

//---------------dance-single - ----------------
#NOTES:
     dance-single:
     :
     Easy:
     3:
     :
0000
0000
0000
0000
,
0000
0000
0000
0000
,
0000
0000
0000
0000
,
0000
0000
0000
0000
,
0002
0000
0003
0000
,
2000
0000
3000
0000
,
0100
0000
0100
0000
,
0100
0010
0001
0000
,
0001
0000
0001
0000
,
0001
0100
1000
0001
,
0010
0001
0000
0010
,
0000
0001
0000
1000
,
0010
0001
0000
1000
,
0000
0001
0000
1000
,
0001
0100
0000
0010
,
0000
0100
0000
1000
,
0010
0001
0000
0100
,
0100
0010
0010
1000
,
1000
0002
0000
0003
,
0001
0200
0000
0300
,
0100
0001
0002
0000
,
1003
0001
0010
0100
,
0220
0000
0000
0330
,
0000
1000
0000
0001
,
2002
0000
0000
3003
,
0000
1000
0100
1000
,
0010
0100
0000
0001
,
0000
0001
0000
1000
,
0000
1000
0000
0100
,
0010
0000
0000
0000
,
0000
0010
0000
0001
,
1000
0100
0000
0010
,
0000
0100
0000
1000
,
0000
0001
0000
0100
,
0010
0001
0000
0010
,
0000
0100
0000
1000
,
0001
0001
0000
0000
,
0100
0100
0000
0000
,
0010
0010
0001
0000
,
1000
1000
0100
0000
,
0000
0001
0000
1000
,
0000
0001
0000
1000
,
0100
0010
0000
0001
,
0000
0100
0010
0100
,
0220
0000
0000
0330
,
0000
1000
0000
0001
,
2002
0000
0000
3003
,
0000
0001
0100
0010
,
1000
0001
0000
1000
,
0000
0010
0000
0001
,
0000
0100
0000
0001
,
0000
0100
0000
0010
,
0100
0100
0100
0001
,
0010
0010
0010
1000
,
1001
0000
0000
0000
;

//---------------dance-single - ----------------
#NOTES:
     dance-single:
     :
     Medium:
     5:
     :
0000
0000
0000
0000
,
0000
0000
0000
0000
,
0000
0000
0000
0000
,
0000
0000
0000
0000
,
0010
1000
0010
0000
0100
0000
0000
0000
,
1000
0001
1000
0000
0001
0000
0000
0000
,
0010
1000
0100
0000
,
0010
0001
0100
0000
,
0001
0010
0100
0100
,
0010
0000
1000
0000
0010
1000
0001
1000
,
0001
1000
0001
0100
,
0000
0020
0000
1030
,
0100
0010
0100
0001
,
0000
0020
0000
0130
,
1000
0001
0100
0010
,
0000
2000
0000
3001
,
0100
1000
0010
0100
,
0001
0001
0001
0000
1000
1000
1000
0000
,
0010
0100
0000
0001
,
0010
0100
0000
1000
,
0010
1000
0000
0100
,
0010
0001
1000
0100
,
0010
1000
0001
0100
,
0001
1001
0000
0110
,
0000
0110
0000
1001
,
0001
1000
0100
1000
,
0001
1001
0000
0110
,
0000
0110
0000
1001
,
0100
0010
0001
0100
,
0002
0000
0000
0003
,
1000
0100
0010
0001
,
0000
0020
0000
0130
,
0001
0100
0010
1000
,
0000
0020
0000
1030
,
0001
1000
0001
0100
,
0000
0000
0010
0000
0000
0000
0100
0001
,
0010
1000
0100
0010
,
0001
0000
0001
0000
1000
0100
1000
0000
,
0010
0100
0010
0001
,
0010
1000
1000
0000
0100
1000
1000
0000
,
0001
0100
1000
0100
,
0001
0000
1000
0000
0010
0100
0001
0000
,
0010
0010
0100
0100
,
0001
0000
1000
0000
0001
0000
1000
0001
,
1000
0010
0100
0001
,
0010
0002
0000
1003
,
0001
0200
0000
0310
,
1000
0200
0000
0310
,
0001
2000
0000
3001
,
0100
0020
0000
1030
,
0001
0200
0000
0301
,
1000
0100
0010
0000
,
1000
1000
0001
0001
,
0010
0010
0100
0100
,
0110
0000
0000
0000
;

//---------------dance-single - ----------------
#NOTES:
     dance-single:
     :
     Hard:
     8:
     :
0000
0000
0000
0000
,
0000
0000
0000
0000
,
0000
0000
0000
0000
,
0000
0000
0000
0000
,
0010
0000
0000
0000
1100
0000
0000
0000
1000
0000
0100
1000
0000
0001
0100
0000
,
0010
0000
0000
0000
0101
0000
0000
0000
0001
0000
0010
0001
0000
1000
0010
0000
,
0100
0000
0000
0000
1001
0000
0000
0000
0100
0000
0010
1000
0000
0001
0100
0000
,
0010
0000
0000
0000
1001
0000
0000
0000
0100
0000
0010
0001
0000
1000
0100
0000
,
0010
0000
0000
0000
1001
0000
0000
0000
0010
0000
0100
0001
0000
1000
0010
0000
,
0000
0000
1001
0000
0000
0011
0000
0000
1010
0000
0000
0011
0000
0000
1001
0000
,
0100
0000
1000
0000
0000
0010
0000
0000
1000
0000
0000
0100
0000
0000
1000
0000
,
0010
0000
0100
0000
0000
0001
0000
0000
0100
0000
0000
1000
0000
0000
0100
0000
,
0001
0000
0010
0000
0000
0100
0000
0000
0010
0000
0000
0001
0000
0000
0010
0000
,
0100
0000
1100
0000
0000
0101
0000
0000
1100
0000
0000
0101
0000
0000
1000
0000
,
0002
0000
0010
0000
0000
1000
0000
0000
0100
0000
0000
1000
0000
0000
0013
0000
,
0200
0000
1000
0000
0000
0010
0000
0000
0001
0000
0000
0010
0000
0000
1300
0000
,
0001
0000
0010
0001
0000
0000
1000
0000
0100
0000
0010
0001
0000
0000
0100
0000
,
1000
0000
0100
0000
0001
0000
0010
0000
0100
0000
1000
0001
0000
1000
0001
0000
,
0100
0000
1100
0000
0001
0100
1000
0000
,
0010
0000
1000
0000
0100
0000
0000
0000
0001
0000
0100
0000
1000
0000
0000
1001
,
0000
1001
0000
0100
0000
0010
0001
0000
1000
0000
0001
1000
0000
0000
0010
0000
,
0110
0000
0110
0000
0100
0001
0100
0000
0010
1000
0000
1000
0000
0000
0001
0000
,
1000
1010
0100
1100
,
0001
0000
0100
0010
0100
0001
1000
0000
,
0100
1010
0010
0011
,
1000
0010
0100
0001
0010
0001
1000
0000
,
0100
0011
0100
0101
,
1000
0000
1001
0000
0100
0000
1100
0001
,
0100
0000
0010
0001
0010
0000
1000
0010
,
2002
0000
0000
3003
,
1000
0000
0100
0000
0002
0000
0000
0000
0010
0000
0000
0010
0000
0000
0013
0000
,
0001
0000
0100
0000
2000
0000
0000
0000
0010
0000
0000
0010
0000
0000
3010
0000
,
1000
0000
0001
0000
0200
0000
0000
0000
1000
0000
0000
1000
0000
0000
1300
0000
,
0010
0000
0001
0000
0200
0000
0000
0000
1000
0000
0000
1000
0000
0000
1300
0000
,
0100
0000
0001
0000
1000
0000
0020
0000
0100
0000
0000
0100
0000
0000
0130
0000
,
0010
0000
1000
0000
0001
0000
0020
0000
0100
0000
0000
0100
0000
0000
0130
0000
,
1001
0000
0000
0100
1000
0000
0000
0010
1000
0000
0100
0000
0010
0000
0000
0000
,
0001
0000
0000
0100
0001
0000
0000
0010
0001
0000
0100
0000
0010
0000
1000
0000
,
0001
0000
0001
0000
1000
0000
1000
0000
0100
0000
0100
0010
0000
0010
0001
0000
,
1000
1000
0010
0010
0100
0100
1001
0000
,
0100
0001
1000
0001
0010
0001
1100
0000
,
0100
1000
0001
1000
0010
1000
0101
0000
,
1000
0001
0000
1000
0001
0000
0100
0000
0010
0000
1000
0001
0000
0000
0100
0000
,
0001
0000
0010
0100
0000
0001
0000
0100
0000
0010
0000
0100
0000
1000
0000
0001
,
1000
0000
0101
0000
0010
1000
0001
0100
,
0010
0000
1001
0000
0100
0010
0001
1000
,
0100
0000
1001
0000
0100
0001
1000
0010
,
0100
0000
0001
0100
0001
0000
0010
0000
0000
0000
0100
1000
0100
0000
1000
0000
,
0010
0000
0000
0000
1001
0000
0000
0000
0100
1000
0000
0001
0010
0000
0100
0000
,
1000
0000
0000
0000
1001
0000
0000
0000
0100
0001
0000
1000
0010
0000
0100
0000
,
0001
1000
1100
0000
1000
0010
0110
0000
,
0100
0001
0011
0010
0100
1000
1010
0000
,
1000
0000
0010
0000
0000
0010
0000
0000
0001
0000
0000
0001
0000
0000
0100
0000
,
0000
0000
0010
0000
0000
0010
0000
0000
1000
0000
0000
1000
0000
0000
0200
0000
,
0002
0000
0303
0000
;

//---------------dance-double - ----------------
#NOTES:
     dance-double:
     :
     Beginner:
     1:
     :
00000000
00000000
00000000
00000000
,
00000000
00000000
00000000
00000000
,
00000000
00000000
00000000
00000000
,
00000000
00000000
00000000
00000000
,
00000100
00000000
00000000
00000000
,
00001000
00000000
00000000
00000000
,
00000010
00000000
00000000
00000000
,
00000001
00000001
00000001
00000000
,
00001000
00000000
00000000
00000000
,
00000010
00000010
00000010
00000000
,
00010000
00000000
00000000
00000000
,
00001000
00000000
00000000
00000000
,
00100000
00000000
00010000
00000000
,
10000000
00000000
00100000
00000000
,
00010000
00000000
00000000
00000000
,
10000000
00000000
00000000
00000000
,
00100000
00000000
00010000
00000000
,
01000000
00000000
00001000
00000000
,
00010000
00000000
00000100
00000000
,
00000010
00000000
00000010
00000000
,
00001000
00001000
00001000
00000000
,
00000001
00000000
00000100
00000000
,
00000010
00000000
00000000
00000000
,
00010000
00000000
00000000
00000000
,
00001000
00000000
00000000
00000000
,
00010000
00010000
00010000
00010000
,
00010000
00000000
00000000
00000000
,
01000000
00000000
00000000
00000000
,
00100000
00000000
00000000
00000000
,
01000000
00000000
00000000
00000000
,
10000000
00000000
10000000
00000000
,
00010000
00000000
00100000
00000000
,
00001000
00000000
00001000
00000000
,
00010000
00000000
00010000
00000000
,
00000100
00000000
00001000
00000000
,
00000010
00000000
00000100
00000100
,
00000100
00000000
00000000
00000000
,
00000001
00000000
00000000
00000000
,
00000010
00000000
00001000
00000000
,
00000010
00000010
00000010
00000000
,
00010000
00000000
00001000
00000000
,
01000000
01000000
01000000
00000000
,
00100000
00000000
10000000
00000000
,
00010000
00010000
00010000
00000000
,
01000000
00000000
00000000
00000000
,
10000000
00000000
00100000
00000000
,
01000000
00000000
00001000
00000000
,
00010000
00000000
00000100
00000000
,
00001000
00001000
00001000
00000000
,
00000001
00000000
00000010
00000000
,
00000100
00000100
00000100
00000000
,
00001000
00000000
00000100
00000000
,
00010000
00000000
00000000
00000000
,
00001000
00000000
00000000
00000000
,
00011000
00000000
00000000
00000000
;

//---------------dance-double - ----------------
#NOTES:
     dance-double:
     :
     Easy:
     3:
     :
00000000
00000000
00000000
00000000
,
00000000
00000000
00000000
00000000
,
00000000
00000000
00000000
00000000
,
00000000
00000000
00000000
00000000
,
00000020
00000000
00000030
00000000
,
00020000
00000000
00030000
00000000
,
00001000
00000000
00010000
00000000
,
00001000
01000000
00100000
00000000
,
10000000
01000000
00100000
00000000
,
10000000
00010000
01000000
00100000
,
00010000
10000000
00000000
01000000
,
00000000
00010000
00000000
00001000
,
00000100
00000001
00000000
00000010
,
00000000
00000100
00000000
00001000
,
00000010
00000100
00000000
00000001
,
00000000
00001000
00000000
00000010
,
00010000
00001000
00000000
00100000
,
00100000
01000000
01000000
10000000
,
10000000
00200000
00000000
00300000
,
00100000
02000000
00000000
03000000
,
01000000
10000000
20000000
00000000
,
30010000
00100000
00001000
00010000
,
00022000
00000000
00000000
00033000
,
00000000
00000100
00000000
00000010
,
00000220
00000000
00000000
00000330
,
00000000
00000001
00000010
00000001
,
00001000
00000010
00000000
00001000
,
00000000
00001000
00000000
00000100
,
00000000
00000100
00000000
00010000
,
00001000
00000000
00000000
00000000
,
00000000
00010000
00000000
01000000
,
00100000
00010000
00000000
10000000
,
00000000
00010000
00000000
01000000
,
00000000
00100000
00000000
10000000
,
00010000
10000000
00000000
00100000
,
00000000
00010000
00000000
01000000
,
00001000
00001000
00000000
00000000
,
00010000
00010000
00000000
00000000
,
00001000
00001000
00000100
00000000
,
00000001
00000001
00000010
00000000
,
00000000
00000001
00000000
00000010
,
00000000
00001000
00000000
00000010
,
00001000
00000100
00000000
00010000
,
00000000
00001000
00010000
00001000
,
00022000
00000000
00000000
00033000
,
00000000
00100000
00000000
01000000
,
02200000
00000000
00000000
03300000
,
00000000
10000000
01000000
00010000
,
00100000
00001000
00000000
00010000
,
00000000
00000100
00000000
00000010
,
00000000
00000001
00000000
00001000
,
00000000
00000010
00000000
00001000
,
00000100
00000100
00000100
00010000
,
00001000
00001000
00001000
00000100
,
00000110
00000000
00000000
00000000
;

//---------------dance-double - ----------------
#NOTES:
     dance-double:
     :
     Medium:
     5:
     :
00000000
00000000
00000000
00000000
,
00000000
00000000
00000000
00000000
,
00000000
00000000
00000000
00000000
,
00000000
00000000
00000000
00000000
,
00010000
00001000
00010000
00000000
00000100
00000000
00000000
00000000
,
00000010
00000001
00000010
00000000
00000100
00000000
00000000
00000000
,
00010000
00001000
00000100
00000000
,
00000010
00010000
00001000
00000000
,
00010000
01000000
00100000
00010000
,
01000000
00000000
00010000
00000000
10000000
01000000
10000000
01000000
,
00100000
00010000
01000000
00001000
,
00000000
00020000
00000000
00030010
,
00001000
00000001
00000100
00000010
,
00000000
00002000
00000000
00003100
,
00000010
00000001
00000100
00000010
,
00000000
00000200
00000000
00000310
,
00001000
00000100
00010000
00001000
,
00100000
00100000
00100000
00000000
01000000
01000000
01000000
00000000
,
10000000
00100000
00000000
10000000
,
00010000
00100000
00000000
01000000
,
00010000
00100000
00000000
00001000
,
00010000
00001000
00000100
00000010
,
00001000
00000100
00000010
00000001
,
00001000
00001001
00000000
00001100
,
00000000
00001100
00000000
00011000
,
00001000
00100000
00010000
00100000
,
10000000
10010000
00000000
11000000
,
00000000
11000000
00000000
01100000
,
00000000
00100000
00001000
00010000
,
00002000
00000000
00000000
00003000
,
00000100
00000010
00001000
00000001
,
00000000
00000200
00000000
00000310
,
00000001
00000100
00000010
00001000
,
00000000
00020000
00000000
00130000
,
01000000
00010000
00100000
01000000
,
00000000
00000000
10000000
00000000
00000000
00000000
00010000
10000000
,
01000000
00100000
10000000
00100000
,
00010000
00000000
00100000
00000000
00001000
00010000
00001000
00000000
,
00000100
00000001
00000010
00000001
,
00001000
00000100
00000100
00000000
00000001
00000100
00000100
00000000
,
00000010
00000100
00010000
00001000
,
01000000
00000000
00100000
00000000
10000000
00010000
10000000
00000000
,
00100000
00100000
01000000
01000000
,
10000000
00000000
01000000
00000000
00100000
00000000
01000000
00100000
,
01000000
00100000
00001000
00010000
,
00001000
00020000
00000000
00030100
,
00001000
00000020
00000000
00000130
,
00000001
00002000
00000000
00003010
,
00000100
00000002
00000000
00001003
,
00000100
00200000
00000000
00310000
,
01000000
00200000
00000000
01300000
,
00010000
00100000
01000000
00000000
,
10000000
10000000
00100000
00100000
,
01000000
01000000
00010000
00010000
,
11000000
00000000
00000000
00000000
;

//---------------dance-double - ----------------
#NOTES:
     dance-double:
     :
     Hard:
     8:
     :
00000000
00000000
00000000
00000000
,
00000000
00000000
00000000
00000000
,
00000000
00000000
00000000
00000000
,
00000000
00000000
00000000
00000000
,
00000000
00000000
20000000
00000000
00000000
32000000
00000000
00000000
03020000
00000000
00000000
00032000
00000000
00000000
00003020
00000000
,
00000000
00000000
00000032
00000000
00000000
00000023
00000000
00000000
00002030
00000000
00000000
00023000
00000000
00000000
01030000
00000000
,
10000000
00100000
00000000
01010000
00000000
00110000
00000000
01010000
,
00001000
00000100
00000000
00001100
00000000
00001010
00000000
00001100
,
00010000
00001000
00000000
00101000
00000000
00010100
00000000
00101000
,
00010000
00000000
00001000
00000000
00000000
00110000
00000000
00000000
00011000
00000000
00000000
00001100
00000000
00000000
00011000
00000000
,
00100000
00010000
01000000
00000000
10000000
01000000
00010000
00000000
,
00100000
00000000
01000000
00000000
10000000
00000000
01000000
00000000
00010000
00000000
00001000
00000000
00010000
00000000
00000000
00010000
,
00000100
00001000
00000010
00000000
00000001
00000010
00001000
00000000
,
00000100
00000000
00000010
00000000
00000001
00000000
00000010
00000000
00001000
00000000
00010000
00000000
00001000
00000000
00000000
00001000
,
00100000
00010000
01000000
00000000
00100000
10000000
00010000
00000000
,
00100000
00000000
01000000
00000000
10000000
00000000
00010000
00000000
00100000
00000000
00001000
00000000
00010000
00000000
00000000
00010000
,
00000010
00001000
00000100
00000000
00000010
00000001
00001000
00000000
,
00000010
00000000
00001000
00000000
00000001
00000000
00000010
00000000
00000100
00000000
00001000
00000001
00000000
00001000
00000001
00000000
,
00000110
00000000
00001001
00000000
00000000
00000110
00001000
00000001
,
00000110
00000000
00001001
00000000
00000000
00001100
00010000
00001000
,
00110000
00000000
10010000
00000000
00000000
10100000
01000000
00010000
,
11000000
00110000
01010000
10100000
,
00010000
10000000
01000000
00000000
00100000
00010000
10000000
00000000
,
02000000
00000000
03010000
00001000
00000010
00001000
00010000
00000000
,
00000100
00001000
00000010
00000000
00000100
00000001
00002000
00000000
,
00003100
00000010
00001000
00010000
00100000
00010000
00001000
00000000
,
00010100
01001000
00010010
00101000
,
00010000
00001000
00000100
00000000
00001000
00010000
00000100
00000000
,
00010000
00001000
00100000
00000000
00010000
01000000
00100000
00000000
,
10010000
00000000
00000000
00000000
00000000
00000000
00010000
00100000
00001000
00000000
00010000
00000100
00001000
00000000
00000020
00000000
,
00000000
00000000
00000100
00000000
00000000
00000230
00000000
00000000
00000001
00000000
00000000
00000301
00000000
00000000
00002001
00000000
,
00000000
00000000
00000100
00000000
00000000
00003200
00000000
00000000
00010000
00000000
00000000
00010300
00000000
00000000
00012000
00000000
,
00000000
00000000
00100000
00000000
00000000
00203000
00000000
00000000
00010000
00000000
00000000
00310000
00000000
00000000
02010000
00000000
,
00000000
00000000
00100000
00000000
00000000
03200000
00000000
00000000
10000000
00000000
00000000
10300000
00000000
00000000
10010000
00000000
,
00000000
00000000
11000000
00000000
00000000
01000000
00000000
00000000
01010000
00000000
00000000
00010000
00000000
00000000
00011000
00000000
,
00000000
00000000
00001010
00000000
00000000
00000010
00000000
00000000
00000011
00000000
00000000
00000001
00000000
00000000
00001001
00000000
,
00000100
00000202
00000303
00002020
,
00003030
00022000
00033000
00220000
,
00330000
00000000
00100000
00000000
01000000
10000000
00000000
01000000
00010000
00000000
01000000
10000000
00000000
01000000
00010000
00000000
,
00001000
00000000
00010000
00000000
00001000
00000100
00000000
00000001
00000100
00000000
00001000
00000100
00000000
00000001
00000100
00000000
,
00000010
00000001
00000010
00001000
00010000
01000000
10000000
01000000
,
00100000
10000000
00100000
00010000
00001000
00000100
00000001
00000100
,
00000010
00001000
00000000
00000010
00001000
00000000
00000001
00000000
00000100
00000000
00000010
00001000
00000000
00001000
00000010
00000000
,
00000100
00000000
00001000
00010000
00000000
00001000
00000000
00000100
00000000
00000000
00000001
00000000
00001000
00000000
00000000
00000000
,
00000100
00000010
00000001
00000000
00001000
00000100
00000010
00000000
,
00000100
00010000
00001000
01000000
00010000
10000000
00100000
10000000
,
01000000
10010000
00100000
01010000
,
10000000
01000000
11000000
00000000
00010000
01000000
01010000
00000000
,
00001000
00010000
00000100
00000000
00001000
00000001
00000100
00000000
,
00000010
00001000
00000100
00001000
00000010
00010000
00001000
00000000
,
00100000
01010000
00100000
10100000
,
01000000
00010000
10010000
00000000
00100000
10000000
10010000
00000000
,
10000000
00000000
00200000
00000000
00000000
00320000
00000000
00000000
00032000
00000000
00000000
00003020
00000000
00000000
00000032
00000000
,
00000000
00000000
00000023
00000000
00000000
00002030
00000000
00000000
00023000
00000000
00000000
00230000
00000000
00000000
20300000
00000000
,
00020000
00000000
30030000
00000000
;
