#TITLE:Magic Carpet Ride (Steir's Mix);
#ARTIST:Philip Steir feat. Steppenwolf;
#BANNER:Magic Carpet Ride (Steir's Mix).png;
#BACKGROUND:Magic Carpet Ride (Steir's Mix)-bg.png;
#CDTITLE:./CDTITLES/Dance Dance Revolution UNIVERSE.png;
#MUSIC:Magic Carpet Ride (Steir's Mix).ogg;
#SAMPLESTART:44.929;
#SAMPLELENGTH:15;
#DISPLAYBPM:112;
#BPMS:0=112.12;

//---------------dance-single - ----------------
#NOTES:
     dance-single:
     :
     Beginner:
     1:
     :
0000
0000
0000
0000
,
0000
0000
0000
0000
,
0000
0000
0000
0000
,
0000
0000
0000
0000
,
0000
0000
0000
0000
,
1000
0000
0000
0000
,
0001
0000
0000
0000
,
1000
0000
0000
0000
,
0001
0000
0000
0000
,
0100
0000
0000
0000
,
0010
0000
0010
0000
,
0100
0000
0000
0000
,
0001
0000
0000
0000
,
1000
1000
1000
0000
,
0001
0000
0001
0000
,
0010
0000
0010
0000
,
0001
0000
0001
0000
,
1000
0000
1000
0000
,
1000
0000
0000
0000
,
0001
0000
0001
0000
,
0001
0000
0000
0000
,
0100
0000
0100
0000
,
0001
0000
0001
0000
,
1000
0000
1000
0000
,
0002
0000
0000
0003
,
0001
0000
0001
0000
,
1000
0000
1000
0000
,
0010
0000
0010
0000
,
0100
0000
0000
0000
,
1000
0000
1000
0000
,
0001
0000
0001
0000
,
0010
0000
0010
0000
,
0100
0000
0100
0000
,
1000
0000
1000
0000
,
0100
0000
0100
0000
,
0010
0000
0010
0000
,
0001
0000
0001
0000
,
0100
0000
0100
0000
,
0001
0000
0001
0000
,
1000
0000
1000
0000
,
0002
0000
0000
0003
,
0001
0000
0001
0000
,
1000
0000
1000
0000
,
0010
0000
0010
0000
,
0100
0000
0000
0000
;

//---------------dance-single - ----------------
#NOTES:
     dance-single:
     :
     Easy:
     3:
     :
0000
0000
0000
0000
,
0000
0000
0000
0000
,
0000
0000
0000
0000
,
0000
0000
0000
0000
,
0000
0000
0000
0000
,
2000
0000
0000
3000
,
0001
0000
0000
0000
,
0200
0000
0000
0300
,
0010
0000
0000
0000
,
0001
1000
0001
0010
,
0100
0000
0100
0000
,
0001
1000
0001
0100
,
0010
0000
0010
0000
,
0100
0010
0100
0001
,
1000
0000
1000
0000
,
0010
0100
0010
1000
,
0001
0000
0001
0000
,
0200
0000
0310
0000
,
0100
0010
0100
0000
,
2000
0000
3001
0000
,
1001
0000
0000
0000
,
0001
0100
0002
0003
,
1000
0100
2000
3000
,
0010
0100
0010
0100
,
0110
0000
0000
0000
,
1000
0100
2000
3000
,
0001
0100
0002
0003
,
0010
0100
0010
0100
,
0110
0000
0000
0000
,
2000
0000
3001
1000
,
0002
0000
1003
0000
,
0110
0000
0100
0000
,
0010
0000
0100
0000
,
0020
0000
0130
0010
,
0200
0000
0310
0000
,
0001
0000
1000
0000
,
1000
0001
1000
0001
,
1000
0010
2000
3000
,
0001
0010
0002
0003
,
0100
0010
0100
0010
,
0110
0000
0000
0000
,
0001
0010
0002
0003
,
1000
0010
2000
3000
,
0100
0010
0100
0010
,
0110
0000
0000
0000
;

//---------------dance-single - ----------------
#NOTES:
     dance-single:
     :
     Medium:
     5:
     :
0000
0000
0000
0000
,
0000
0000
0000
0000
,
0000
0000
0000
0000
,
0000
0000
0000
0000
,
0000
0000
0000
0000
,
1000
0010
0100
0010
,
0001
0010
0100
0010
,
1000
0100
0010
0100
,
0001
0100
0010
0100
,
2000
3100
2000
3010
,
0001
0101
0001
0101
,
0002
0013
0002
0103
,
1000
1010
1000
1010
,
0020
1030
0020
0130
,
0001
0011
0001
0011
,
0200
0301
0200
0310
,
1000
1100
1000
1100
,
0002
0023
0230
1300
,
0020
0130
0200
0310
,
2000
3020
0230
0301
,
0220
0000
0000
0330
,
0001
0010
0001
0011
,
1000
0100
1000
1100
,
0001
0010
0001
0000
0001
0010
0001
0000
,
2000
3200
1300
1100
,
1000
0100
1000
1100
,
0001
0010
0001
0011
,
1000
0100
1000
0000
1000
0100
1000
0000
,
0002
0023
0031
0011
,
2000
3100
0002
0103
,
0010
0000
0100
0000
0001
0100
0001
0000
,
1000
0000
0100
0000
1000
0100
1000
0000
,
0001
0000
0100
0000
0001
0100
0001
0000
,
2000
3010
0002
0013
,
1000
0000
0010
0000
1000
0010
1000
0000
,
0001
0000
0010
0000
0001
0010
0001
0000
,
0010
0001
1000
0110
,
0001
0010
0001
0011
,
1000
0100
1000
1100
,
0001
0010
0001
0000
0001
0010
0001
0000
,
2000
3200
1300
1100
,
1000
0100
1000
1100
,
0001
0010
0001
0011
,
1000
0100
1000
0000
1000
0100
1000
0000
,
0002
0023
0031
0011
;

//---------------dance-single - ----------------
#NOTES:
     dance-single:
     :
     Hard:
     7:
     :
0000
0000
0000
0000
,
0000
0000
0000
0000
,
0000
0000
0000
0000
,
0000
0000
0000
0000
,
0000
0000
0000
0000
,
2000
0010
0001
3100
,
0002
0010
1000
0103
,
0020
1000
0100
0031
,
0200
0001
0010
1300
,
1000
0100
1000
0010
0200
0000
0310
0000
,
0001
0100
0001
0000
0100
0001
0100
0000
,
0010
0100
0010
1000
0100
0010
0100
0000
,
1000
0100
1000
0000
0100
1000
0100
0000
,
0001
0100
0010
0100
0002
0000
0013
0000
,
0100
1000
0100
0000
1000
0100
1000
0000
,
0001
0100
0010
0100
1000
0100
0010
0000
,
0100
0001
0100
0000
0001
0100
0001
0000
,
1100
0000
0101
0000
0010
0100
1000
0000
,
1001
0000
0110
0000
1000
0100
0001
0000
,
0101
0000
1100
0000
0010
0100
0001
0000
,
2001
0000
3001
0000
0010
0100
0010
0000
,
0010
1000
0100
1000
0010
1000
0100
0000
,
0001
0100
0010
0100
0001
0000
1000
0000
,
0001
0100
0001
1000
0001
0100
0001
0000
,
1000
0100
1000
0100
0010
0100
1000
0000
,
0010
0100
0001
0000
0010
0100
1000
0000
,
0010
0100
0001
0100
0010
0000
1000
0000
,
0100
1000
0010
0000
0100
0001
0010
0000
,
0100
1000
0001
0000
0100
1000
0001
0000
,
1001
0000
0100
0000
1001
1001
1001
0000
,
0010
1000
0100
0000
0101
0101
0101
0000
,
0010
0100
0001
0000
0100
0010
1000
0000
,
1000
0100
1000
0100
1000
0001
1000
0000
,
0010
0000
0100
0000
0001
0100
0001
0000
,
1000
0100
1000
0000
0100
1000
0100
0000
,
0010
0001
0100
0000
0100
0001
0010
0000
,
1100
0001
1010
0001
,
0010
1000
0100
1000
0010
1000
0100
0000
,
0001
0100
0010
0100
0001
0000
1000
0000
,
0001
0100
0001
0100
0001
0100
0001
0000
,
1000
0100
1000
0100
0010
0100
1000
0000
,
0010
0100
0001
0000
0010
0100
1000
0000
,
0010
0100
0001
0100
0010
0000
1000
0000
,
0100
1000
0010
0000
0100
0001
0010
0000
,
0100
1000
0001
0100
1000
0010
1000
0000
,
1001
0000
0000
0000
;

//---------------dance-double - ----------------
#NOTES:
     dance-double:
     :
     Beginner:
     1:
     :
00000000
00000000
00000000
00000000
,
00000000
00000000
00000000
00000000
,
00000000
00000000
00000000
00000000
,
00000000
00000000
00000000
00000000
,
00000000
00000000
00000000
00000000
,
10000000
00000000
00000000
00000000
,
00010000
00000000
00000000
00000000
,
10000000
00000000
00000000
00000000
,
00010000
00000000
00000000
00000000
,
01000000
00000000
00000000
00000000
,
00100000
00000000
00100000
00000000
,
01000000
00000000
00000000
00000000
,
00010000
00000000
00000000
00000000
,
00001000
00001000
00001000
00000000
,
00010000
00000000
00010000
00000000
,
00000010
00000000
00000010
00000000
,
00001000
00000000
00001000
00000000
,
00000001
00000000
00000001
00000000
,
00000100
00000000
00000000
00000000
,
00001000
00000000
00001000
00000000
,
00001000
00000000
00000000
00000000
,
00010000
00000000
00010000
00000000
,
00001000
00000000
00001000
00000000
,
00100000
00000000
00100000
00000000
,
00020000
00000000
00000000
00030000
,
00010000
00000000
00010000
00000000
,
10000000
00000000
10000000
00000000
,
01000000
00000000
00010000
00000000
,
00001000
00000000
00000000
00000000
,
00010000
00000000
00010000
00000000
,
00001000
00000000
00001000
00000000
,
00000100
00000000
00000100
00000000
,
00000001
00000000
00000001
00000000
,
00001000
00000000
00001000
00000000
,
00000001
00000000
00000001
00000000
,
00000100
00000000
00000100
00000000
,
00001000
00000000
00001000
00000000
,
00010000
00000000
00010000
00000000
,
00001000
00000000
00001000
00000000
,
00100000
00000000
00100000
00000000
,
00020000
00000000
00000000
00030000
,
00010000
00000000
00010000
00000000
,
10000000
00000000
10000000
00000000
,
01000000
00000000
00010000
00000000
,
00001000
00000000
00000000
00000000
;

//---------------dance-double - ----------------
#NOTES:
     dance-double:
     :
     Easy:
     3:
     :
00000000
00000000
00000000
00000000
,
00000000
00000000
00000000
00000000
,
00000000
00000000
00000000
00000000
,
00000000
00000000
00000000
00000000
,
00000000
00000000
00000000
00000000
,
20000000
00000000
00000000
30000000
,
01000000
00000000
00000000
00000000
,
00020000
00000000
00000000
00030000
,
00001000
00000000
00000000
00000000
,
00010000
00001000
00010000
00000100
,
00000010
00000000
00000010
00000000
,
00000001
00001000
00000100
00010000
,
00001000
00000000
00001000
00000000
,
01000000
00010000
01000000
00100000
,
10000000
00000000
10000000
00000000
,
00010000
01000000
00001000
00010000
,
00001000
00000000
00001000
00000000
,
00020000
00000000
00031000
00000000
,
00000010
00000100
00000010
00000000
,
00000002
00000000
00001003
00000000
,
00001001
00000000
00000000
00000000
,
00000001
00000100
00000002
00000003
,
00001000
00000100
00002000
00003000
,
00000100
00010000
00001000
00010000
,
00011000
00000000
00000000
00000000
,
10000000
01000000
20000000
30000000
,
00010000
01000000
00020000
00030000
,
01000000
00001000
00010000
00001000
,
00011000
00000000
00000000
00000000
,
00000200
00000000
00000310
00000001
,
00002000
00000000
00003001
00000000
,
00001001
00000000
00000100
00000000
,
00001000
00000000
00010000
00000000
,
02000000
00000000
03100000
00010000
,
20000000
00000000
30010000
00000000
,
10000000
00000000
00010000
00000000
,
01000000
00010000
00001000
00000100
,
00000001
00000100
00000002
00000003
,
00001000
00000100
00002000
00003000
,
00000100
00010000
00001000
00010000
,
00011000
00000000
00000000
00000000
,
10000000
01000000
20000000
30000000
,
00010000
01000000
00020000
00030000
,
01000000
00001000
00010000
00001000
,
00011000
00000000
00000000
00000000
;

//---------------dance-double - ----------------
#NOTES:
     dance-double:
     :
     Medium:
     5:
     :
00000000
00000000
00000000
00000000
,
00000000
00000000
00000000
00000000
,
00000000
00000000
00000000
00000000
,
00000000
00000000
00000000
00000000
,
00000000
00000000
00000000
00000000
,
10000000
00010000
01000000
00010000
,
00100000
00001000
00010000
00001000
,
00010000
00000010
00001000
00000010
,
00001000
00000001
00000100
00000001
,
00002000
00003100
00002000
00003010
,
00000001
00000100
00000010
00001010
,
00020000
00031000
00020000
00130000
,
10000000
00100000
01000000
01010000
,
20000000
31000000
00020000
01030000
,
00001000
00010000
00001000
00011000
,
00002000
00003100
00000002
00000103
,
00001000
00000100
00010000
00011000
,
00002000
00203000
00320000
10030000
,
02000000
03010000
00002000
00013000
,
00020000
00030020
00002030
00003001
,
00000220
00000000
00000000
00000330
,
00002000
00003100
00020000
00031000
,
00200000
00310000
20000000
31000000
,
00010000
01000000
00010000
00000000
00010000
01000000
00010000
00000000
,
20000000
32000000
13000000
11000000
,
00020000
01030000
00002000
00013000
,
00000020
00001030
00000002
00000103
,
00001000
00000010
00001000
00000000
00001000
00000010
00001000
00000000
,
00000002
00000023
00000031
00000011
,
00002000
00003001
00000200
00000301
,
00001000
00000000
00000100
00000000
00010000
00001000
00010000
00000000
,
00001000
00000000
01000000
00000000
00010000
01000000
00010000
00000000
,
10000000
00000000
00100000
00000000
10000000
00100000
10000000
00000000
,
20000000
31000000
20000000
31000000
,
00010000
00000000
01000000
00000000
00001000
00010000
00001000
00000000
,
00000100
00000000
00001000
00000000
00000100
00001000
00000100
00000000
,
00000010
00000001
00001000
00000110
,
00002000
00003100
00020000
00031000
,
00200000
00310000
20000000
31000000
,
00010000
01000000
00010000
00000000
00010000
01000000
00010000
00000000
,
20000000
32000000
13000000
11000000
,
00020000
01030000
00002000
00013000
,
00000020
00001030
00000002
00000103
,
00001000
00000010
00001000
00000000
00001000
00000010
00001000
00000000
,
00000002
00000023
00000031
00000011
;

//---------------dance-double - ----------------
#NOTES:
     dance-double:
     :
     Hard:
     7:
     :
00000000
00000000
00000000
00000000
,
00000000
00000000
00000000
00000000
,
00000000
00000000
00000000
00000000
,
00000000
00000000
00000000
00000000
,
00000000
00000000
00000000
00000000
,
10000000
00100000
00010000
01000000
,
00001000
00000100
00000010
00000000
,
00000001
00000010
00001000
00000100
,
00010000
01000000
00100000
00000000
,
10000000
01000000
00100000
00000000
00020000
00000000
10030000
00000000
,
00010000
01000000
00010000
00000000
00100000
00010000
00100000
00000000
,
00001000
00010000
00000100
00001000
00000010
00000100
00000010
00000000
,
00000001
00000100
00000001
00000000
00000010
00000001
00000010
00000000
,
00000100
00010000
00001000
00100000
00020000
00000000
10030000
00000000
,
01000000
10000000
01000000
00000000
10000000
00100000
10000000
00000000
,
00010000
01000000
00100000
01000000
10000000
01000000
00010000
00000000
,
00100000
00010000
00100000
00000000
00001000
00010000
00001000
00000000
,
00000010
00000000
00001000
00000000
00000001
00000100
00000010
00000000
,
00001000
00000000
00000100
00000000
00010000
00001000
00100000
00000000
,
00010000
00000000
10000000
00000000
00100000
01000000
00010000
00000000
,
21000000
00000000
30010000
00000000
00100000
00010000
10000000
00000000
,
00010000
00100000
00001000
00010000
00000010
00001000
00000100
00000000
,
00010000
00001000
00010000
00000100
00001000
00000000
00000010
00000000
,
00000100
00000001
00000100
00000010
00000100
00000001
00000100
00000000
,
00001000
00010000
00001000
00100000
00010000
01000000
00100000
00000000
,
01000000
00100000
10000000
00000000
01000000
00100000
00010000
00000000
,
00100000
01000000
00010000
00001000
00010000
00000000
00000010
00000000
,
00000100
00000001
00001000
00000000
00000100
00001000
00000001
00000000
,
00000100
00010000
00001000
00000000
00010000
00001000
00010000
00000000
,
00011000
00000000
00100000
00000000
00010000
00100000
00010000
00000000
,
10000000
00100000
01000000
00000000
00010000
01000000
00010000
00000000
,
10000000
01000000
00010000
00000000
00001000
00010000
00000100
00000000
,
00001000
00000100
00001000
00000010
00000100
00000001
00000100
00000000
,
00000010
00000000
00001000
00000000
00000100
00001000
00000100
00000000
,
00010000
00001000
00010000
00000000
01000000
10000000
01000000
00000000
,
00100000
00010000
01000000
00000000
01000000
00010000
00100000
00000000
,
11000000
00010000
10100000
00010000
,
00010000
00100000
00001000
00010000
00000010
00001000
00000100
00000000
,
00010000
00001000
00010000
00000100
00001000
00000000
00000010
00000000
,
00000100
00000001
00000100
00000010
00000100
00000001
00000100
00000000
,
00001000
00010000
00001000
00100000
00010000
01000000
00100000
00000000
,
01000000
00100000
10000000
00000000
01000000
00100000
00010000
00000000
,
00100000
01000000
00010000
00001000
00010000
00000000
00000010
00000000
,
00000100
00000001
00001000
00000000
00000100
00001000
00000001
00000000
,
01000000
10000000
00010000
01000000
10000000
00100000
10000000
00000000
,
10010000
00000000
00000000
00000000
;
