#TITLE:Love Is On Our Side;
#ARTIST:Frank Popp Ensemble;
#BANNER:Love Is On Our Side.png;
#BACKGROUND:Love Is On Our Side-bg.png;
#CDTITLE:./CDTITLES/Dance Dance Revolution UNIVERSE.png;
#MUSIC:Love Is On Our Side.ogg;
#SAMPLESTART:55.395;
#SAMPLELENGTH:15;
#BPMS:0=143;

//---------------dance-single - ----------------
#NOTES:
     dance-single:
     :
     Beginner:
     1:
     :
0000
0000
0000
0000
,
0000
0000
0000
0000
,
0000
0000
0000
0000
,
0000
0000
0000
0000
,
0000
0000
0000
0000
,
1000
0000
0000
0000
,
0001
0000
0000
0000
,
0001
0001
0000
0001
,
0000
1000
0000
1000
,
0000
0001
0000
0001
,
0000
0010
0000
0010
,
0000
0100
0000
0100
,
0100
0000
0000
0000
,
1000
0000
1000
0000
,
1000
0000
0000
0000
,
0001
0000
0001
0000
,
0001
0000
0000
0000
,
0010
0000
0010
0000
,
0010
0000
0000
0000
,
0100
0000
0100
0000
,
0100
0000
0000
0000
,
0010
0000
0000
0000
,
0010
0000
0000
0000
,
0100
0000
0000
0000
,
0100
0000
0000
0000
,
0001
0000
0000
0000
,
0001
0000
0000
0000
,
1000
0000
0000
0000
,
1000
0000
0000
0000
,
1001
0000
0000
0000
,
0001
0000
0000
0000
,
0001
0000
0000
0000
,
1000
0000
0000
0000
,
1000
0000
0000
0000
,
0100
0000
0000
0000
,
1000
1000
0000
0000
,
0001
0000
0000
0000
,
0010
0010
0010
0000
,
0100
0000
0000
0000
,
1000
1000
1000
0000
,
0001
0000
0000
0000
,
1001
0000
1001
0000
,
1001
0000
0000
0000
,
0110
0000
0110
0000
,
0110
0000
0000
0000
,
0010
0000
0010
0000
,
0010
0000
0000
0000
,
0100
0000
0100
0000
,
0100
0000
0000
0000
,
0001
0000
0001
0000
,
0001
0000
0000
0000
,
1000
0000
1000
0000
,
1000
0000
0000
0000
,
0010
0010
0000
0010
,
0000
0010
0000
0100
,
0000
0100
0000
0001
,
0000
0001
0000
1000
,
0000
1000
0000
0001
,
0000
0001
0000
1000
,
0000
1000
0000
0010
,
0000
1000
1000
0000
,
1001
0000
0000
0000
;

//---------------dance-single - ----------------
#NOTES:
     dance-single:
     :
     Easy:
     3:
     :
0000
0000
0000
0000
,
0000
0000
0000
0000
,
0000
0000
0000
0000
,
0000
0000
0000
0000
,
0000
0000
0000
0000
,
1000
0000
1000
0000
,
1000
0000
0001
0001
,
0001
0000
0001
0000
,
0001
0000
1000
1000
,
1000
0000
0010
0000
,
0010
0000
0100
0100
,
0100
0000
0100
0000
,
0100
0000
0010
0010
,
0010
0000
0100
0000
,
0010
0000
0000
0000
,
0001
0000
1000
0000
,
0001
0000
0000
0000
,
0100
0000
0010
0000
,
0100
0000
0000
0000
,
1000
0000
0001
0000
,
1000
0000
0000
0000
,
0001
0000
0001
1000
,
0001
0000
0000
0000
,
0100
0000
0100
0010
,
0100
0000
0000
0000
,
1000
0000
1000
0001
,
1000
0000
0000
0000
,
0010
0000
0010
0100
,
0010
0000
0000
0000
,
0001
0000
0001
0000
,
1000
0000
1000
0000
,
0010
0000
0010
0000
,
2000
0000
0000
3000
,
1000
0000
1000
0000
,
1000
0000
0001
0001
,
0001
0000
0010
0000
,
0010
0000
0000
0000
,
0001
0000
0001
0000
,
0001
0000
1000
1000
,
1000
0000
0010
0000
,
0010
0000
0000
0000
,
1000
0000
1000
0000
,
0001
0000
0001
0000
,
0100
0000
0100
0000
,
0002
0000
0000
0003
,
0001
0000
0001
0000
,
0001
0000
1000
1000
,
1000
0000
0100
0000
,
0100
0000
0000
0000
,
1000
0000
1000
0000
,
1000
0000
0001
0001
,
0001
0000
0100
0000
,
0100
0000
0000
0000
,
0001
0000
0001
0000
,
0001
0000
1000
1000
,
1000
0000
0010
0000
,
0010
0000
0100
0100
,
0100
0000
0100
0000
,
0100
0000
0010
0010
,
0010
0000
0001
0000
,
1000
0000
0001
1000
,
1001
0000
0000
0000
;

//---------------dance-single - ----------------
#NOTES:
     dance-single:
     :
     Medium:
     5:
     :
0000
0000
0000
0000
,
0000
0000
0000
0000
,
0000
0000
0000
0000
,
0000
0000
0000
0000
,
0000
0000
0000
0000
,
0010
0000
1001
0000
0100
0100
0100
0000
,
0001
0000
1000
0000
0010
0001
1000
0000
,
0100
0000
1001
0000
0010
0010
0010
0000
,
1000
0000
0001
0000
0010
1000
0001
0000
,
1000
0000
0110
0000
0001
0001
0001
0000
,
0010
0000
0100
0000
0001
0010
0100
0000
,
0001
0000
0110
0000
1000
1000
1000
0000
,
0010
0000
0100
0000
1000
0010
0100
0000
,
0001
0001
0010
0010
,
1000
0000
1000
0000
0001
1000
1001
0000
,
1000
1000
0010
0010
,
0001
0000
0001
0000
1000
0001
1001
0000
,
0001
0001
0100
0100
,
1000
0000
1000
0000
0001
1000
1001
0000
,
1000
1000
0100
0100
,
0001
0000
0001
0000
1000
0001
1001
0000
,
0010
0100
0010
0000
0001
0000
0001
0000
,
0100
0010
0100
0000
1000
0000
1000
0000
,
0001
1000
0001
0000
0010
0000
0010
0000
,
1000
0001
1000
0000
0100
0000
0100
0000
,
0001
1000
0001
0000
1000
0000
1000
0000
,
0010
0000
0010
0000
1000
0010
1000
0000
,
0001
0000
0001
0000
0100
0001
0100
0000
,
0010
0000
0010
0000
1000
0100
1000
0000
,
0002
0013
0002
1003
,
0002
0103
2000
3100
,
2000
3000
0002
0003
,
0010
1000
0001
0100
,
0010
1001
0010
1000
,
0010
0000
0100
0000
0001
0100
0001
0000
,
1000
1001
0100
1000
,
0002
0000
0000
0000
1003
0001
1000
0000
,
0010
1001
0010
0001
,
0010
0000
0100
0000
1000
0100
1000
0000
,
0001
2000
0001
3001
,
1000
0000
1000
0000
0001
1000
0001
0000
,
2000
3010
2000
3001
,
2000
3100
0002
0103
,
0002
1003
0002
0013
,
2002
0000
0000
0000
0000
0000
0000
3003
,
0100
1001
0100
1000
,
0100
0000
0010
0000
0001
0010
0001
0000
,
1000
1001
0010
0001
,
2000
0000
0000
0000
3001
1000
0001
0000
,
0100
1001
0100
0001
,
0100
0000
0010
0000
1000
0010
1000
0000
,
0001
2000
0001
3001
,
1000
0000
0001
0000
1000
0001
1000
0000
,
0010
1001
0010
0001
,
0010
0000
0100
0000
1000
0100
1000
0000
,
0001
1001
0100
0001
,
0002
0000
0000
0000
1003
1000
0001
0000
,
0010
1001
0010
1000
,
0010
0000
0100
0000
0001
0100
0001
0000
,
1000
0002
1000
1003
,
0001
0000
0001
0000
1000
0001
1000
0000
,
2001
0000
0000
0000
3001
1000
0000
0000
;

//---------------dance-single - ----------------
#NOTES:
     dance-single:
     :
     Hard:
     9:
     :
0000
0000
0000
0000
,
0000
0000
0000
0000
,
0000
0000
0000
0000
,
0000
0000
0000
0000
,
0000
0000
0000
0000
,
0010
0000
1001
0000
0001
0010
0100
1000
,
0000
0000
0101
0000
0100
0010
1000
0001
,
0100
0000
0110
0000
1000
0010
0100
0001
,
0000
0000
1010
0000
0010
0100
0001
1000
,
0100
0000
1001
0000
1000
0100
0010
0002
,
0000
0013
0011
0000
0001
0100
0010
1000
,
0001
0000
0110
0000
0001
0010
0100
2000
,
0000
3100
1100
0000
0010
0001
1000
0100
,
1000
1000
0001
0100
0001
0001
0010
0100
,
1000
1000
0001
1000
0200
0010
0310
0000
,
1000
1000
0100
0010
0001
0001
1000
0010
,
1000
1000
0001
0100
0020
1000
1030
0000
,
0100
0100
0001
0010
0100
0100
1000
0010
,
1000
1000
0100
0010
0002
0100
0103
0000
,
1000
0100
0001
0100
1000
0010
0100
0010
,
0001
0100
0010
0100
2000
0010
3010
0000
,
1000
0100
0001
0000
0001
0010
1000
0000
,
1000
0100
0001
0000
0010
0010
0010
0000
,
0100
1000
1010
0000
0100
0001
0011
0000
,
0100
1000
1010
0000
0001
0001
0001
0000
,
0010
0001
0100
0000
1000
0100
0001
0000
,
0010
0100
1000
0000
0100
0100
0100
0000
,
0010
1000
1100
0000
0010
0001
0101
0000
,
0001
0100
1000
0010
0100
0001
1000
0001
,
0010
0000
0120
0000
1030
0100
0010
0000
,
0001
0000
1020
0000
0031
0010
0100
0000
,
0102
0000
0023
0000
1030
0100
0001
0000
,
0110
0000
0100
0010
0100
0001
1000
0001
,
0010
0000
0011
0000
0010
1000
0100
1000
,
0010
1000
0001
0100
0001
0010
0001
0100
,
0101
0000
1100
0000
1000
0010
0001
0100
,
0000
0010
0110
0000
1000
0100
0001
0100
,
0010
0000
1001
0000
0010
0001
0100
0001
,
0010
0001
1000
0100
1000
0010
1000
0100
,
1100
0000
0101
0000
0001
0010
1000
0100
,
0000
0010
0110
0000
0001
0100
1000
0100
,
0010
0000
0000
0000
0001
0000
0000
0100
0010
0000
1000
0000
0001
0000
0000
0000
,
0010
0000
1000
0000
0010
0000
1000
0100
0000
0010
0001
0000
0001
0000
0010
0000
,
0001
0000
1000
0000
0100
0000
0000
0001
0100
0000
0010
0000
0100
0000
0000
0000
,
0010
1000
0001
1000
0001
0100
0001
1000
,
0010
0000
1010
0000
0010
0001
0100
0001
,
0010
0001
1000
0100
1000
0010
1000
0100
,
1100
0000
0101
0000
0001
0010
1000
0100
,
0000
0010
0110
0000
0001
0100
1000
0100
,
0010
0000
1001
0000
0010
1000
0100
1000
,
0010
1000
0001
0100
0001
0010
0001
0100
,
0101
0000
1100
0000
1000
0010
0001
0100
,
0000
0010
0110
0000
1000
0100
0001
0100
,
0010
0000
1100
0000
0011
0001
1000
0010
,
0001
1000
0100
0001
0010
1000
0010
0000
,
0101
0000
1010
1000
0100
0001
1000
0010
,
0001
0010
1000
0001
0100
0010
0001
0000
,
0110
0000
1010
0010
0001
1000
0100
0001
,
0100
0010
0001
0010
1000
0001
0100
0000
,
1001
0000
1010
1000
1000
0100
0010
0001
,
0000
1000
1010
0000
1001
0001
1001
1000
,
2002
0000
0000
3000
0023
0200
0000
0000
,
0000
0330
0000
0000
;

//---------------dance-double - ----------------
#NOTES:
     dance-double:
     :
     Beginner:
     1:
     :
00000000
00000000
00000000
00000000
,
00000000
00000000
00000000
00000000
,
00000000
00000000
00000000
00000000
,
00000000
00000000
00000000
00000000
,
00000000
00000000
00000000
00000000
,
10000000
00000000
00000000
00000000
,
00010000
00000000
00000000
00000000
,
00010000
00010000
00000000
10000000
,
00000000
10000000
00000000
10000000
,
00000000
01000000
00000000
01000000
,
00000000
00010000
00000000
00010000
,
00000000
00001000
00000000
00001000
,
00001000
00000000
00000000
00000000
,
00000100
00000000
00000100
00000000
,
00000100
00000000
00000000
00000000
,
00000001
00000000
00000001
00000000
,
00000001
00000000
00000000
00000000
,
00001000
00000000
00001000
00000000
,
00001000
00000000
00000000
00000000
,
00000010
00000000
00000010
00000000
,
00000010
00000000
00000000
00000000
,
00001000
00000000
00000000
00000000
,
00001000
00000000
00000000
00000000
,
00000001
00000000
00000000
00000000
,
00000001
00000000
00000000
00000000
,
00000100
00000000
00000000
00000000
,
00000100
00000000
00000000
00000000
,
00001000
00000000
00000000
00000000
,
00001000
00000000
00000000
00000000
,
00011000
00000000
00000000
00000000
,
00010000
00000000
00000000
00000000
,
00010000
00000000
00000000
00000000
,
01000000
00000000
00000000
00000000
,
01000000
00000000
00000000
00000000
,
10000000
00000000
00000000
00000000
,
10000000
10000000
00000000
00000000
,
00010000
00000000
00000000
00000000
,
00010000
00010000
00010000
00000000
,
10000000
00000000
00000000
00000000
,
01000000
01000000
01000000
00000000
,
00010000
00000000
00000000
00000000
,
00011000
00000000
00011000
00000000
,
00011000
00000000
00000000
00000000
,
00000110
00000000
00000110
00000000
,
00000110
00000000
00000000
00000000
,
00000001
00000000
00000001
00000000
,
00000001
00000000
00000000
00000000
,
00001000
00000000
00001000
00000000
,
00001000
00000000
00000000
00000000
,
00000100
00000000
00000100
00000000
,
00000100
00000000
00000000
00000000
,
00010000
00000000
00010000
00000000
,
00010000
00000000
00000000
00000000
,
00001000
00001000
00000000
00001000
,
00000000
00010000
00000000
00010000
,
00000000
00010000
00000000
01000000
,
00000000
01000000
00000000
00100000
,
00000000
00100000
00000000
00010000
,
00000000
00010000
00000000
10000000
,
00000000
10000000
00000000
00100000
,
00000000
10000000
10000000
00000000
,
10010000
00000000
00000000
00000000
;

//---------------dance-double - ----------------
#NOTES:
     dance-double:
     :
     Easy:
     3:
     :
00000000
00000000
00000000
00000000
,
00000000
00000000
00000000
00000000
,
00000000
00000000
00000000
00000000
,
00000000
00000000
00000000
00000000
,
00000000
00000000
00000000
00000000
,
00100000
00000000
10000000
00000000
,
01000000
00000000
00010000
00010000
,
00010000
00000000
00001000
00000000
,
00001000
00000000
00010000
00010000
,
00010000
00000000
00000100
00000000
,
00001000
00000000
00000010
00000010
,
00000010
00000000
00000100
00000000
,
00000001
00000000
00001000
00001000
,
00001000
00000000
00010000
00000000
,
00001000
00000000
00000000
00000000
,
00100000
00000000
00010000
00000000
,
10000000
00000000
00000000
00000000
,
01000000
00000000
00010000
00000000
,
00001000
00000000
00000000
00000000
,
00000010
00000000
00001000
00000000
,
00000001
00000000
00000000
00000000
,
00000100
00000000
00001000
00010000
,
00001000
00000000
00000000
00000000
,
00001000
00000000
01000000
00100000
,
01000000
00000000
00000000
00000000
,
00100000
00000000
00001000
00010000
,
00001000
00000000
00000000
00000000
,
00010000
00000000
00000010
00000100
,
00000010
00000000
00000000
00000000
,
00001000
00000000
00001000
00000000
,
00010000
00000000
00010000
00000000
,
00001000
00000000
00001000
00000000
,
00200000
00000000
00000000
00300000
,
01000000
00000000
01000000
00000000
,
01000000
00000000
10000000
10000000
,
10000000
00000000
00010000
00000000
,
00010000
00000000
00000000
00000000
,
00001000
00000000
00001000
00000000
,
00001000
00000000
00000010
00000010
,
00000010
00000000
00000001
00000000
,
00000001
00000000
00000000
00000000
,
00010000
00000000
00010000
00000000
,
00001000
00000000
00001000
00000000
,
00010000
00000000
00010000
00000000
,
00002000
00000000
00000000
00003000
,
00000100
00000000
00000100
00000000
,
00000100
00000000
00000001
00000001
,
00000001
00000000
00001000
00000000
,
00001000
00000000
00000000
00000000
,
00010000
00000000
00010000
00000000
,
00010000
00000000
01000000
01000000
,
01000000
00000000
10000000
00000000
,
10000000
00000000
00000000
00000000
,
00010000
00000000
00010000
00000000
,
00010000
00000000
00001000
00001000
,
00001000
00000000
00100000
00000000
,
00100000
00000000
01000000
01000000
,
01000000
00000000
00010000
00000000
,
00010000
00000000
00001000
00001000
,
00001000
00000000
00000010
00000000
,
00000100
00000000
00000001
00001000
,
00001001
00000000
00000000
00000000
;

//---------------dance-double - ----------------
#NOTES:
     dance-double:
     :
     Medium:
     6:
     :
00000000
00000000
00000000
00000000
,
00000000
00000000
00000000
00000000
,
00000000
00000000
00000000
00000000
,
00000000
00000000
00000000
00000000
,
00000000
00000000
00000000
00000000
,
10000000
00000000
10010000
00000000
00010000
00010000
00010000
00000000
,
00001000
00000000
00010000
00000000
00001000
00000100
00000001
00000000
,
00000001
00000000
00001001
00000000
00000001
00000001
00000001
00000000
,
00000010
00000000
00000100
00000000
00000100
00001000
00010000
00000000
,
00100000
00000000
01100000
00000000
10000000
10000000
10000000
00000000
,
00100000
00000000
01000000
00000000
00001000
00010000
00001000
00000000
,
00000010
00000000
00000110
00000000
00000001
00000001
00000001
00000000
,
00001000
00000000
00000001
00000000
00000100
00001000
00010000
00000000
,
00001000
00001000
00100000
00100000
,
00010000
00000000
00010000
00000000
10000000
00010000
10010000
00000000
,
01000000
01000000
00010000
00010000
,
00001000
00000000
00001000
00000000
00010000
00001000
00011000
00000000
,
00010000
00010000
00000010
00000010
,
00001000
00000000
00001000
00000000
00000001
00001000
00001001
00000000
,
00000100
00000100
00010000
00010000
,
00001000
00000000
00001000
00000000
00010000
00001000
00011000
00000000
,
00100000
01000000
00100000
00000000
10000000
00000000
10000000
00000000
,
01000000
00100000
01000000
00000000
00010000
00000000
00010000
00000000
,
00001000
00010000
00001000
00000000
00000010
00000000
00000010
00000000
,
00001000
00000001
00001000
00000000
00000100
00000000
00000100
00000000
,
00000010
00000100
00000010
00000000
00000001
00000000
00000001
00000000
,
00001000
00000000
00001000
00000000
00010000
00001000
00010000
00000000
,
00001000
00000000
00001000
00000000
00010000
00001000
00010000
00000000
,
00100000
00000000
00100000
00000000
01000000
00100000
01000000
00000000
,
20000000
31000000
00020000
00031000
,
00000200
00000301
00002000
00003001
,
00000002
00000003
00002000
00003000
,
00010000
00001000
00100000
00010000
,
10000000
10010000
01000000
00010000
,
00001000
00000000
00010000
00000000
00000010
00001000
00000010
00000000
,
00001000
00001001
00000010
00001000
,
00000002
00000000
00000000
00000000
00001003
00000001
00001000
00000000
,
00000100
00010100
00001000
00010000
,
01000000
00000000
10000000
00000000
00010000
10000000
00010000
00000000
,
10000000
02000000
00010000
03010000
,
00001000
00000000
00010000
00000000
00001000
00000100
00001000
00000000
,
00000002
00000103
00002000
00013000
,
02000000
13000000
00020000
01030000
,
00002000
00013000
00000020
00001030
,
00002002
00000000
00000000
00000000
00000000
00000000
00000000
00003003
,
00000001
00001001
00000100
00001000
,
00010000
00000000
00001000
00000000
00100000
00010000
00100000
00000000
,
00010000
10010000
00100000
00010000
,
20000000
00000000
00000000
00000000
30010000
10000000
00010000
00000000
,
01000000
01001000
00010000
00001000
,
00000100
00000000
00000001
00000000
00001000
00000001
00001000
00000000
,
00000001
00000200
00001000
00001300
,
00010000
00000000
00001000
00000000
00010000
01000000
00010000
00000000
,
00100000
10010000
10000000
01000000
,
00010000
00000000
00001000
00000000
00010000
00001000
00010000
00000000
,
00001000
00011000
00000010
00001000
,
00000002
00000000
00000000
00000000
00001003
00000001
00001000
00000000
,
00000100
00010100
00010000
00001000
,
00100000
00000000
00010000
00000000
10000000
01000000
10000000
00000000
,
00010000
20000000
00010000
30010000
,
00001000
00000000
00001000
00000000
00010000
00001000
00010000
00000000
,
00012000
00000000
00000000
00000000
00013000
00001000
00000000
00000000
;

//---------------dance-double - ----------------
#NOTES:
     dance-double:
     :
     Hard:
     9:
     :
00000000
00000000
00000000
00000000
,
00000000
00000000
00000000
00000000
,
00000000
00000000
00000000
00000000
,
00000000
00000000
00000000
00000000
,
00000000
00000000
00000000
00000000
,
10100000
00000000
01010000
00000000
00001000
00010000
00100000
10000000
,
00000000
00100000
01100000
00000000
00010000
00001000
00000100
00000010
,
00000001
00000000
00001100
00000000
00010000
00001000
00000010
00000001
,
00000000
00000010
00000110
00000000
00001000
00010000
00100000
01000000
,
10000000
00000000
00110000
00000000
00100000
00010000
00001000
00020000
,
00000000
00031000
00011000
00000000
00000010
00000001
00001000
00000100
,
00000010
00000000
00001010
00000000
00000010
00001000
00010000
00002000
,
00000000
00013000
00011000
00000000
00100000
10000000
00010000
01000000
,
00100000
00100000
10000000
00010000
01000000
01000000
00010000
10000000
,
01000000
01000000
00100000
00001000
00010000
00000000
00000000
00000000
,
00000010
00000010
00000001
00001000
00000100
00000100
00000010
00000001
,
00000100
00000100
00000010
00010000
00001000
00000000
00000000
00000000
,
00001000
00001000
00010000
01000000
10000000
10000000
01000000
00010000
,
00001000
00001000
00000100
00001000
00010000
00000000
00000000
00000000
,
00010000
00010000
00001000
00000010
00000001
00000001
00000010
00001000
,
00010000
00010000
00100000
00010000
00001000
00000000
00000000
00000000
,
00000001
00000100
00001000
00000000
00010000
01000000
10000000
00000000
,
10000000
01000000
00010000
00000000
00001000
00100000
00010000
00000000
,
10000000
01000000
00010000
00000000
00001000
00000100
00000001
00000000
,
00000001
00000100
00001000
00000000
00010000
00000010
00001000
00000000
,
00001000
00100000
00010000
00000000
10000000
01000000
00010000
00000000
,
00100000
00010000
00001000
00000000
00001000
00000100
00000001
00000000
,
00000010
00000001
00000100
00000000
00000010
00001000
00010000
00000000
,
00010000
01000000
10000000
01000000
00010000
00001000
00000100
00000001
,
00001000
00000000
00020010
00000000
00031000
00010000
00001000
00000000
,
00201000
00000000
00310000
00000000
01000000
10000000
00100000
00000000
,
00210000
00000000
01000000
00000000
10300000
00100000
10000000
00000000
,
11000000
00000000
01000000
00010000
00001000
00010000
00000010
00010000
,
00001000
00000000
00001001
00000000
00000010
00001000
00010000
00001000
,
00000000
00100000
00010000
00000000
00010000
00001000
00000100
00000001
,
00001000
00000000
00011000
00000000
00010000
01000000
10000000
00100000
,
00000000
10000000
00010000
00000000
00001000
00010000
00100000
10000000
,
01000000
00000000
10010000
00000000
00100000
00010000
00001000
00010000
,
00000000
00000010
00001000
00000000
00001000
00010000
01000000
10000000
,
00010000
00000000
00011000
00000000
00001000
00000100
00000001
00000010
,
00000000
00000001
00001000
00000000
00010000
00001000
00000010
00000001
,
00000100
00000000
00000010
00000000
00010000
00000100
00001000
00000000
,
00100000
00001000
00100000
00010000
10000000
00010000
01000000
00000000
,
10000000
00000000
00010000
00000000
00001000
00000100
00001000
00000000
,
00010000
00001000
00000100
00000001
00000100
00001000
00010000
01000000
,
10000000
00000000
10010000
00000000
01000000
00010000
00001000
00010000
,
00000000
00000100
00001000
00000000
00001000
00010000
00100000
10000000
,
00010000
00000000
00011000
00000000
00001000
00000010
00000001
00000100
,
00000000
00000001
00001000
00000000
00010000
00001000
00000100
00000001
,
00000010
00000000
00001001
00000000
00000100
00001000
00010000
00001000
,
00000000
01000000
00010000
00000000
00010000
00001000
00000010
00000001
,
00001000
00000000
00011000
00000000
00010000
00100000
10000000
01000000
,
00000000
10000000
00010000
00000000
00001000
00010000
01000000
10000000
,
00100000
00000000
00101000
00000000
00011000
00010000
00001000
00000100
,
00000001
00000010
00000001
00000100
00001000
00010000
00001000
00000000
,
00011000
00000000
00101000
00100000
00010000
10000000
00100000
00010000
,
00001000
00010000
01000000
10000000
01000000
00100000
01000000
00000000
,
01010000
00000000
00011000
00001000
00000010
00000001
00000010
00001000
,
00010000
00001000
00000100
00000001
00000010
00000001
00001000
00000000
,
00001010
00000000
00011000
00001000
00100000
00010000
10000000
01000000
,
00000000
00010000
00001000
00000000
00000010
00000100
00000101
00000001
,
00002001
00000000
00000000
00003000
00020000
00002000
00000000
00000000
,
00000000
00033000
00000000
00000000
;
