#TITLE:Less 'Yap Yap';
#ARTIST:Temporary Lovers;
#BANNER:Less 'Yap Yap'.png;
#BACKGROUND:Less 'Yap Yap'-bg.png;
#CDTITLE:./CDTITLES/Dance Dance Revolution UNIVERSE.png;
#MUSIC:Less 'Yap Yap'.ogg;
#SAMPLESTART:31.98;
#SAMPLELENGTH:15;
#DISPLAYBPM:120;
#BPMS:0=121,32=119.4,62=122,63.5=120.94,80=119.96,85=116,87=117.5,95=119.96,108=119.9,126=124,127=119.5,140=120.12,156=123.68,159.5=119.84,176=120.3;

//---------------dance-single - ----------------
#NOTES:
     dance-single:
     :
     Beginner:
     1:
     :
0000
0000
0000
0000
,
0000
0000
0000
0000
,
0000
0000
0000
0000
,
0000
0000
0000
0000
,
1000
0000
1000
0000
,
1000
0000
0000
0000
,
0001
0000
0001
0000
,
0001
0000
0000
0000
,
1000
0000
1000
0000
,
1000
0000
1000
0000
,
0001
0000
0001
0000
,
0001
0000
0001
0000
,
0010
0010
0010
0000
,
0010
0000
0010
0000
,
0100
0100
0100
0000
,
0100
0000
0100
0000
,
1000
1000
1000
0000
,
1001
0000
0000
0000
,
0100
0100
0100
0000
,
0110
0000
0000
0000
,
0001
0000
0001
0000
,
0001
0000
0000
0000
,
1000
0000
1000
0000
,
1000
0000
0000
0000
,
0001
0000
0001
0000
,
0001
0000
0001
0000
,
1000
0000
1000
0000
,
1000
0000
1000
0000
,
0100
0100
0100
0000
,
0100
0000
0100
0000
,
0010
0010
0010
0000
,
0010
0000
0010
0000
,
0001
0001
0001
0000
,
1001
0000
0000
0000
,
0010
0010
0010
0000
,
0110
0000
0010
0000
,
0002
0000
0000
0003
,
0001
0000
0001
0000
,
2000
0000
0000
3000
,
1000
0000
0000
0000
,
0001
0000
0000
0000
,
0002
0000
0000
0003
,
0001
0000
0001
0000
,
2000
0000
0000
3000
,
1000
0000
1000
0000
,
0200
0000
0000
0300
,
0100
0000
0100
0000
,
0010
0000
0010
0000
,
0110
0000
0000
0000
;

//---------------dance-single - ----------------
#NOTES:
     dance-single:
     :
     Easy:
     3:
     :
0000
0000
0000
0000
,
0000
0000
0000
0000
,
0000
0000
0000
0000
,
0000
0000
0000
0000
,
1000
0000
0100
0000
,
1000
0000
0000
0000
,
0001
0000
0100
0000
,
0001
0000
0000
0000
,
1000
0010
1000
0000
,
0020
0030
0200
0300
,
0001
0100
0001
0000
,
0020
0030
0200
0300
,
1000
0100
1000
0000
,
0200
0300
0020
0030
,
0001
0100
0001
0000
,
0200
0300
0020
0030
,
1000
0001
1000
0000
,
1001
0001
1000
0000
,
0100
0010
0100
0000
,
0110
0010
0100
0000
,
0001
0000
0010
0000
,
0001
0000
0000
0000
,
1000
0000
0010
0000
,
1000
0000
0000
0000
,
0001
0100
0001
0000
,
0200
0300
0020
0030
,
1000
0010
1000
0000
,
0200
0300
0020
0030
,
0001
0010
0001
0000
,
0020
0030
0200
0300
,
1000
0010
1000
0000
,
0020
0030
0200
0300
,
0001
1000
0001
0000
,
1001
1000
0001
0000
,
0010
0100
0010
0000
,
0110
0100
0010
0000
,
0001
0100
0001
0100
,
0010
0000
0010
0000
,
1000
0100
1000
0100
,
0010
0000
0000
0000
,
0010
0000
0010
0000
,
1001
0000
1001
0000
,
0001
0000
0001
0000
,
0100
0000
0100
0000
,
1001
0000
1001
0000
,
1000
0000
1000
0000
,
0100
0000
0100
0000
,
0020
0030
0200
0300
,
0110
0000
0000
0000
;

//---------------dance-single - ----------------
#NOTES:
     dance-single:
     :
     Medium:
     5:
     :
0000
0000
0000
0000
,
0000
0000
0000
0000
,
0000
0000
0000
0000
,
0000
0000
0000
0000
,
1000
0100
0010
0100
,
1000
0100
1000
0000
0100
1000
0100
0000
,
0001
0100
0010
0100
,
0001
0100
0001
0000
0100
0001
0100
0000
,
0020
0100
0130
0010
,
1001
0000
0110
0000
,
0200
0010
0310
0100
,
1001
0000
0110
0000
,
0010
1000
0010
0100
,
0010
0100
0100
0000
0100
0010
0010
0000
,
0001
0100
0001
0010
,
0100
0010
0010
0000
0010
0100
0100
0000
,
0010
1000
0100
0010
,
0001
0010
0100
1000
,
0010
0100
0001
0010
,
2002
0000
0000
3003
,
0001
0010
0100
0010
,
0001
0010
0001
0000
0010
0001
0010
0000
,
1000
0010
0100
0010
,
1000
0010
1000
0000
0010
1000
0010
0000
,
0200
0010
0310
0100
,
1001
0000
0110
0000
,
0020
0100
0130
0010
,
1001
0000
0110
0000
,
0100
0001
0100
0010
,
0100
0010
0010
0000
0010
0100
0100
0000
,
1000
0010
1000
0100
,
0010
0100
0100
0000
0100
0010
0010
0000
,
0100
0001
0010
0100
,
1000
0100
0010
0001
,
0100
0010
1000
0100
,
0220
0000
0000
0330
,
0001
0010
0100
1000
,
0100
0010
0001
0100
,
0010
1000
0010
0100
,
2002
0000
0000
3003
,
1001
0000
1100
0000
,
0001
0100
0001
0010
,
0110
0000
0011
0000
,
1000
0001
0100
0001
,
1001
0000
1010
0000
,
0001
0100
0010
0100
,
0110
0000
0101
0000
,
1000
0001
0010
0100
,
1001
0000
0000
0000
;

//---------------dance-single - ----------------
#NOTES:
     dance-single:
     :
     Hard:
     8:
     :
0000
0000
0000
0000
,
0000
0000
0000
0000
,
0000
0000
0000
0000
,
0000
0000
0000
0000
,
0001
0100
1000
0100
0001
0100
1000
0100
,
0001
0000
0010
0100
0000
0000
1000
0000
0001
0000
0100
0010
0000
0000
1000
0000
,
0001
0010
1000
0010
0001
0010
1000
0010
,
0001
0000
0100
0010
0000
0000
1000
0000
0001
0000
0010
0100
0000
0000
1000
0000
,
0010
0100
0001
1000
0100
1000
0001
0100
,
0001
0000
0100
0001
0000
0000
1000
0000
0100
0000
1000
0100
0000
0000
0010
0000
,
0001
0100
0001
1000
0100
1000
0001
0010
,
0001
0000
0010
0001
0000
0000
1000
0000
0010
0000
1000
0010
0000
0000
0100
0000
,
0001
0010
0001
1000
0010
1000
0001
0100
,
0001
0000
0010
0001
0000
0000
0100
0000
0010
0000
1000
0100
0000
0000
0010
0000
,
0100
1000
0100
0010
0001
0100
0001
1000
,
0100
0000
1000
0010
0000
0000
1000
0000
0001
0000
0010
0000
0110
0000
0110
0000
,
1000
0000
0001
0000
0100
0000
0010
1000
0010
0000
0000
0000
0100
0000
0010
0000
,
1000
0000
0001
0000
0010
0000
0100
1000
0100
0000
0000
0000
0010
0000
0001
0000
,
1000
0010
0100
0001
0010
0001
1000
0010
,
0110
0110
1000
0001
0010
0100
0010
0100
,
1000
0010
0001
0010
1000
0010
0001
0010
,
1000
0000
0100
0010
0000
0000
0001
0000
1000
0000
0010
0100
0000
0000
0001
0000
,
1000
0100
0001
0100
1000
0100
0001
0100
,
1000
0000
0010
0100
0000
0000
0001
0000
1000
0000
0100
0010
0000
0000
0001
0000
,
0100
0010
1000
0001
0010
0001
1000
0010
,
1000
0000
0010
1000
0000
0000
0001
0000
0010
0000
0001
0010
0000
0000
0100
0000
,
1000
0010
1000
0001
0010
0001
1000
0100
,
1000
0000
0100
1000
0000
0000
0001
0000
0100
0000
0001
0100
0000
0000
0010
0000
,
1000
0100
1000
0001
0100
0001
1000
0010
,
1000
0000
0100
1000
0000
0000
0010
0000
0100
0000
0001
0010
0000
0000
0100
0000
,
0010
0001
0010
0100
1000
0010
1000
0001
,
0010
0000
0001
0100
0000
0000
0001
0000
1000
0000
0100
0000
0110
0000
0110
0000
,
0001
0000
1000
0000
0010
0000
0100
0001
0100
0000
0000
0000
0010
0000
0100
0000
,
0001
0000
1000
0000
0100
0000
0010
0001
0010
0000
0000
0000
0100
0000
1000
0000
,
0001
0100
0010
1000
0100
1000
0001
0100
,
0110
0110
1000
0001
0010
0100
0010
0100
,
1000
0000
0001
0000
0100
0000
0010
1000
0100
0000
1000
0000
0100
0000
1000
0000
,
0001
0000
0100
0000
0010
0000
1000
0100
0010
0000
0100
0000
0010
0000
0100
0000
,
1000
0001
0100
0001
0010
0001
1000
0100
,
1100
1100
0101
0101
0100
0010
0100
0010
,
2000
0100
0000
0001
0000
0010
0000
3001
,
1000
0000
0010
0200
0000
0000
0301
0000
0001
0000
0010
0200
0000
0000
1300
0000
,
0002
0100
0000
1000
0000
0010
0000
1003
,
0001
0000
0100
0020
0000
0000
1030
0000
1000
0000
0100
0020
0000
0000
0031
0000
,
0200
1000
0000
0001
0000
1000
0000
0301
,
0010
0000
0100
2000
0000
0000
3010
0000
0010
0000
0100
0002
0000
0000
1003
0000
,
0200
0001
0000
1000
0000
0001
0000
1300
,
0010
0000
1000
0000
0100
0001
0100
0000
1000
0000
0001
0000
0100
1000
0100
0000
,
2002
0000
3003
0000
;

//---------------dance-double - ----------------
#NOTES:
     dance-double:
     :
     Beginner:
     1:
     :
00000000
00000000
00000000
00000000
,
00000000
00000000
00000000
00000000
,
00000000
00000000
00000000
00000000
,
00000000
00000000
00000000
00000000
,
10000000
00000000
10000000
00000000
,
10000000
00000000
00000000
00000000
,
01000000
00000000
01000000
00000000
,
01000000
00000000
00000000
00000000
,
00010000
00000000
00010000
00000000
,
00010000
00000000
00001000
00000000
,
00001000
00000000
00001000
00000000
,
00001000
00000000
00001000
00000000
,
00000100
00000100
00000100
00000000
,
00000100
00000000
00000100
00000000
,
00000010
00000010
00000010
00000000
,
00000010
00000000
00000010
00000000
,
00001000
00001000
00001000
00000000
,
00001001
00000000
00000000
00000000
,
00000100
00000100
00000100
00000000
,
00000110
00000000
00000000
00000000
,
00000001
00000000
00000001
00000000
,
00000001
00000000
00000000
00000000
,
00000100
00000000
00000100
00000000
,
00000100
00000000
00000000
00000000
,
00001000
00000000
00001000
00000000
,
00001000
00000000
00001000
00000000
,
00010000
00000000
00010000
00000000
,
00010000
00000000
00010000
00000000
,
01000000
01000000
01000000
00000000
,
01000000
00000000
01000000
00000000
,
00100000
00100000
00100000
00000000
,
00100000
00000000
00100000
00000000
,
00010000
00010000
00010000
00000000
,
10010000
00000000
00000000
00000000
,
01000000
01000000
01000000
00000000
,
01100000
00000000
00000000
00000000
,
02000000
00000000
00000000
03000000
,
01000000
00000000
01000000
00000000
,
00020000
00000000
00000000
00030000
,
00010000
00000000
00000000
00000000
,
00001000
00000000
00000000
00000000
,
00002000
00000000
00000000
00003000
,
00001000
00000000
00001000
00000000
,
00000200
00000000
00000000
00000300
,
00000100
00000000
00000100
00000000
,
00000020
00000000
00000000
00000030
,
00000010
00000000
00000010
00000000
,
00001000
00000000
00001000
00000000
,
00001001
00000000
00000000
00000000
;

//---------------dance-double - ----------------
#NOTES:
     dance-double:
     :
     Easy:
     3:
     :
00000000
00000000
00000000
00000000
,
00000000
00000000
00000000
00000000
,
00000000
00000000
00000000
00000000
,
00000000
00000000
00000000
00000000
,
10000000
00000000
01000000
00000000
,
10000000
00000000
00000000
00000000
,
00010000
00000000
01000000
00000000
,
00010000
00000000
00000000
00000000
,
00010000
00001000
00010000
00000000
,
00002000
00003000
00020000
00030000
,
00000100
00001000
00000100
00000000
,
00002000
00003000
00000002
00000003
,
00000100
00000010
00000100
00000000
,
00000020
00000030
00002000
00003000
,
00000100
00010000
00000100
00000000
,
00002000
00003000
00020000
00030000
,
00001000
00010000
00001000
00000000
,
01100000
00100000
01000000
00000000
,
10010000
10000000
00010000
00000000
,
01100000
00100000
01000000
00000000
,
10000000
00000000
00100000
00000000
,
10000000
00000000
00000000
00000000
,
00010000
00000000
00100000
00000000
,
00010000
00000000
00000000
00000000
,
00010000
00001000
00010000
00000000
,
00002000
00003000
00020000
00030000
,
00000010
00001000
00000010
00000000
,
00002000
00003000
00000002
00000003
,
00000010
00000100
00000010
00000000
,
00000200
00000300
00002000
00003000
,
00000010
00010000
00000010
00000000
,
00002000
00003000
00020000
00030000
,
00001000
00010000
00001000
00000000
,
01100000
01000000
00100000
00000000
,
10010000
10000000
00010000
00000000
,
01100000
01000000
00100000
00000000
,
10000000
01000000
00010000
00001000
,
00010000
00000000
00010000
00000000
,
00001000
00010000
00001000
00000100
,
00000001
00000000
00000000
00000000
,
00001000
00000000
00001000
00000000
,
00001001
00000000
00001001
00000000
,
00000100
00000000
00000100
00000000
,
00010000
00000000
00010000
00000000
,
00011000
00000000
00011000
00000000
,
00100000
00000000
00100000
00000000
,
00010000
00000000
00010000
00000000
,
02000000
03000000
00200000
00300000
,
01100000
00000000
00000000
00000000
;

//---------------dance-double - ----------------
#NOTES:
     dance-double:
     :
     Medium:
     5:
     :
00000000
00000000
00000000
00000000
,
00000000
00000000
00000000
00000000
,
00000000
00000000
00000000
00000000
,
00000000
00000000
00000000
00000000
,
10000000
01000000
00100000
00010000
,
00100000
00010000
00100000
00000000
00001000
00010000
00001000
00000000
,
00000100
00000010
00001000
00000001
,
00000100
00000001
00000100
00000000
00000010
00001000
00000010
00000000
,
00002000
00000100
00003100
00001000
,
00011000
00000000
01100000
00000000
,
20000000
00100000
30100000
10000000
,
01100000
00000000
10010000
00000000
,
01000000
00010000
00001000
00010000
,
00001000
00010000
00010000
00000000
00010000
00000010
00000010
00000000
,
00001000
00000100
00001000
00000010
,
00000100
00000001
00000001
00000000
00000001
00001000
00001000
00000000
,
00000100
00000010
00000001
00000100
,
00001000
00010000
00100000
10000000
,
01000000
00100000
00010000
00100000
,
20020000
00000000
00000000
30030000
,
10000000
00100000
01000000
00010000
,
01000000
00010000
01000000
00000000
00001000
00010000
00001000
00000000
,
00000010
00000100
00001000
00000001
,
00000010
00000001
00000010
00000000
00000100
00001000
00000100
00000000
,
00002000
00000100
00003100
00001000
,
00011000
00000000
01100000
00000000
,
20000000
00100000
30100000
10000000
,
01100000
00000000
10010000
00000000
,
01000000
00010000
00001000
00010000
,
00001000
00010000
00010000
00000000
00010000
00000010
00000010
00000000
,
00001000
00000100
00001000
00000010
,
00000100
00000001
00000001
00000000
00000001
00001000
00001000
00000000
,
00000100
00000010
00000001
00000100
,
00001000
00010000
00100000
10000000
,
01000000
00100000
00010000
00100000
,
20020000
00000000
00000000
30030000
,
10000000
00100000
01000000
00010000
,
00001000
00010000
00000100
00001000
,
00000010
00001000
00000001
00000100
,
00002002
00000000
00000000
00003003
,
00001001
00000000
00000110
00000000
,
00000100
00010000
00001000
00010000
,
00011000
00000000
01100000
00000000
,
00010000
00100000
01000000
10000000
,
10010000
00000000
01100000
00000000
,
10000000
01000000
00010000
00001000
,
00011000
00000000
00000110
00000000
,
00001000
00000100
00000010
00000001
,
00001001
00000000
00000000
00000000
;

//---------------dance-double - ----------------
#NOTES:
     dance-double:
     :
     Hard:
     8:
     :
00000000
00000000
00000000
00000000
,
00000000
00000000
00000000
00000000
,
00000000
00000000
00000000
00000000
,
00000000
00000000
00000000
00000000
,
00100000
00001000
00010000
00001000
00100000
00001000
00010000
00001000
,
01000000
00000000
00010000
01000000
00000000
00000000
00100000
00000000
10000000
00000000
01000000
10000000
00000000
00000000
00010000
00000000
,
01000000
00001000
00010000
00001000
01000000
00001000
00010000
00001000
,
01000000
00000000
00010000
00100000
00000000
00000000
00001000
00000000
00010000
00000000
00000010
00001000
00000000
00000000
00000100
00000000
,
00000010
00000001
00001000
00000001
00000010
00000001
00001000
00000001
,
00000011
00000000
00000000
00001001
00000000
00000000
00000100
00000000
00001010
00000000
00000000
00001001
00000000
00000000
00000100
00000000
,
00010000
00001000
00100000
00001000
00010000
00001000
00100000
00001000
,
00011000
00000000
00000000
00101000
00000000
00000000
00010000
00000000
00011000
00000000
00000000
00010010
00000000
00000000
00001000
00000000
,
01000000
00010000
10000000
00010000
01000000
00010000
10000000
00010000
,
01010000
00000000
00000000
10010000
00000000
00000000
00100000
00000000
11000000
00000000
00000000
10010000
00000000
00000000
00100000
00000000
,
00001000
00010000
00000100
00010000
00001000
00010000
00000100
00010000
,
00011000
00000000
00000000
00010100
00000000
00000000
00010010
00000000
00001010
00000000
00001000
00000000
00000010
00000000
00000100
00000000
,
00000001
00000000
00000010
00000000
00000001
00000000
00000100
00000010
00000000
00000000
00001000
00000000
00000001
00000000
00001000
00000000
,
00000100
00000000
00010000
00000000
00001000
00000000
01000000
00100000
00000000
00000000
01000000
00000000
00010000
00000000
10000000
00000000
,
01000000
00000000
00100000
00000000
00010000
00000000
10000000
00100000
00000000
00000000
10000000
00000000
00010000
00000000
00100000
00000000
,
00001000
00010000
00000100
00010000
00001000
01000000
00001000
00010000
,
00000010
00010000
00001000
00010000
00000010
00010000
00001000
00010000
,
00000100
00000000
00001000
00000100
00000000
00000000
00000010
00000000
00000001
00000000
00000100
00000001
00000000
00000000
00001000
00000000
,
00000100
00010000
00001000
00010000
00000100
00010000
00001000
00010000
,
00000100
00000000
00001000
00000010
00000000
00000000
00010000
00000000
00001000
00000000
00100000
00010000
00000000
00000000
01000000
00000000
,
00100000
10000000
00010000
10000000
00100000
10000000
00010000
10000000
,
10100000
00000000
00000000
10010000
00000000
00000000
01000000
00000000
00110000
00000000
00000000
10010000
00000000
00000000
01000000
00000000
,
00001000
00010000
00000010
00010000
00001000
00010000
00000010
00010000
,
00011000
00000000
00000000
00010010
00000000
00000000
00001000
00000000
00011000
00000000
00000000
00101000
00000000
00000000
00010000
00000000
,
00000100
00001000
00000001
00001000
00000100
00001000
00000001
00001000
,
00001100
00000000
00000000
00001001
00000000
00000000
00000010
00000000
00000101
00000000
00000000
00001001
00000000
00000000
00000010
00000000
,
00010000
00001000
01000000
00001000
00010000
00001000
01000000
00001000
,
00011000
00000000
00000000
01001000
00000000
00000000
00101000
00000000
00110000
00000000
00010000
00000000
00100000
00000000
01000000
00000000
,
10000000
00000000
00100000
00000000
10000000
00000000
01000000
00100000
00000000
00000000
00010000
00000000
10000000
00000000
00010000
00000000
,
01000000
00000000
00001000
00000000
00010000
00000000
00000100
00000010
00000000
00000000
00000100
00000000
00001000
00000000
00000001
00000000
,
00000100
00000000
00000010
00000000
00001000
00000000
00000001
00000010
00000000
00000000
00000001
00000000
00001000
00000000
00000010
00000000
,
00010000
00001000
00010000
00001000
01000000
00010000
01000000
00010000
,
10000000
00000000
01000000
00000000
10000000
00000000
00100000
01000000
00000000
00000000
00010000
00000000
10000000
00000000
00010000
00000000
,
00100000
00000000
00001000
00000000
00010000
00000000
00000010
00000100
00000000
00000000
00000010
00000000
00001000
00000000
00000001
00000000
,
00000010
00000000
00000100
00000000
00001000
00000000
00000001
00000100
00000000
00000000
00000001
00000000
00001000
00000000
00000100
00000000
,
00010000
00001000
00010000
00001000
00100000
00010000
00100000
00010000
,
01000000
00001000
00010000
00000100
00000010
00000100
00010000
00001000
,
00011000
00000000
00000000
00110000
00000000
00000000
10000000
00000000
01010000
00000000
00000000
00011000
00000000
00000000
00010000
00000000
,
00000100
00010000
00001000
01000000
00100000
01000000
00001000
00010000
,
00011000
00000000
00000000
00001010
00000000
00000000
00000001
00000000
00001100
00000000
00000000
00011000
00000000
00000000
00001000
00000000
,
00100000
01000000
00100000
00001000
01000000
00100000
01000000
00001000
,
00011000
00000000
00000000
00010100
00000000
00000000
00000001
00000000
00010010
00000000
00000000
00011000
00000000
00000000
00010000
00000000
,
00000010
00000100
00000010
00010000
00000100
00000010
00000100
00010000
,
00001000
00000000
01000000
00000000
00010000
01000000
00100000
00000000
10000000
00000000
01000000
00000000
10000000
01000000
00100000
00000000
,
20020000
00000000
30030000
00000000
;
