#TITLE:Koibito;
#ARTIST:Togo Project feat. Sana;
#BANNER:Koibito.png;
#BACKGROUND:Koibito-bg.png;
#MUSIC:Koibito.ogg;
#SAMPLESTART:69.431;
#SAMPLELENGTH:15;
#DISPLAYBPM:150;
#BPMS:0=145;
#STOPS:202=0.42,218=0.2;

//---------------dance-single - ----------------
#NOTES:
     dance-single:
     :
     Beginner:
     1:
     :
0000
0000
0000
0000
,
0000
0000
0000
0000
,
0000
0000
0000
0000
,
0000
0000
0000
0000
,
0000
0000
0000
0000
,
0200
0000
0000
0300
,
0000
0000
0000
0000
,
0020
0000
0000
0030
,
0000
0000
0000
0000
,
1000
0000
1000
0000
,
1000
0000
0000
0000
,
0001
0000
0001
0000
,
0001
0000
0000
0000
,
1000
1000
0000
0100
,
0000
0100
0000
0000
,
0000
0010
0010
0010
,
0000
0000
0000
0000
,
0001
0001
0000
0010
,
0000
0010
0000
0000
,
0000
0100
0100
0100
,
0000
0000
0000
0000
,
0100
0000
0001
0000
,
1000
0000
0000
0000
,
0100
0000
0001
0000
,
0100
0000
0000
0000
,
1000
0000
0010
0000
,
0001
0001
0001
0000
,
1000
0000
0001
0000
,
0100
0000
0000
0000
,
1000
0000
0001
0000
,
1000
1000
1000
0000
,
0001
0000
1000
0000
,
0100
0000
0000
0000
,
0010
0000
0000
0000
,
0100
0000
0000
0000
,
0010
0000
0100
0000
,
0001
0000
0000
0000
,
0010
0000
0000
0000
,
0100
0000
1000
0000
,
0001
0000
0000
0000
,
0000
0000
0000
0000
,
0100
0000
0000
0000
,
0100
0000
0100
0000
,
0100
0000
0000
0000
,
1000
0000
0000
0000
,
0001
0001
0001
0001
,
0001
0000
0001
0000
,
0100
0000
0000
0000
,
0010
0000
0000
0000
,
0100
0000
0000
0000
,
0000
0000
0000
1000
,
0000
1000
0000
0001
,
0000
0000
0000
0100
,
0000
0000
0000
0010
,
0000
0000
0000
0000
,
1000
0000
0000
0001
,
0000
0000
0000
0000
,
0000
0000
1001
0000
;

//---------------dance-single - ----------------
#NOTES:
     dance-single:
     :
     Easy:
     3:
     :
0000
0000
0000
0000
,
0000
0000
0000
0000
,
0000
0000
0000
0000
,
0000
0000
0000
0000
,
0000
0000
0000
0000
,
0100
0000
1000
0000
,
0010
0000
0100
0000
,
0001
0000
0100
0000
,
0010
0000
1000
0000
,
0100
0100
0100
0000
,
1000
0001
1000
0000
,
0100
0100
0100
0000
,
1000
0001
1000
0000
,
0001
0000
0100
0000
,
0100
0000
0010
0000
,
1000
1000
1000
1000
,
0100
0000
0000
0000
,
1000
0000
0010
0000
,
0010
0000
0100
0000
,
0001
0001
0001
0001
,
0010
0000
0000
0000
,
0100
0100
0100
0000
,
0001
1000
0001
0000
,
0100
0100
0100
0000
,
0001
1000
0001
0000
,
0100
0000
0001
0000
,
0100
0000
1000
0000
,
1000
0100
0001
0100
,
1000
0000
0000
0000
,
0001
0000
0100
0000
,
1000
0000
0100
0000
,
0001
0100
1000
0100
,
0001
0000
0000
0000
,
1001
0000
0100
0000
,
0010
0000
0000
0000
,
0100
0001
1000
0000
,
0110
0000
0000
0000
,
1001
0000
0100
0000
,
0010
0000
1000
0100
,
1000
0001
0100
0001
,
1000
0100
1000
0001
,
1001
0000
0000
0000
,
0200
0300
0020
0030
,
1000
0001
1000
0000
,
0200
0300
0020
0030
,
0001
0100
1000
0100
,
0002
0003
2000
3000
,
0010
0100
0010
0000
,
1000
0001
1000
0001
,
1000
0000
0000
0000
,
0110
0000
0000
0001
,
0000
0100
0000
0001
,
0000
0000
0000
1000
,
0000
0010
0000
1000
,
0000
0000
0000
0000
0000
0100
0000
0000
,
0000
0000
0000
0001
0000
0000
0000
0000
,
0000
1000
0000
0000
0000
0000
0000
0000
,
0000
0100
0000
0000
1001
0000
0000
0000
;

//---------------dance-single - ----------------
#NOTES:
     dance-single:
     :
     Medium:
     5:
     :
0000
0000
0000
0000
,
0000
0000
0000
0000
,
0000
0000
0000
0000
,
0000
0000
0000
0000
,
0000
0000
0000
0000
,
1000
0100
0010
0100
,
1000
0001
0010
0100
,
0010
0001
1000
0100
,
0001
0100
1000
0010
,
1001
0000
0000
0010
0000
0000
0100
0000
,
0200
0000
0000
0001
0000
0000
0300
0000
,
0110
0000
0000
1000
0000
0000
0001
0000
,
0002
0000
0000
0100
0000
0000
0003
0000
,
1000
0100
0010
0100
,
1000
0010
0100
0001
,
0010
0000
0100
0000
1000
0100
0001
0100
,
0000
0000
0000
0000
,
0100
0010
0001
0010
,
0100
1000
0010
0001
,
0010
0000
1000
0000
0001
0100
1000
0100
,
0000
0000
0000
0000
,
1001
0000
0000
0010
0000
0000
0100
0000
,
0200
0000
0000
0001
0000
0000
0300
0000
,
0110
0000
0000
1000
0000
0000
0001
0000
,
0002
0000
0000
0100
0000
0000
0003
0000
,
1000
0100
1000
0100
,
0010
0001
0010
0001
,
0100
1000
0100
0001
,
0110
0000
0000
0000
,
0001
0010
0001
0010
,
0100
1000
0100
1000
,
0010
0001
0010
1000
,
0110
0000
0000
0000
,
1000
0000
0001
0000
0002
0000
0000
0203
,
0000
0010
0010
0310
,
1000
0000
0100
0000
0200
0000
0000
0320
,
0000
0001
0001
0031
,
0100
0000
1000
0000
2000
0000
0000
3200
,
0000
0001
0001
0301
,
1000
0100
0001
0000
0100
0000
1000
0000
,
0001
0100
1000
0000
0100
0000
0001
0000
,
0011
0000
0000
0000
,
1000
0100
0010
0001
,
0010
0100
1000
0100
0000
0000
0000
0000
,
0001
0010
0100
1000
,
1010
1100
0101
1001
,
1000
0100
0010
0001
,
0010
0100
1000
0100
0000
0000
0000
0000
,
0001
1000
0001
1000
,
0110
0000
0000
1001
0000
0000
0000
0100
,
0010
0000
0000
1100
0000
0000
1001
0000
,
0000
0110
0000
0000
0001
0000
0010
0100
,
1000
0100
0000
0000
0000
0000
1100
0000
,
0000
0011
0000
0000
0100
0000
0010
0000
,
0000
1001
0000
0000
0000
0100
0000
0000
,
0010
0000
0000
0100
0000
0000
0001
0000
,
0000
1000
0000
0000
0001
0000
0000
1000
,
0000
0010
0100
0001
0100
0000
0000
0000
;

//---------------dance-single - ----------------
#NOTES:
     dance-single:
     :
     Hard:
     6:
     :
0000
0000
0000
0000
,
0000
0000
0000
0000
,
0000
0000
0000
0000
,
0000
0000
0000
0000
,
0000
0000
0000
0000
,
1000
0100
0001
0100
,
1000
0000
0101
0000
1000
0010
1000
0001
,
1000
0100
0001
0100
,
1000
0000
0101
0000
0001
0100
0001
1000
,
0010
0100
0100
0020
0000
2030
0000
3001
,
0010
0001
0100
2000
0000
0000
3000
0000
,
0100
0001
0001
0020
0000
0230
0000
1300
,
0010
1000
0100
0002
0000
0000
0003
0000
,
0100
0000
1001
0000
0100
1000
0010
0000
,
0100
0001
0010
0000
0100
1000
0010
0000
,
0100
0000
1001
0000
0100
1000
0010
0001
,
0000
0000
0000
0000
,
0010
0000
1001
0000
0010
0001
0100
0000
,
0010
1000
0100
0000
0010
0001
0100
0000
,
0010
0000
1001
0000
0010
1000
0100
0001
,
0000
0000
0000
0000
,
0010
0100
0100
0020
0000
2030
0000
3001
,
0010
0001
0100
2000
0000
0000
3000
0000
,
0100
0001
0001
0020
0000
0230
0000
1300
,
0010
1000
0100
0002
0000
0000
0003
0000
,
0100
0000
1001
0000
1000
0100
0010
0001
,
0010
1000
0010
0001
0000
0000
0000
0000
,
0100
0010
0100
0010
0100
0001
0010
0100
,
0000
0000
0000
0000
,
0010
0000
1001
0000
0001
0010
0100
1000
,
0100
0001
0100
1000
0000
0000
0000
0000
,
0010
0100
0010
0100
0010
1000
0100
0010
,
0000
0000
1100
0000
1001
0100
0010
0000
,
0001
0000
1001
0000
0010
0100
0000
1100
,
0000
0100
0010
0100
,
0010
0000
1010
0000
0100
0001
0000
1001
,
0000
0000
1000
0010
1000
0010
0100
0000
,
0101
0000
1100
0000
0010
0010
0100
0100
,
0000
1000
1000
0000
0001
0001
0010
0100
,
0000
1000
0100
0010
0000
0001
0010
0100
,
0000
1000
1000
0100
0010
0100
0010
0001
,
0001
0000
0000
0000
,
1001
0000
0110
0000
1000
0001
0010
0000
,
1000
0100
0001
0010
0000
0000
0000
0000
,
1010
0000
0101
0000
1000
0100
0010
0100
,
0020
0032
0203
2300
,
3100
0000
0110
0000
1000
0001
0100
0000
,
0001
0010
0100
1000
0000
0000
0000
0000
,
1000
0100
0010
0100
1000
0010
0001
0100
,
0000
0000
0000
0000
0000
0000
0000
1000
,
0010
0001
0010
2000
0000
0000
3001
0100
,
0100
0020
0000
0230
0000
0301
0010
1000
,
0100
0002
0000
0000
0003
0000
0001
0100
,
1000
0010
0000
0002
0000
0003
0001
0010
,
1000
0100
0000
0002
0000
0103
1000
0010
,
0000
0001
0010
0000
1000
0010
0000
0001
,
0010
1000
0100
0010
0001
0000
0100
0000
,
1000
0100
0001
0010
1000
0000
0000
0000
;

//---------------dance-single - ----------------
#NOTES:
     dance-single:
     :
     Challenge:
     8:
     :
0000
0000
0000
0000
,
0000
0000
0000
0000
,
0000
0000
0000
0000
,
0000
0000
0000
0000
,
0000
0000
0000
0000
,
0200
0000
0320
0000
1030
0100
0010
0001
,
0200
0000
0320
0000
1030
0010
0001
0000
,
0200
0000
0320
0000
1030
0010
0100
0001
,
0020
0000
0230
0000
1300
0100
0001
0000
,
0100
1000
0010
0100
0000
1010
0000
0100
,
0001
0010
0100
1000
0000
0000
0000
0000
,
0010
0001
0100
0010
0000
0101
0000
0010
,
1000
0100
0010
0001
0000
0000
0000
0000
,
0002
0000
0000
0000
0203
0000
0000
0310
1000
0000
0000
0000
0101
0000
0000
0000
,
2000
0000
0000
0000
3200
0000
0000
0310
0001
0000
0000
0000
1100
0000
0000
0000
,
0002
0000
0000
0000
0203
0000
0000
0310
1000
0000
0100
0000
1000
0000
0010
0000
,
0000
0000
1000
0001
1000
0001
1000
0001
1000
0001
1000
0100
0000
0000
0000
0000
,
0200
0000
0000
0000
2300
0000
0000
3001
0100
0000
0000
0000
1010
0000
0000
0000
,
0200
0000
0000
0000
0302
0000
0000
1003
0100
0000
0000
0000
0011
0000
0000
0000
,
0200
0000
0000
0000
2300
0000
0000
3001
0010
0000
0001
0000
0100
0000
0001
0000
,
0000
0000
0000
0000
1001
0000
0000
0000
1000
0100
1000
0000
1100
0000
0000
0000
,
0100
1000
0010
0100
0000
1010
0000
0100
,
0001
0010
0100
1000
0000
0000
0000
0000
,
0010
0001
0100
0010
0000
0101
0000
0010
,
1000
0100
0010
0001
0000
0000
0000
0000
,
0002
0000
2003
0000
3001
0100
0010
0001
,
0010
1000
0010
0001
0010
1000
0010
0100
,
0002
0000
0000
0000
0203
0000
0000
0310
1000
0000
0100
0000
1000
0000
0000
0000
,
0100
1000
0001
0000
0100
0000
0001
0000
1000
0100
1000
0100
1000
0000
0000
0000
,
2000
0000
3002
0000
1003
0010
0100
0001
,
0100
1000
0100
0001
0100
1000
0100
0010
,
2000
0000
0000
0000
3020
0000
0000
0031
0010
0000
1000
0000
0100
0000
0000
0000
,
0000
0010
0001
0000
0100
0000
0001
0000
1000
0100
1000
0100
1000
0000
0000
0000
,
0001
0000
0100
0000
1001
0000
0000
1000
0001
0000
0100
0000
0010
0000
0210
0000
,
0000
0000
0301
0000
0010
0001
0100
0000
,
0100
0010
0001
0010
1000
0100
0010
1002
,
0000
0000
0103
0000
0010
1000
0100
0000
,
0011
0000
1100
0000
0010
0100
0100
0010
,
0000
0001
1000
0000
0010
0100
0100
0001
,
0000
1000
0100
0010
0001
0010
0100
0001
,
0010
0100
1000
0100
0010
1000
0100
0010
,
0001
0000
0000
0000
0000
0000
0000
0000
0100
0000
0010
0000
0001
1000
0000
0000
,
1010
0000
0101
0000
1000
0100
0010
0100
,
0011
0000
1001
0000
0100
0001
1000
0001
,
0101
0000
0110
0000
0001
1000
0100
1000
,
0002
0203
2300
3100
,
1010
0000
0101
0000
0001
0100
1000
0100
,
1001
0000
0110
0000
0010
1000
0001
1000
,
0110
0000
0100
1000
0100
0001
0010
1000
,
0010
0001
0100
2000
0000
3200
0000
0310
,
1000
0100
0010
2001
0000
0000
3010
0100
,
0001
0020
0000
0230
0000
1300
0010
0100
,
0001
1002
0000
0000
0000
0000
0013
0001
,
0100
0010
0000
1010
0000
1010
0010
0100
,
0001
0010
0000
1002
0000
1003
0010
0001
,
0001
0010
1000
1000
0100
0001
0001
0100
,
1000
1000
0100
0010
0002
0000
0203
0000
,
0310
1000
0100
1001
1001
0000
0000
0000
;

//---------------dance-double - ----------------
#NOTES:
     dance-double:
     :
     Beginner:
     1:
     :
00000000
00000000
00000000
00000000
,
00000000
00000000
00000000
00000000
,
00000000
00000000
00000000
00000000
,
00000000
00000000
00000000
00000000
,
00000000
00000000
00000000
00000000
,
00002000
00000000
00000000
00003000
,
00000000
00000000
00000000
00000000
,
00020000
00000000
00000000
00030000
,
00000000
00000000
00000000
00000000
,
00000100
00000000
00000100
00000000
,
00000001
00000000
00000000
00000000
,
00001000
00000000
00001000
00000000
,
00010000
00000000
00000000
00000000
,
00010000
00010000
00000000
00010000
,
00000000
01000000
00000000
00000000
,
00000000
10000000
10000000
10000000
,
00000000
00000000
00000000
00000000
,
00010000
00010000
00000000
00010000
,
00000000
00001000
00000000
00000000
,
00000000
00000100
00000100
00000100
,
00000000
00000000
00000000
00000000
,
00000001
00000000
00000100
00000000
,
00001000
00000000
00000000
00000000
,
00010000
00000000
01000000
00000000
,
10000000
00000000
00000000
00000000
,
00010000
00000000
00001000
00000000
,
00010000
00010000
00010000
00000000
,
01000000
00000000
10000000
00000000
,
01000000
00000000
00000000
00000000
,
00010000
00000000
00001000
00000000
,
00010000
00010000
00010000
00000000
,
00001000
00000000
00000100
00000000
,
00000001
00000000
00000000
00000000
,
00001000
00000000
00000000
00000000
,
00010000
00000000
00000000
00000000
,
10000000
00000000
01000000
00000000
,
00010000
00000000
00000000
00000000
,
00001000
00000000
00000000
00000000
,
00000001
00000000
00000100
00000000
,
00001000
00000000
00000000
00000000
,
00000000
00000000
00000000
00000000
,
00100000
00000000
00000000
00000000
,
10000000
00000000
10000000
00000000
,
01000000
00000000
00000000
00000000
,
00010000
00000000
00000000
00000000
,
00000100
00000100
00000100
00000100
,
00000100
00000000
00000100
00000000
,
00000001
00000000
00000000
00000000
,
00001000
00000000
00000000
00000000
,
00010000
00000000
00000000
00000000
,
00000000
00000000
00000000
10000000
,
00000000
10000000
00000000
01000000
,
00000000
00000000
00000000
00010000
,
00000000
00000000
00000000
00001000
,
00000000
00000000
00000000
00000000
,
00010000
00000000
00000000
00001000
,
00000000
00000000
00000000
00000000
,
00000000
00000000
00011000
00000000
;

//---------------dance-double - ----------------
#NOTES:
     dance-double:
     :
     Easy:
     4:
     :
00000000
00000000
00000000
00000000
,
00000000
00000000
00000000
00000000
,
00000000
00000000
00000000
00000000
,
00000000
00000000
00000000
00000000
,
00000000
00000000
00000000
00000000
,
00001000
00000000
00000000
00000000
,
00010000
00000000
00001000
00000000
,
00000100
00000000
00000000
00000000
,
00010000
00000000
00001000
00000000
,
00000100
00000100
00000001
00001000
,
00001000
00000001
00000100
00000000
,
00001000
00001000
00010000
00001000
,
00001000
01000000
00010000
00000000
,
20000000
30000000
00020000
00030000
,
01000000
00100000
01000000
00000000
,
10000000
01000000
00010000
00001000
,
00010000
00000000
00000000
00000000
,
00002000
00003000
00000200
00000300
,
00000001
00001000
00000001
00000000
,
00000001
00000100
00001000
00010000
,
00001000
00000000
00000000
00000000
,
00000100
00000100
00000001
00001000
,
00001000
00000001
00000100
00000000
,
00001000
00001000
00010000
00001000
,
00001000
01000000
00010000
00000000
,
01000000
00000000
10010000
00000000
,
10000000
01000000
01000000
00010000
,
00001000
00000000
00011000
00000000
,
00002000
00000000
00000000
00003000
,
00000100
00000000
00001001
00000000
,
00000001
00000100
00000100
00001000
,
00010000
00000000
00011000
00000000
,
00020000
00000000
00000000
00030000
,
00010000
00001000
00010000
00001000
,
00000100
00000000
00000000
00000000
,
00001000
00010000
00001000
00010000
,
01000000
00000000
00000000
00000000
,
10000000
01000000
10000000
01000000
,
00100000
00000000
10000000
01000000
,
00010000
00010000
00001000
00001000
,
00000100
00000100
00000001
00000100
,
00002000
00000000
00000000
00003000
,
00010000
00010000
00010000
00010000
,
01000000
01000000
01000000
01000000
,
20000000
30000000
00020000
00030000
,
10000000
01000000
00100000
00010000
,
00001000
00001000
00001000
00001000
,
00000100
00000100
00000100
00000100
,
00000002
00000003
00002000
00003000
,
00001001
00000000
00000000
00000000
,
00011000
00000000
00000000
00010000
,
00000000
00010000
00000000
00001000
,
00010000
00001000
00000000
00010000
,
00000000
01000000
00000000
10000000
,
00000000
01000000
00000000
00000000
,
00020000
00000000
00000000
00032000
,
00000000
00000000
00000000
00003000
,
00000000
00011000
00000000
00000000
00000000
00000000
00000000
00000000
;

//---------------dance-double - ----------------
#NOTES:
     dance-double:
     :
     Medium:
     6:
     :
00000000
00000000
00000000
00000000
,
00000000
00000000
00000000
00000000
,
00000000
00000000
00000000
00000000
,
00000000
00000000
00000000
00000000
,
00000000
00000000
00000000
00000000
,
01000000
00010000
00001000
00000100
,
00000100
00001000
00010000
01000000
,
01000000
00010000
00001000
00000100
,
00000100
00001000
00010000
01000000
,
10000000
00010000
10000000
00010000
00000000
01000000
00000000
00001000
,
00010000
00001000
00010000
00001000
00000000
00000000
00000000
00000000
,
00001000
00000001
00001000
00000001
00000000
00000010
00000000
00000100
,
00001000
00000100
00001000
00000100
00000000
00000000
00000000
00000000
,
00000001
00001000
00000001
00001000
,
00000100
00000000
00010000
00001000
00000000
00000000
00000000
00000000
,
00010000
00000000
01000000
00000000
10000000
00100000
10000000
00100000
,
00000000
00000000
00000000
00000000
,
10000000
00010000
10000000
00010000
,
01000000
00000000
00001000
00010000
00000000
00000000
00000000
00000000
,
00001000
00000000
00000100
00000000
00000001
00000010
00000001
00000010
,
00000000
00000000
00000000
00000000
,
00000001
00001000
00000001
00001000
00000000
00000100
00000000
00010000
,
00001000
00010000
00001000
00010000
00000000
00000000
00000000
00000000
,
00010000
10000000
00010000
10000000
00000000
00100000
00000000
01000000
,
00010000
01000000
00010000
01000000
00000000
00000000
00000000
00000000
,
10000000
00010000
01000000
00010000
,
00100000
00001000
00001000
00010000
00000000
00000000
00000000
00000000
,
00010000
00000000
00001000
00000000
00000100
00000001
00000001
00000010
,
00000000
00000000
00000000
00000000
,
00000001
00001000
00000001
00000010
,
00000100
00001000
00001000
00000010
00000000
00000000
00000000
00000000
,
00000100
00000000
00000001
00000000
00000100
00001000
00001000
00010000
,
00000000
00000000
00000000
00000000
,
00020000
00000000
00001000
00000000
00032000
00000000
00000000
00203000
,
00000000
01000000
00010000
01300000
,
10000000
00000000
20000000
00000000
01000000
01000000
00000000
30100000
,
00000000
20000000
32000000
03020000
,
00032000
00000000
00010000
00000000
00010000
00000000
00010000
00013000
,
00000000
00000000
00000100
00000000
00000001
00000010
00000001
00000100
,
00000000
00001000
00010000
00000000
00001000
00000000
00000100
00000000
,
00001000
00010000
00001000
00000000
00010000
00000000
01000000
00000000
,
10010000
00000000
00000000
00000000
,
10000000
01000000
00100000
00010000
,
00100000
00001000
00010000
00010000
,
00001000
00000100
00000010
00000001
,
00000010
00001000
00010000
00100000
,
10000000
01000000
00100000
00010000
,
00100000
00001000
00010000
00010000
,
00001000
00000000
00000100
00000000
00000010
00001000
00000100
00001000
,
00000000
00000000
00000000
00000000
00000000
00000000
00000000
00000001
,
00000001
00000100
00001000
00010000
00000000
00000000
00010000
01000000
,
00010000
01000000
00000000
10000000
00000000
00100000
01000000
00100000
,
01000000
00100000
00000000
00000000
00000000
00000000
00001000
00010000
,
00001000
00010000
00000000
00001000
00000000
00000000
00010000
00001000
,
00010000
00001000
00000000
00000100
00000000
00000001
00000000
00000000
,
00000100
00000000
00000000
00001000
00000000
00000000
00010000
00000000
,
00000000
01000000
00000000
10000000
00010000
00000000
10000000
00000000
,
10000000
10000000
01000000
00010000
00001000
00000000
00000000
00000000
;

//---------------dance-double - ----------------
#NOTES:
     dance-double:
     :
     Hard:
     7:
     :
00000000
00000000
00000000
00000000
,
00000000
00000000
00000000
00000000
,
00000000
00000000
00000000
00000000
,
00000000
00000000
00000000
00000000
,
00000000
00000000
00000000
00000000
,
00010100
00011000
00010000
01000000
,
10100000
01010000
10000000
01000000
,
00101000
00011000
00001000
00000100
,
00000011
00001100
00000001
00000010
,
00000001
00000010
00000100
00000010
00000100
00010000
00001000
00010000
,
00001000
00100000
00010000
01000000
00000000
00000000
00000000
00000000
,
00100000
10000000
00010000
10000000
00010000
01000000
00001000
01000000
,
00001000
00010000
00001000
00000100
00000000
00000000
00000000
00000000
,
00000001
00000100
00000010
00000000
00001000
00000010
00000100
00000000
,
00001000
00010000
00001000
00100000
00000000
00000000
00000000
00000000
,
00000000
00010000
01000000
00100000
10000000
00100000
01000000
00100000
,
00000000
10000000
01100000
00110000
,
10000000
00100000
01000000
00100000
00010000
00001000
00010000
00000100
,
00001000
00000100
00010000
00001000
00000000
00000000
00000000
00000000
,
01000000
00010000
00100000
00001000
00010000
00001000
00000100
00001000
,
00000000
00000100
00000101
00001001
,
00000001
00000010
00000100
00000010
00000100
00010000
00001000
00010000
,
00001000
00100000
00010000
01000000
00000000
00000000
00000000
00000000
,
00100000
10000000
00010000
10000000
00010000
01000000
00001000
01000000
,
00001000
00010000
00001000
00000100
00000000
00000000
00000000
00000000
,
00001000
00000010
00001000
00000000
00000001
00000010
00000100
00010000
,
00000100
00000010
00000001
00001000
00000000
00000000
00000000
00000000
,
00000001
00000010
00000100
00000010
00000100
00010000
00001000
00000100
,
00000000
00001000
00100000
00001000
00100000
00001000
00100000
00000000
,
00010000
01000000
00010000
00000000
10000000
01000000
00100000
00001000
,
00100000
01000000
10000000
00010000
00000000
00000000
00000000
00000000
,
00000000
10000000
01000000
00000000
00010000
00001000
00000100
00001000
,
00000000
00010000
00000100
00010000
00000100
00010000
00000100
00000000
,
00011000
00000000
00010100
00000000
00000100
00000010
00000000
00000011
,
00000000
00000000
00000101
00000000
00001000
00000100
00000010
00000000
,
00001100
00000000
00010100
00000000
00010000
00001000
00000000
01001000
,
00000000
00000000
01010000
00000000
10000000
10000000
01100000
00000000
,
10000000
00000000
01000000
00000000
00100000
00001000
00000000
00002000
,
00000000
00000000
00023000
00000000
00031000
00000100
00001000
00010000
,
00000100
00000010
00000100
00000000
00001000
00000001
00001000
00000000
,
00000100
00010000
00000100
00000000
00010000
00001000
00010000
00000000
,
00022000
00000000
00000000
00033000
,
01001000
01010000
10010000
11000000
,
01100000
00110000
10010000
00011000
,
00010100
00001100
00001010
00000101
,
00000002
00000203
00002300
00013000
,
00011000
00101000
00011000
00010100
,
00011000
01001000
00011000
00010010
,
00001000
00000000
00000001
00000000
00000100
00001000
00010000
00002000
,
00000000
00000000
00000000
00000000
00003000
00000000
00000000
01000000
,
00100000
01000000
00100000
01000000
00000000
00000000
00000010
00000100
,
00000010
00001000
00000000
00011000
00000000
00001000
00010000
01000000
,
00010000
01000000
00000000
00000000
00000000
00000000
00010000
00100000
,
01000000
10000000
00000000
10100000
00000000
01000000
00010000
00001000
,
00010000
00001000
00000000
00010100
00000000
00010000
01000000
00010000
,
00001000
00000010
00001000
00010000
01000000
00010000
00001000
00000010
,
00001000
00010000
01000000
00010000
00001000
00000000
00000100
00000000
,
00001000
00010000
00001000
00010000
01000000
00000000
00000000
00000000
;

//---------------dance-double - ----------------
#NOTES:
     dance-double:
     :
     Challenge:
     8:
     :
00000000
00000000
00000000
00000000
,
00000000
00000000
00000000
00000000
,
00000000
00000000
00000000
00000000
,
00000000
00000000
00000000
00000000
,
00000000
00000000
00000000
00000000
,
00000001
00000000
00000000
00000000
00000101
00000000
00000000
00000100
00000010
00000000
00000000
00000000
00010000
00000000
00001000
00000000
,
00010000
00000000
00000000
00000000
00011000
00000000
00000000
00001000
01000000
00000000
00000000
00000000
00010000
00000000
00100000
00000000
,
00010000
00000000
00000000
00000000
01010000
00000000
00000000
01000000
00100000
00000000
00000000
00000000
10000000
00000000
01000000
00000000
,
10000000
00000000
00000000
00000000
10010000
00000000
00000000
00010000
01000000
00000000
00000000
00000000
00001000
00000000
00010000
00000000
,
00001000
00000100
00000001
00000020
00000000
00001030
00000000
00000010
,
00000001
00000100
00001000
00020000
00000000
00001000
00031000
00000000
,
00010000
01000000
10000000
00200000
00000000
00310000
00000000
00100000
,
10000000
01000000
00010000
00002000
00000000
00010000
00013000
00000000
,
00000010
00001000
00000100
00000001
00000100
00001000
00000010
00000001
,
00000010
00001000
00010000
00200000
00000000
10000000
10300000
00000000
,
00000000
00010000
01000000
10000000
01000000
00010000
10000000
01000000
,
00010000
00000000
00002000
00000000
00000000
00000100
00003100
00000000
,
00000001
00000010
00000001
00000100
00000010
00010000
00000010
00000100
,
00000001
00000010
00000100
00020000
00000000
00001000
00031000
00000000
,
00000000
00010000
00001000
01000000
00010000
00100000
01000000
10000000
,
00010000
00000000
02000000
00000000
00000000
00001000
03001000
00010000
,
00001000
00000100
00000001
00000020
00000000
00001030
00000000
00000010
,
00000001
00000100
00001000
00020000
00000000
00001000
00031000
00000000
,
00010000
01000000
10000000
00200000
00000000
00310000
00000000
00100000
,
10000000
01000000
00010000
00002000
00000000
00010000
00013000
00000100
,
00000010
00000001
00000100
00000010
00001000
00000100
00000010
00000001
,
00000100
00001000
00010000
02000000
00000000
10000000
13000000
00000000
,
00000000
00100000
10000000
01000000
00010000
00001000
00000010
00000001
,
00000100
00000000
00000001
00000000
00000001
00000000
00000001
00000000
00001000
00000100
00001000
00000100
00001000
00000000
00000000
00000000
,
00000010
00010000
00000100
00001000
00000010
00010000
00000100
00001000
,
00000010
00010000
00001000
00200000
00000000
01000000
01300000
00000000
,
00000000
10000000
00100000
00010000
00001000
00000010
00000001
00000100
,
00001000
00000000
00000100
00000000
00000100
00000000
00000100
00000000
00000001
00001000
00000001
00001000
00000001
00000000
00000000
00000000
,
00000010
00000100
00001001
00000000
00001001
00000000
00000001
00001000
,
00000000
00000001
00000100
00000000
00000010
00010010
00011000
00000000
,
00001000
01000000
10010000
00000000
10010000
00000000
10000000
00100000
,
00000000
01000000
00010000
00000000
00100000
00101000
00011000
00000000
,
00010000
00000100
00000010
00000000
00000001
00000000
00001000
00002001
,
00000000
00000100
00003100
00000010
00000001
00000100
00000010
00010000
,
00000000
00001000
00000100
00000001
00000100
00001000
00000100
00000010
,
00010000
00001000
00000010
00001000
00010000
00100000
00010000
00001000
,
00100000
00000000
01000000
00000000
10000000
00010000
10000000
00010000
01000000
00000000
00010000
00100000
00000000
00010000
10000000
00000000
,
11000000
00000000
01010000
00000000
11000000
00000000
10000000
00010000
,
01000000
10000000
01000000
00020000
00000000
00100000
00130000
00000000
,
00101000
00000000
00011000
00000000
00010010
00000000
00000010
00001000
,
00000002
00000203
00002300
00023000
,
01030000
10000000
00100000
01000000
00010000
00100000
01000000
10000000
,
00100000
00010000
00001000
00000020
00000000
00000001
00000031
00000000
,
00000101
00010100
01001000
11000000
,
10000000
10000000
00010000
00010000
00000000
01000000
00000000
00100000
,
10000000
01000000
00010000
00002000
00000000
00000000
00013000
00001000
,
00000100
00000002
00000000
00000013
00000000
00000100
00010000
00001000
,
00000100
00000002
00000000
00001000
00001003
00000000
00000100
00000010
,
00000001
00000010
00000000
00000110
00000000
00000100
00010000
00001000
,
01000000
00010000
00000000
10010000
00000000
11000000
10000000
00100000
,
01100000
01000000
00001000
00011000
00010000
00000100
00000110
00000010
,
00000001
00000101
00000100
00001000
00020000
00000000
00031000
00000000
,
00010000
01000000
10000000
00100000
01100000
00000000
00000000
00000000
;
