#TITLE:Horsemen of the Invisible;
#ARTIST:Secret Chiefs 3;
#BANNER:Horsemen of the Invisible.png;
#BACKGROUND:Horsemen of the Invisible-bg.png;
#CDTITLE:./CDTITLES/Dance Dance Revolution UNIVERSE.png;
#MUSIC:Horsemen of the Invisible.ogg;
#SAMPLESTART:16.391;
#SAMPLELENGTH:15;
#DISPLAYBPM:172;
#BPMS:0=161.007,52=162.204,72=161.124,108=161.844,156=161.344,168=161.244,180=161.844,188=167.998,192=164.498,210=161.998,240=155.638,246=157.018,247.5=162.178,255.5=163.118;
#STOPS:108=1.065;

//---------------dance-single - ----------------
#NOTES:
     dance-single:
     :
     Beginner:
     1:
     :
0000
0000
0000
0000
,
0000
0000
0000
0000
,
0000
0000
0000
0000
,
0000
0000
0000
0000
,
0000
0000
0000
0000
,
1000
1000
0000
0000
,
0001
0000
1000
0000
,
0001
0001
0000
0000
,
1000
0000
0001
0000
,
1001
0000
0000
0000
,
0110
0000
0000
0000
,
0010
0010
0000
0000
,
1000
0000
0001
0000
,
0010
0010
0000
0000
,
0100
0000
1000
0000
,
0010
0010
0000
0000
,
0100
0000
0001
0000
,
1000
1000
0000
0000
,
0010
0000
0100
0000
,
0000
0000
0100
0000
,
0001
0000
0010
0000
,
0000
0000
0100
0000
,
1000
0000
0010
0000
,
0000
0000
0100
0000
,
0001
0000
1000
0000
,
0000
0000
0001
0000
,
1000
0000
0100
0000
,
0000
1000
0000
0001
,
0000
1000
0000
1000
,
0000
0010
0000
0100
,
0000
0001
0000
0001
,
0000
0010
0000
0001
,
0000
1000
0000
0100
,
0000
1000
0000
0001
,
0000
0100
0000
0001
,
0001
0000
0010
0000
,
0001
0000
0100
0000
,
0010
0000
1000
0000
,
0100
0000
1000
0000
,
0020
0000
0000
0030
,
0010
0000
0010
0000
,
0200
0000
0000
0300
,
0100
0000
0100
0000
,
0002
0000
0000
0003
,
0000
0000
0100
0000
,
2000
0000
0000
3000
,
1000
0000
0100
0000
,
0001
0000
0010
0000
,
0200
0000
0000
0300
,
0100
0000
1000
0000
,
0020
0000
0000
0030
,
0000
0010
0000
0010
,
0000
0100
0000
0100
,
0000
0001
0000
0001
,
0000
1000
0000
1000
,
0000
0000
0000
0000
,
1000
0000
0100
0000
,
1000
0000
1000
0000
,
0001
0000
0100
0000
,
0001
0000
0001
0000
,
0000
0000
0100
0000
,
0010
0000
1000
0000
,
0000
0000
0100
0000
,
0010
0000
0001
0000
,
0000
0000
0010
0000
,
0001
0000
1000
0000
,
0000
0000
0010
0000
,
1000
0000
0001
0000
,
1000
1000
0000
0000
;

//---------------dance-single - ----------------
#NOTES:
     dance-single:
     :
     Easy:
     3:
     :
0000
0000
0000
0000
,
0000
0000
0000
0000
,
0000
0000
0000
0000
,
0000
0000
0000
0000
,
0000
0000
0000
0000
,
1000
0000
0100
0000
,
1000
0000
0100
1000
,
0010
0000
1000
0000
,
0001
0100
0001
0000
,
1001
0000
0000
0000
,
0100
0100
0100
0100
,
0001
0000
0010
0000
,
0001
0000
0010
0001
,
0100
0000
0001
0000
,
1000
0010
1000
0000
,
0001
0000
1000
0000
,
0001
0000
0010
0100
,
1000
0000
0001
0000
,
1000
0010
0100
0000
,
0000
0110
0000
0100
,
0000
0001
0001
0010
,
0000
0110
0000
0100
,
0000
1000
1000
0010
,
0000
1001
0000
0100
,
0000
0010
0010
0001
,
0000
1001
0000
0100
,
0000
0010
0010
1000
,
0000
0000
1000
0000
,
0001
0000
0010
0001
,
1000
0000
0001
0000
,
1000
0000
0010
1000
,
0001
0000
0010
0000
,
0100
0000
0100
0000
,
0000
1000
0000
0001
,
0000
1000
0000
0001
,
1000
0010
0010
0000
,
0100
0000
0100
0000
,
0001
0010
0010
0000
,
0100
0000
0100
0000
,
1000
0000
0001
0000
,
1000
0000
0001
0100
,
1000
0000
0001
0000
,
1000
0000
0001
0010
,
2000
0000
0000
3000
,
0010
0000
0100
0000
,
0002
0000
0000
0003
,
0010
0000
0100
0000
,
1000
0000
0010
0000
,
0002
0000
0000
0003
,
0001
0000
0100
0000
,
2000
0000
0000
3000
,
1000
0000
0010
0000
,
0001
0000
1000
0000
,
0001
0000
0100
0000
,
1000
0000
0001
0000
,
1001
0000
0000
0000
,
1000
0000
0001
0000
,
1000
0000
0100
0010
,
0001
0000
1000
0000
,
0001
0100
0010
0000
,
0000
0110
0000
0010
,
0000
1000
1000
0100
,
0000
0110
0000
0010
,
0000
0001
0001
0100
,
0000
1001
0000
0010
,
0000
0100
0100
1000
,
0000
1001
0000
0010
,
0000
0100
0100
0100
,
0100
0001
0000
0000
;

//---------------dance-single - ----------------
#NOTES:
     dance-single:
     :
     Medium:
     6:
     :
0000
0000
0000
0000
,
0000
0000
0000
0000
,
0000
0000
0000
0000
,
0000
0000
0000
0000
,
0000
0000
0000
0000
,
0010
1000
0001
0001
,
0100
0000
0010
1000
0010
0000
0100
0001
,
0010
0001
1000
1000
,
0010
0000
0100
0001
0100
0000
0010
1000
,
0200
1000
1000
1300
,
0002
0100
0100
0103
,
0001
1001
0001
1100
,
0010
0001
0100
0010
,
1000
1001
1000
0101
,
0010
1000
0100
0010
,
0001
0101
0100
1010
,
1000
0100
0010
0001
,
1000
1010
0100
0101
,
0001
0010
0100
1000
,
0000
2001
0000
0000
0000
0000
3010
0000
,
0001
0010
1000
0100
,
0000
2001
0000
0000
0000
0000
3100
0000
,
0001
0100
1000
0010
,
0000
1001
0000
0000
0100
0000
0001
0000
,
0010
0100
1000
0010
,
0000
1001
0000
0000
0010
0000
0001
0000
,
0100
0010
1000
0100
,
1000
1000
0001
0001
,
0100
0010
0100
0010
,
1000
1000
0001
0001
,
0010
0100
0010
0100
,
1000
0100
1000
0000
0001
0100
0001
0000
,
1000
0010
1000
0000
0001
0010
0001
0000
,
1000
0100
1000
0100
,
0010
0001
0010
0001
,
0100
0101
1001
1000
,
0010
0000
0100
0000
0001
0010
0001
0000
,
1000
0000
0010
0000
0100
0001
0000
0001
,
0000
0001
0100
0000
0001
0000
0001
0000
,
1000
1000
0001
0001
,
0010
0010
0100
0100
,
2000
3100
0200
0310
,
0020
0000
0031
0000
0002
0000
0103
0020
,
0000
1000
1000
1030
,
0002
0103
2000
3100
,
0002
0010
0010
0013
,
0020
2030
3020
0032
,
1003
0000
1001
0000
,
0220
0000
0000
0330
,
0001
0000
1001
0000
,
0220
0000
0000
0330
,
0100
0010
0100
0010
,
0001
1000
0001
1000
,
0010
0100
0010
0100
,
0001
1000
0001
1000
,
2002
0000
0000
3003
,
1000
1010
0010
0101
,
0001
0010
0100
1000
,
0001
0101
0010
1010
,
1000
0100
0010
0001
,
0000
1002
0000
0000
0000
0000
0103
0000
,
1000
0100
0002
0023
,
0030
1002
0000
0000
0000
0000
0013
0000
,
1000
0010
0002
0203
,
0300
1001
0000
0000
0010
0000
1000
0000
,
0100
0010
0002
0203
,
0300
1001
0000
0000
0100
0000
1000
0000
,
0010
0100
0002
0023
,
0130
1001
0000
0000
;

//---------------dance-single - ----------------
#NOTES:
     dance-single:
     :
     Hard:
     8:
     :
0000
0000
0000
0000
,
0000
0000
0000
0000
,
0000
0000
0000
0000
,
0000
0000
0000
0000
,
0000
0000
0000
0000
,
1000
2000
0010
0000
3001
0002
0100
0000
,
1003
0000
0001
0010
1000
0000
0001
0100
,
1000
2000
0100
0000
3001
0002
0010
0000
,
1003
0000
0001
0100
1000
0000
0001
0010
,
2000
0001
0001
0001
,
0001
3001
2002
3003
,
0100
0010
2000
0000
3001
0100
0020
0000
,
0032
0000
0013
1000
0200
0000
0310
0100
,
1000
0010
0200
0000
0301
0010
0200
0000
,
0302
0000
0103
1000
0020
0000
0130
0010
,
1000
0100
0020
0000
0031
0100
0020
0000
,
2030
0000
3100
0010
2000
0000
3010
0001
,
0100
0010
0002
0000
0013
1000
0002
0000
,
0023
0000
0230
0000
2300
0000
3001
1000
,
0000
1001
0000
0001
0100
0010
0100
0010
,
1000
0010
1000
0100
1000
0100
0010
0001
,
0000
0011
0000
0010
0001
0100
0001
0100
,
0010
0100
0010
1000
0010
1000
0001
0100
,
0000
0101
0000
0001
0010
0100
0010
0100
,
1000
0100
1000
0001
1000
0001
0100
0010
,
0000
0110
0000
0100
1000
0100
0010
0100
,
0001
0010
1000
0010
0100
0010
0001
0000
,
1000
0001
1000
0001
,
0010
0100
0010
0001
0100
0010
1000
0001
,
0100
0010
0100
0010
,
1000
0001
1000
0100
0010
0001
0100
0001
,
0010
0100
1000
0100
0010
0001
0100
0001
,
0010
0100
0001
0100
1000
0010
0001
0010
,
1000
0000
0000
0100
1000
0000
0000
0100
1000
0000
0000
0001
0100
0000
0000
0001
,
0100
0000
0000
0010
1000
0000
0010
0000
0100
0000
0001
0000
0010
0000
0100
0000
,
1000
0000
0011
0000
1100
0000
1000
0010
,
0000
0010
0100
0001
0100
0010
1000
0001
,
0010
0100
1000
0010
0000
1001
0000
0110
,
0000
0001
1000
0100
1000
0010
0100
0001
,
0100
0000
1000
0100
0010
0000
0001
0010
,
1000
0100
1000
0001
0010
0100
1000
0010
,
0100
0100
0001
1000
0100
0100
0010
0001
,
1000
0100
0010
0001
1000
0001
0000
2002
,
0000
0003
0001
0100
,
3100
1000
1000
0010
,
0010
0100
0001
0010
1000
0010
0001
0100
,
0010
1000
0100
0001
0100
0010
0001
1000
,
0001
0002
0000
0000
1003
2000
0000
0000
,
3001
0002
0100
0203
1000
2300
0100
3200
,
0001
0301
0002
0000
1000
1003
2000
0000
,
0001
3002
0010
0023
1000
2030
0010
3010
,
0001
1000
0010
0100
0001
1000
0010
0100
,
0010
1000
0001
0100
0010
1000
0001
0100
,
0001
0010
0100
1000
0001
0010
0100
1000
,
0010
1000
0001
0100
0010
0010
1000
1000
,
0002
0000
0000
0003
,
1000
0100
0020
0000
0031
0100
0020
0000
,
2030
0000
3100
0010
2000
0000
3010
0001
,
0100
0010
0002
0000
0013
1000
0200
0000
,
0320
0000
1030
0010
0002
0000
1003
0001
,
0000
0110
0000
1000
0010
0100
0010
0100
,
0001
0000
0000
0010
0001
0000
0000
0010
0001
0000
0000
0010
0100
0000
1000
0000
,
0000
1001
0000
0100
1000
0010
1000
0010
,
0100
0000
0000
0010
0100
0000
0000
0001
0100
0000
0000
0001
1000
0000
0010
0000
,
0000
0101
0000
1000
0100
0010
0100
0010
,
0001
0000
0000
0010
0001
0000
0000
1000
0001
0000
0000
1000
0010
0000
0100
0000
,
0000
1001
0000
0010
0001
0010
0100
0010
,
1000
0000
0000
0100
0001
0000
0000
0100
0010
0000
0000
0100
1000
0000
0000
0010
,
0100
0000
0000
0001
0010
0000
0000
0000
0000
0000
0000
0000
0000
0000
0000
0000
;

//---------------dance-double - ----------------
#NOTES:
     dance-double:
     :
     Beginner:
     1:
     :
00000000
00000000
00000000
00000000
,
00000000
00000000
00000000
00000000
,
00000000
00000000
00000000
00000000
,
00000000
00000000
00000000
00000000
,
00000000
00000000
00000000
00000000
,
00010000
00010000
00000000
00000000
,
00100000
00000000
01000000
00000000
,
10000000
10000000
00000000
00000000
,
00100000
00000000
00010000
00000000
,
00011000
00000000
00000000
00000000
,
00011000
00000000
00000000
00000000
,
00001000
00001000
00000000
00000000
,
00000100
00000000
00000001
00000000
,
00000010
00000010
00000000
00000000
,
00000100
00000000
00001000
00000000
,
00000001
00000001
00000000
00000000
,
00000100
00000000
00001000
00000000
,
00010000
00010000
00000000
00000000
,
00001000
00000000
00010000
00000000
,
00000000
00000000
01000000
00000000
,
10000000
00000000
00100000
00000000
,
00000000
00000000
01000000
00000000
,
00010000
00000000
00100000
00000000
,
00000000
00000000
00001000
00000000
,
00010000
00000000
00000100
00000000
,
00000000
00000000
00001000
00000000
,
00000001
00000000
00000100
00000000
,
00000000
00000010
00000000
00000100
,
00000000
00000001
00000000
00000001
,
00000000
00000010
00000000
00000100
,
00000000
00001000
00000000
00001000
,
00000000
00000100
00000000
00000100
,
00000000
00010000
00000000
00010000
,
00000000
00001000
00000000
00001000
,
00000000
00010000
00000000
00001000
,
00001000
00000000
00010000
00000000
,
00100000
00000000
01000000
00000000
,
00100000
00000000
01000000
00000000
,
00010000
00000000
10000000
00000000
,
00020000
00000000
00000000
00030000
,
00010000
00000000
00010000
00000000
,
20000000
00000000
00000000
30000000
,
10000000
00000000
10000000
00000000
,
02000000
00000000
00000000
03000000
,
00000000
00000000
00010000
00000000
,
00002000
00000000
00000000
00003000
,
00001000
00000000
00000100
00000000
,
00000010
00000000
00001000
00000000
,
00000002
00000000
00000000
00000003
,
00000001
00000000
00000100
00000000
,
00000020
00000000
00000000
00000030
,
00000000
00000010
00000000
00000010
,
00000000
00000100
00000000
00000100
,
00000000
00001000
00000000
00001000
,
00000000
00010000
00000000
00010000
,
00000000
00000000
00000000
00000000
,
00001000
00000000
00010000
00000000
,
00100000
00000000
00100000
00000000
,
00010000
00000000
00001000
00000000
,
00000100
00000000
00000100
00000000
,
00000000
00000000
00001000
00000000
,
00010000
00000000
00001000
00000000
,
00000000
00000000
00100000
00000000
,
00010000
00000000
00100000
00000000
,
00000000
00000000
01000000
00000000
,
10000000
00000000
01000000
00000000
,
00000000
00000000
00100000
00000000
,
00010000
00000000
10000000
00000000
,
00010000
00010000
00000000
00000000
;

//---------------dance-double - ----------------
#NOTES:
     dance-double:
     :
     Easy:
     3:
     :
00000000
00000000
00000000
00000000
,
00000000
00000000
00000000
00000000
,
00000000
00000000
00000000
00000000
,
00000000
00000000
00000000
00000000
,
00000000
00000000
00000000
00000000
,
00001000
00000000
00000010
00000000
,
00001000
00000000
00000001
00000100
,
00000001
00000000
00000010
00000000
,
00001000
00010000
00001000
00000000
,
00011000
00000000
00000000
00000000
,
00100000
00100000
00100000
00100000
,
00010000
00000000
01000000
00000000
,
00010000
00000000
10000000
00100000
,
10000000
00000000
01000000
00000000
,
00010000
00001000
00010000
00000000
,
00001000
00000000
00000100
00000000
,
00000001
00000000
00000100
00000001
,
00000010
00000000
00000001
00000000
,
00000010
00000100
00001000
00000000
,
00000000
00001001
00000000
00000100
,
00000000
00001000
00001000
00010000
,
00000000
00011000
00000000
00001000
,
00000000
00010000
00010000
00100000
,
00000000
01100000
00000000
01000000
,
00000000
00010000
00010000
10000000
,
00000000
10010000
00000000
01000000
,
00000000
00100000
00100000
00010000
,
00000000
10000000
00000000
00000000
,
00100000
00000000
00010000
00001000
,
00010000
00000000
00001000
00000000
,
00000100
00000000
00000010
00001000
,
00000100
00000000
00001000
00000000
,
00000001
00000000
00001000
00000000
,
00000000
00000010
00000000
00000100
,
00000000
00000010
00000000
00000100
,
00001000
00010000
00010000
00000000
,
00001000
00000000
00100000
00000000
,
00010000
01000000
01000000
00000000
,
00100000
00000000
00100000
00000000
,
10000000
00000000
01000000
00000000
,
10000000
00000000
01000000
00010000
,
00001000
00000000
00010000
00000000
,
00001000
00000000
00010000
00001000
,
00000200
00000000
00000000
00000300
,
00000010
00000000
00001000
00000000
,
00000002
00000000
00000000
00000003
,
00000010
00000000
00000100
00000000
,
00001000
00000000
00000100
00000000
,
00020000
00000000
00000000
00030000
,
00001000
00000000
00100000
00000000
,
00020000
00000000
00000000
00030000
,
10000000
00000000
00100000
00000000
,
01000000
00000000
00100000
00000000
,
00010000
00000000
00001000
00000000
,
00000100
00000000
00000010
00000000
,
00000110
00000000
00000000
00000000
,
00000001
00000000
00000010
00000000
,
00000001
00000000
00000010
00000001
,
00000100
00000000
00000001
00000000
,
00000100
00000010
00001000
00000000
,
00000000
00001001
00000000
00000010
,
00000000
00001000
00001000
00010000
,
00000000
00011000
00000000
00001000
,
00000000
00010000
00010000
01000000
,
00000000
01100000
00000000
00100000
,
00000000
00010000
00010000
10000000
,
00000000
10010000
00000000
00100000
,
00000000
10000000
10000000
10000000
,
10000000
01000000
00000000
00000000
;

//---------------dance-double - ----------------
#NOTES:
     dance-double:
     :
     Medium:
     6:
     :
00000000
00000000
00000000
00000000
,
00000000
00000000
00000000
00000000
,
00000000
00000000
00000000
00000000
,
00000000
00000000
00000000
00000000
,
00000000
00000000
00000000
00000000
,
00100000
00010000
10000000
10000000
,
00010000
00000000
00100000
00001000
00100000
00000000
00001000
00010000
,
00001000
00010000
00000100
00000100
,
00001000
00000000
00000010
00010000
00000010
00000000
00000100
00001000
,
00000001
00000100
00000100
00000100
,
00001000
00010000
00010000
00010000
,
00100000
00110000
10000000
10100000
,
01000000
00010000
00100000
01000000
,
10000000
11000000
00010000
00110000
,
00001000
00010000
00000100
00001000
,
00000010
00000101
00001000
00001100
,
00000010
00000100
00001000
00000010
,
00000100
00001100
00010000
00011000
,
00001000
00100000
00010000
01000000
,
00100000
20000000
00000000
00000000
00100000
00000000
30100000
00000000
,
10000000
01000000
00100000
01000000
,
00010000
00002000
00000000
00000000
00010000
00000000
00013000
00000000
,
00001000
00000100
00000001
00000010
,
00000100
00002000
00000000
00000000
00000001
00000000
00003001
00000000
,
00001000
00000010
00000100
00001000
,
00001000
00020000
00000000
00000000
00100000
00000000
00130000
00000000
,
00010000
00100000
10000000
01000000
,
10000000
10000000
00010000
00010000
,
01000000
00100000
00010000
00001000
,
00010000
00010000
00001000
00001000
,
00010000
00001000
00000100
00000010
,
00000100
00000001
00000100
00000000
00000010
00000000
00000101
00000000
,
00001000
00000100
00001000
00000000
00000001
00000000
00001100
00000000
,
00000100
00010000
00001000
00100000
,
00010000
00100000
00010000
01000000
,
00100000
01100000
10100000
10000000
,
01000000
00000000
00010000
00000000
00001000
00010000
00001000
00000000
,
00000100
00000000
00000010
00000000
00001000
00000000
00000001
00002000
,
00000000
00003002
00000000
00001003
00000001
00000000
00000100
00000000
,
00000010
00000010
00000100
00000100
,
00001000
00001000
00010000
00010000
,
00200000
01300000
20000000
30100000
,
02000000
00000000
03010000
00000000
00200000
00000000
00301000
00020000
,
00000000
00001000
00001000
00031000
,
00002000
00003100
00000200
00000310
,
00000020
00001000
00001000
00001030
,
00000002
00000023
00000230
00002300
,
00003100
00000000
00011000
00000000
,
02000000
00010000
00010000
03010000
,
10000000
00000000
10010000
00000000
,
20000000
01000000
01000000
31000000
,
00100000
00010000
00100000
00010000
,
01000000
00010000
01000000
00010000
,
00100000
00001000
00010000
00000010
,
00001000
00000001
00001000
00000001
,
00002002
00000000
00000000
00003003
,
00000100
00000011
00001000
00001010
,
00000100
00000010
00001000
00000100
,
00000010
00001010
00010000
00011000
,
00001000
01000000
00010000
00100000
,
01000000
20000000
00000000
00000000
01000000
00000000
31000000
00000000
,
10000000
00100000
01000000
00100000
,
00010000
00002000
00000000
00000000
00010000
00000000
00013000
00000000
,
00001000
00000010
00000001
00000100
,
00000010
00002000
00000000
00000000
00000001
00000000
00003001
00000000
,
00001000
00000100
00000010
00001000
,
00001000
00020000
00000000
00000000
01000000
00000000
01030000
00000000
,
00010000
01000000
10000000
00200000
,
00310000
00011000
00000000
00000000
;

//---------------dance-double - ----------------
#NOTES:
     dance-double:
     :
     Hard:
     8:
     :
00000000
00000000
00000000
00000000
,
00000000
00000000
00000000
00000000
,
00000000
00000000
00000000
00000000
,
00000000
00000000
00000000
00000000
,
00000000
00000000
00000000
00000000
,
00001000
00010000
00100000
00000000
00010000
00001000
00000100
00000000
,
00000002
00000000
00000013
00000001
00000100
00000000
00000010
00001000
,
00000100
00010000
00001000
00000000
00100000
00001000
00010000
00000000
,
00002000
00000000
00013000
01000000
10000000
00000000
00010000
01000000
,
00100000
01000000
00100000
01000000
00100000
00010000
00001000
00000100
,
00000010
00000100
00000010
00000100
00000010
00000100
00001000
00010000
,
00100000
01000000
20000000
00000000
31000000
00010000
00200000
00000000
,
01300000
00000000
00000000
10000000
00100000
00000000
01000000
00000000
00010000
00000000
00000000
00100000
00001000
00000000
00010000
00000000
,
00000100
00001000
00000020
00000000
00000130
00000001
00000020
00000000
,
00000130
00000000
00000000
00001000
00000010
00000000
00000100
00000000
00000001
00000000
00000000
00000010
00000100
00000000
00001000
00000000
,
00000010
00010000
00002000
00000000
01003000
00010000
00200000
00000000
,
01300000
00000000
00000000
10000000
00100000
00000000
01000000
00000000
00010000
00000000
00000000
00100000
01000000
00000000
10000000
00000000
,
01000000
00010000
00002000
00000000
00013000
00001000
00000200
00000000
,
00000301
00001000
00000100
00000010
00000100
00001000
00000010
00000100
,
00000000
00000110
00000000
00000010
00000001
00000010
00000100
00001000
,
00010000
00000100
00010000
00001000
00100000
00001000
00010000
00100000
,
00000000
01100000
00000000
01000000
10000000
01000000
00100000
00010000
,
00001000
00100000
00001000
00010000
00000100
00010000
00001000
00000100
,
00000000
00000110
00000000
00000010
00001000
00000100
00001000
00000010
,
00010000
00001000
00100000
00010000
01000000
00010000
10000000
00100000
,
00000000
01100000
00000000
01000000
00010000
00100000
00010000
01000000
,
00001000
00010000
00000100
00001000
00000010
00001000
00000100
00000000
,
00000000
00000000
00000001
00000000
00001000
00000100
00001000
00000000
,
00000010
00000010
00001000
00000100
00010000
00010000
00001000
00100000
,
00010000
01000000
00010000
00000000
10000000
01000000
10000000
00000000
,
00010000
00010000
00100000
00001000
00010000
00010000
00000100
00001000
,
00000020
00000031
00000200
00001300
,
00000100
00000010
00000001
00000010
00000100
00001000
00010000
01000000
,
00200000
10300000
02000000
03010000
,
01000000
00100000
10000000
00100000
01000000
00010000
00001000
00000100
,
00000010
00001000
00000100
00001000
00000010
00000000
00000000
00000110
,
00000000
00000100
00000001
00000010
00000001
00000000
00001000
00000100
,
00001000
00000010
00010000
00001000
01000000
00100000
10000000
00100000
,
00000000
01100000
00000000
01000000
00010000
00100000
01000000
00010000
,
01000000
11000000
00010000
01100000
,
10000000
00000000
01010000
00000000
00001000
01000000
00001000
00010000
,
00000100
00001100
00000001
00000110
,
00001000
00000000
00000101
00000000
00000010
00001000
00000001
00000202
,
00000000
00000003
00000001
00000000
00000010
00000000
00002300
00000000
,
00010000
00100000
02003000
10000000
,
03200000
00010000
01000000
10300000
,
10010000
00110000
00011000
00001100
,
00000010
00000100
00001000
00000000
00000010
00000100
00001000
00000000
,
00000001
00000010
00000100
00000001
00000100
00001000
00010000
00100000
,
01000000
00100000
10000000
00000000
01000000
00100000
10000000
00000000
,
00100000
00010000
00100000
01000000
10000000
00100000
01000000
00100000
,
00010000
00001000
00000010
00001000
00010000
01000000
00100000
01000000
,
00010000
00001000
00000100
00001000
00010000
00001000
00000100
00000000
,
00001000
00010000
00100000
00010000
00001000
00000100
00000010
00000100
,
00001000
00010000
01000000
00010000
00001000
00010000
01000000
00010000
,
00022000
00000000
00000000
00033000
,
00001000
00010000
01000000
00000000
00010000
00001000
00000010
00000000
,
00000002
00000000
00000103
00000001
00000010
00000000
00000100
00001000
,
00000010
00010000
00001000
00000000
01000000
00001000
00010000
00000000
,
00002000
00000000
00013000
00100000
10000000
00000000
00010000
00100000
,
00000000
01100000
00000000
00100000
10000000
00100000
01000000
00010000
,
00001000
01000000
00001000
00010000
00000010
00010000
00001000
00000010
,
00000000
00000110
00000000
00000100
00000001
00000100
00000010
00001000
,
00010000
00000010
00010000
00001000
01000000
00001000
00010000
01000000
,
00000000
01100000
00000000
00100000
00010000
01000000
00010000
00100000
,
00001000
00010000
00000010
00001000
00000100
00001000
00000001
00000010
,
00000000
00000110
00000000
00000100
00001000
00000010
00001000
00000100
,
00010000
00001000
01000000
00010000
00100000
00010000
01000000
00100000
,
10000000
00010000
10010000
00000000
00000000
00000000
00000000
00000000
;
