#TITLE:Heart With a View (Echo Image Remix);
#ARTIST:The Echoing Green;
#BANNER:Heart With a View (Echo Image Remix).png;
#BACKGROUND:Heart With a View (Echo Image Remix)-bg.png;
#CDTITLE:./CDTITLES/Dance Dance Revolution UNIVERSE.png;
#MUSIC:Heart With a View (Echo Image Remix).ogg;
#SAMPLESTART:30.145;
#SAMPLELENGTH:15;
#BPMS:0=135;

//---------------dance-single - ----------------
#NOTES:
     dance-single:
     :
     Beginner:
     1:
     :
0000
0000
0000
0000
,
0000
0000
0000
0000
,
0000
0000
0000
0000
,
0000
0000
0000
0000
,
0000
0000
0000
0000
,
0001
0000
0000
0000
,
1000
0000
0000
0000
,
0001
0000
0000
0000
,
0100
0000
0000
0100
,
0100
0000
0000
0000
,
0001
0000
0000
0000
,
1000
0000
0000
0000
,
0001
0000
0000
0000
,
1000
0000
0001
0000
,
1000
0000
0000
0000
,
0100
0000
0010
0000
,
0100
0000
0000
0000
,
0001
0000
1000
0000
,
0001
0000
0000
0000
,
0010
0000
0100
0000
,
0010
0000
0000
0000
,
1000
0000
0001
0000
,
1000
0000
0000
0000
,
0100
0000
0100
0000
,
0001
0000
0001
0000
,
0001
0000
0000
0000
,
0000
0000
0000
0000
,
1001
0000
1001
0000
,
1001
0000
0000
0000
,
0110
0000
0000
0000
,
0000
0000
0000
0000
,
0110
0000
0110
0000
,
0000
0000
0000
0000
,
1000
0000
0000
0000
,
0001
0000
0000
0000
,
0010
0000
0010
0000
,
0100
0000
0100
0000
,
0010
0000
0000
0000
,
1000
0000
0000
0000
,
0100
0000
1000
0000
,
1000
0000
0000
0000
,
0100
0000
0000
0001
,
0001
0000
0000
1000
,
1000
0000
0000
0100
,
0100
0000
0000
0010
,
0010
0000
0000
0010
,
0010
0000
0000
0100
,
0100
0000
0000
1000
,
1000
0000
0000
0000
,
0001
0000
1000
0000
,
0001
0000
0000
0000
,
0100
0000
0010
0000
,
0100
0000
0000
0000
,
0001
0000
1000
0000
,
1000
0000
0100
0000
,
1000
0000
1000
0000
,
0001
0001
0001
0001
;

//---------------dance-single - ----------------
#NOTES:
     dance-single:
     :
     Easy:
     2:
     :
0000
0000
0000
0000
,
0000
0000
0000
0000
,
0000
0000
0000
0000
,
0000
0000
0000
0000
,
0000
0000
0000
0000
,
0200
0000
0000
0300
,
1000
0000
0000
0000
,
0020
0000
0000
0030
,
0001
0000
0000
0000
,
2000
0000
0000
3000
,
0100
0000
0000
0000
,
0001
0000
0001
0000
,
2002
0000
0000
3003
,
0100
0000
0100
0000
,
0010
0000
0010
0000
,
1000
0000
0001
0000
,
1000
0000
0100
0100
,
0001
0000
0010
0000
,
0010
0000
0100
0000
,
0100
0000
1000
0000
,
0001
0000
1000
0000
,
0001
0000
0100
0000
,
0010
0000
0010
0000
,
1000
0000
1000
0000
,
0001
0000
0100
0100
,
0020
0000
0000
0030
,
0200
0000
0000
0300
,
1000
0001
1000
0001
,
1000
0001
0000
0000
,
0020
0000
0000
0030
,
0200
0000
0000
0300
,
1000
0001
1000
0001
,
0000
0000
0000
0000
,
0001
1000
0001
0000
,
0010
0000
0010
0000
,
0001
1000
0001
0000
,
0110
0000
0000
0000
,
0100
0010
0100
0000
,
0001
0000
0001
0000
,
0100
0010
0100
0000
,
1001
0000
0000
0000
,
0200
0000
0000
0300
,
0001
0000
1000
0000
,
0020
0000
0000
0030
,
1000
0000
0001
0000
,
0100
0100
0010
0000
,
1000
0000
0001
0000
,
1000
1000
0001
0000
,
0100
0000
0010
0000
,
0010
0000
1000
0000
,
0001
0000
1000
0000
,
0010
0000
0100
0000
,
0010
0000
1000
0100
,
0200
0000
0000
0300
,
2000
0000
0000
3000
,
0002
0000
0000
0003
,
0100
0001
0100
0010
;

//---------------dance-single - ----------------
#NOTES:
     dance-single:
     :
     Medium:
     6:
     :
0000
0000
0000
0000
,
0000
0000
0000
0000
,
0000
0000
0000
0000
,
0000
0000
0000
0000
,
0000
0000
0000
0000
,
0100
1001
0100
1001
,
0100
0001
1000
0001
,
1000
1100
1000
1100
,
1000
0100
0010
0001
,
0010
1001
0010
1001
,
0001
0100
0010
1000
,
0100
0110
0100
0110
,
1001
0000
0000
0000
,
0010
0000
0100
0000
0010
0001
0000
1000
,
0010
0000
0100
0000
0001
0100
0000
1000
,
0100
0000
0001
0000
0010
0100
0000
1000
,
0001
0000
0100
0000
0010
1000
0000
0001
,
0100
0000
0010
0000
1000
0010
0000
0100
,
0001
0000
1000
0000
0010
0100
0000
0001
,
0010
0000
0100
0000
1000
0100
0000
0010
,
0001
0000
0010
0000
0100
1000
0000
0100
,
0010
0001
0001
0100
,
0100
0001
0010
0000
0100
0000
1000
0000
,
1000
0100
1000
0000
0001
0010
0001
0000
,
0100
0010
0100
0000
0001
1000
0001
1000
,
0010
0000
0100
0000
0010
0010
0000
1000
,
0000
0000
0000
0000
0000
0001
0100
0010
,
0000
2000
0000
0000
0000
0000
0000
0000
,
0000
3000
0000
0000
0000
0000
0000
0000
,
0001
0000
1000
0000
0001
0001
0000
0100
,
0000
0000
0000
0000
0000
0010
1000
0100
,
0000
0020
0000
0000
0000
0000
0000
0000
,
0000
0030
0000
0000
0000
0000
0000
0000
,
0010
1000
0100
0000
0010
0001
0100
0000
,
0001
0100
0010
0010
,
1000
0000
0100
0000
0010
0000
0001
0010
,
0100
0000
0010
0100
0000
0010
0000
0000
,
0001
0010
1000
0000
1000
0010
0001
0000
,
0100
0001
1000
0010
,
1000
0000
0001
0000
1000
0000
0010
0100
,
1000
0000
0010
0100
0000
0010
0000
0000
,
0100
0001
0010
0000
0100
1000
0010
0000
,
0100
0001
1000
0010
,
0100
0001
1000
0010
,
1000
0100
0010
0001
,
1000
0100
1000
0000
0001
0010
0001
0000
,
0001
0100
1000
0010
,
0001
0100
1000
0010
,
1000
0100
0010
0001
,
1000
0100
0010
0000
1000
0000
1001
0000
,
0001
0010
0100
0000
0001
0000
1001
0000
,
0100
0010
0001
0000
1000
0000
0110
0000
,
0010
0100
1000
0000
0001
0100
0010
1000
,
0002
0000
0000
0100
0000
0000
0103
0000
,
0020
0000
0000
1000
0000
0000
1030
0000
,
0200
0000
0000
0010
0000
0000
0310
0000
,
0001
0000
0010
0000
0100
1000
0100
1000
;

//---------------dance-single - ----------------
#NOTES:
     dance-single:
     :
     Hard:
     8:
     :
0000
0000
0000
0000
,
0000
0000
0000
0000
,
0000
0000
0000
0000
,
0000
0000
0000
0000
,
0000
0000
0000
0000
,
0100
0000
1010
0000
0100
0000
1001
0100
,
0010
0000
0101
0000
0010
0000
1100
0010
,
0100
0000
0011
0000
0100
0000
1001
0100
,
0010
0000
1001
0000
0010
0000
1010
0001
,
1000
0000
0110
0000
1000
0000
1100
0001
,
0100
0000
0101
0000
0100
0000
0110
0001
,
1000
0000
1010
0000
1000
0000
1001
0100
,
2002
0000
0000
3003
,
0010
0000
0000
0000
0200
0000
0000
0001
0000
0000
0301
0000
0000
0000
0100
0000
,
1000
0000
0000
0000
1010
0000
0000
0101
0000
0000
1100
0000
0000
0000
0001
0000
,
0010
0000
0000
0000
2000
0000
0000
0010
0000
0000
3010
0000
0000
0000
0001
0000
,
1000
0000
0000
0000
0011
0000
0000
1100
0000
0000
0101
0000
0000
0000
0010
0000
,
0100
0000
0000
0000
2000
0000
0000
0010
0000
0000
3010
0000
0000
0000
0100
0000
,
0001
0000
0000
0000
1100
0000
0000
0101
0000
0000
1001
0000
0000
0000
0001
0000
,
0010
0000
0000
0000
0200
0000
0000
1000
0000
0000
1300
0000
0000
0000
0100
0000
,
0010
0000
0000
0000
0011
0000
0000
1001
0000
0000
0101
0000
0000
0000
0001
0000
,
1000
0000
0000
0000
0020
0000
0000
0100
0000
0000
0130
0000
0000
0000
0100
0000
,
0001
1000
0000
0000
1010
0000
0000
0110
0000
0000
1010
0000
0000
0000
1000
0000
,
0010
0100
0000
0000
0101
0000
0000
1001
0000
0000
0101
0000
0000
0000
0100
0000
,
1000
0100
0000
0000
0011
0000
0000
0110
0000
0000
0011
0000
1000
0000
0001
0000
,
2000
0000
0010
0000
0100
0100
0000
3020
,
0000
0000
0000
0000
0000
0130
0001
2000
,
0000
0100
0000
0001
0000
0100
0000
0001
,
0000
3100
0000
0000
0000
0000
0000
0000
,
0020
0000
1000
0000
0001
0001
0000
2030
,
0000
0000
0000
0000
0000
3001
1000
0200
,
0000
0001
0000
1000
0000
0301
0000
0000
,
0000
0000
0000
0000
,
0100
0000
1000
0000
0010
1000
0000
0010
0000
0000
0100
0000
1000
0000
0100
0000
,
0001
0000
0100
0000
1000
0100
0000
0001
0000
0000
0010
0000
0100
0000
1000
0000
,
0100
0000
0010
0000
0001
1000
0000
0001
0000
0000
0100
0000
0010
0000
1000
0000
,
0002
0000
0100
0100
0000
0010
0000
0103
,
0010
0000
1000
0000
0100
1000
0000
0010
0000
0000
0100
0000
0001
0000
0010
0000
,
0100
0000
1000
0000
0001
0100
0000
0001
0000
0000
0010
0000
1000
0000
0010
0000
,
0001
0000
0100
0000
1000
0100
0000
1000
0000
0000
0100
0000
0001
0000
0010
0000
,
0200
0000
1000
1000
0000
0001
0000
1300
,
1000
0000
0000
0001
0000
0000
1001
0000
0000
0101
0000
0000
0010
0000
1000
0000
,
0100
0000
0000
1000
0000
0000
1100
0000
0000
0110
0000
0000
0100
0000
0010
0000
,
0001
0000
0000
1000
0000
0000
1100
0000
0000
1001
0000
0000
0010
0000
0001
0000
,
1000
0000
0000
0010
0000
0000
1010
0000
0000
0101
0000
0000
0100
0000
0001
0000
,
0010
0000
0000
1000
0000
0000
1010
0000
0000
0011
0000
0000
0100
0000
0010
0000
,
1000
0000
0000
0100
0000
0000
0110
0000
0000
1001
0000
0000
0001
0000
0100
0000
,
0010
0000
0000
1000
0000
0000
1100
0000
0000
0101
0000
0000
0001
0000
0100
0000
,
0020
0000
0000
0030
,
0001
0000
0000
0200
0000
0000
0010
0000
0000
0310
0000
0000
1000
0000
0100
0000
,
0001
0000
0000
2000
0000
0000
0010
0000
0000
3010
0000
0000
0001
0000
0100
0000
,
0001
0000
0000
0020
0000
0000
0100
0000
0000
0130
0000
0000
1000
0000
0010
0000
,
0100
0000
0000
0002
0000
0000
0100
0000
0000
0103
0000
0000
0010
0000
1000
0000
,
0100
1000
0000
1000
0100
0000
0100
0010
0000
0010
0001
0000
0100
0000
1000
0000
,
0100
0001
0000
0001
0010
0000
0010
1000
0000
1000
0010
0000
0001
0000
0010
0000
,
0010
1000
0000
1000
0010
0000
0010
0100
0000
0100
0001
0000
0100
0000
0010
0000
,
0001
0100
0000
1000
0100
0000
0001
0100
0000
1000
0100
0000
0001
0000
2000
0000
,
0000
0000
0000
3000
;

//---------------dance-double - ----------------
#NOTES:
     dance-double:
     :
     Beginner:
     1:
     :
00000000
00000000
00000000
00000000
,
00000000
00000000
00000000
00000000
,
00000000
00000000
00000000
00000000
,
00000000
00000000
00000000
00000000
,
00000000
00000000
00000000
00000000
,
00001000
00000000
00000000
00000000
,
00010000
00000000
00000000
00000000
,
00000100
00000000
00000000
00000000
,
00000001
00000000
00000000
00000000
,
00000010
00000000
00000000
00000000
,
00000001
00000000
00000000
00000000
,
00001000
00000000
00000000
00000000
,
00010000
00000000
00000000
00000000
,
01000000
00000000
01000000
00000000
,
10000000
00000000
10000000
00000000
,
00100000
00000000
00000000
00000000
,
01000000
00000000
00000000
00000000
,
00001000
00000000
00001000
00000000
,
00010000
00000000
00010000
00000000
,
00001000
00000000
00000000
00000000
,
00000100
00000000
00000000
00000000
,
00000001
00000000
00000001
00000000
,
00001000
00000000
00000000
00000000
,
00001000
00000000
00000000
00000000
,
00010000
00000000
00000000
00000000
,
01000000
01000000
01000000
00000000
,
01000000
00000000
00000000
00000000
,
00010000
00000000
00000000
00000000
,
00000000
00000000
00000000
00000000
,
00001000
00001000
00001000
00000000
,
00001000
00000000
00000000
00000000
,
00000100
00000000
00000000
00000000
,
00000000
00000000
00000000
00000000
,
10000000
00000000
10000000
00000000
,
01000000
00000000
01000000
00000000
,
00010000
00000000
00000000
00000000
,
00001000
00000000
00000000
00000000
,
00000100
00000000
00000100
00000000
,
00000001
00000000
00000001
00000000
,
00000010
00000000
00000000
00000000
,
00000100
00000000
00000000
00000000
,
00010000
00000000
00000000
00000000
,
00100000
00000000
00000000
00000000
,
10000000
00000000
00000000
00000000
,
00100000
00000000
00100000
00000000
,
01000000
00000000
00000000
00000000
,
00001000
00000000
00000000
00000000
,
00010000
00000000
00000000
00000000
,
00001000
00000000
00001000
00000000
,
00010000
00000000
00010000
00000000
,
00000100
00000000
00000100
00000000
,
00001000
00000000
00001000
00000000
,
00000001
00000000
00000001
00000000
,
00000100
00000000
00000000
00000000
,
00001000
00000000
00000000
00000000
,
00010000
00000000
00000000
00000000
,
01000000
00000000
01000000
00000000
;

//---------------dance-double - ----------------
#NOTES:
     dance-double:
     :
     Easy:
     3:
     :
00000000
00000000
00000000
00000000
,
00000000
00000000
00000000
00000000
,
00000000
00000000
00000000
00000000
,
00000000
00000000
00000000
00000000
,
00000000
00000000
00000000
00000000
,
01000000
00010000
00000000
00010000
,
00000000
00001000
00000000
00001000
,
00000100
00000100
00000000
00000001
,
00000000
00000001
00000000
00000100
,
00000100
00001000
00000000
00010000
,
00000000
00010000
00000000
01000000
,
01000000
10000000
00000000
10000000
,
00020000
00000000
00000000
00030000
,
10000000
00000000
01000000
00000000
,
00010000
00000000
00010000
00000000
,
00001000
00000000
00000100
00000000
,
00000001
00000000
00000001
00000000
,
00000010
00000000
00001000
00000000
,
00010000
00000000
00010000
00000000
,
00001000
00000000
00000010
00000000
,
00000001
00000000
00000001
00000000
,
00000100
00000000
00001000
00000000
,
00010000
00000000
00010000
00000000
,
01000000
00000000
10000000
00000000
,
00010000
00010000
00010000
00010000
,
00020000
00000000
00000000
00030000
,
00002000
00000000
00000000
00003000
,
00000100
00000001
00001000
00000001
,
00001000
00000001
00000000
00000000
,
00000200
00000000
00000000
00000300
,
00002000
00000000
00000000
00003000
,
00010000
00001000
00010000
01000000
,
00000000
00000000
00000000
00000000
,
10000000
00000000
01000000
00000000
,
00100000
00000000
00100000
00000000
,
00001000
00000000
00010000
00000000
,
00001000
00001000
00001000
00001000
,
00001000
00000000
00000100
00000000
,
00000001
00000000
00000010
00000000
,
00001000
00000000
00010000
00000000
,
01000000
01000000
01000000
01000000
,
02000000
00000000
00000000
03000000
,
00010000
00000000
00001000
00000000
,
00000200
00000000
00000000
00000300
,
00001000
00000000
00010000
00000000
,
01000000
01000000
10000000
00000000
,
10000000
00000000
00010000
00000000
,
00100000
00100000
01000000
00000000
,
00010000
00000000
00001000
00000000
,
00000100
00000000
00000001
00000000
,
00001000
00000000
00000001
00000000
,
00000010
00000000
00001000
00000000
,
00010000
00000000
00100000
01000000
,
02000000
00000000
00000000
03000000
,
00020000
00000000
00000000
00030000
,
00002000
00000000
00000000
00003000
,
00000100
00001000
00010000
00001000
;

//---------------dance-double - ----------------
#NOTES:
     dance-double:
     :
     Medium:
     6:
     :
00000000
00000000
00000000
00000000
,
00000000
00000000
00000000
00000000
,
00000000
00000000
00000000
00000000
,
00000000
00000000
00000000
00000000
,
00000000
00000000
00000000
00000000
,
00010000
10000000
00010000
00010000
,
00100000
00001000
00001000
00000100
,
00000001
00001000
00001000
00000010
,
00000100
00000000
00001000
00000000
00001000
00000000
00000010
00001000
,
00000100
00000001
00000100
00010000
,
00001000
00010000
00010000
00100000
,
01000000
00000000
00010000
00000000
00010000
00000000
10000000
01000000
,
00010000
00000000
00000000
00000000
,
00001000
00000000
00000100
00000010
00000000
00000000
00000100
00000000
,
00000001
00000000
00000100
00001000
00000000
00000000
00010000
00000000
,
01000000
00000000
10000000
00100000
00000000
00000000
01000000
00000000
,
00010000
00000000
00100000
00010000
00000000
00000000
01000000
00000000
,
00001000
00000000
00010000
00001000
00000000
00000000
00000010
00000000
,
00000100
00000000
00001000
00000001
00000000
00000000
00000100
00000000
,
00001000
00000000
00010000
00001000
00000000
00000000
00000100
00000000
,
00000001
00000000
00000010
00001000
00000000
00000000
00000010
00000000
,
00000001
00000000
00000100
00001000
00000000
00000000
00010000
00000000
,
01000000
10000000
01000000
00000000
00010000
00000000
00001000
00000000
,
00000100
00000001
00000100
00000000
00001000
00010000
00001000
00000000
,
00010000
01000000
00010000
00000000
01000000
10000000
01000000
10000000
,
00100000
00000000
01000000
00000000
00100000
01000000
00000000
01000000
,
00000000
00000000
00000000
00000000
00000000
00001000
00010000
00001000
,
00000000
00000200
00000000
00000000
00000000
00000000
00000000
00000000
,
00000000
00000300
00000000
00000000
00000000
00000000
00000000
00000000
,
00000001
00000000
00001000
00000000
00000001
00001000
00000000
00001000
,
00000000
00000000
00000000
00000000
00000000
00010000
00001000
00010000
,
00000000
02000000
00000000
00000000
00000000
00000000
00000000
00000000
,
00000000
03000000
00000000
00000000
00000000
00000000
00000000
00000000
,
10000000
00100000
10000000
00000000
00010000
00100000
00010000
00000000
,
01000000
00001000
00001000
00010000
,
00000100
00000010
00000010
00000001
,
00000010
00000001
00000100
00001000
00010000
01000000
10000000
00000000
,
00010000
01000000
00010000
00000000
00001000
00010000
00001000
00000000
,
00000100
00001000
00001000
00010000
,
01000000
00100000
00100000
00010000
,
00100000
10000000
01000000
00010000
00001000
00000100
00000001
00000000
,
00001000
00000100
00001000
00000000
00000001
00000100
00000001
00000000
,
00001000
00000100
00000100
00000001
,
00001000
00000010
00000010
00000100
,
00010000
00001000
00001000
01000000
,
00100000
10000000
01000000
00000000
00010000
00001000
00010000
00000000
,
01000000
10000000
10000000
00010000
,
00100000
00001000
00001000
00010000
,
00000100
00000000
00000001
00000000
00000010
00000001
00000010
00000001
,
00000010
00000000
00000100
00000000
00010000
00001000
00010000
00001000
,
00010000
00000000
01000000
00000000
10000000
00100000
10000000
00100000
,
10000000
00000000
01000000
00000000
00010000
00001000
00010000
00001000
,
00010000
00000000
00001000
00000000
00000100
00000010
00000100
00000010
,
00000100
00000001
00000010
00001000
,
00010000
00100000
10000000
01000000
,
10000000
00100000
10000000
01000000
,
00010000
00001000
00010000
00001000
00010000
00001000
00010000
00001000
;

//---------------dance-double - ----------------
#NOTES:
     dance-double:
     :
     Hard:
     8:
     :
00000000
00000000
00000000
00000000
,
00000000
00000000
00000000
00000000
,
00000000
00000000
00000000
00000000
,
00000000
00000000
00000000
00000000
,
00000000
00000000
00000000
00000000
,
00010000
00001000
00000100
00000000
00000001
00000100
00001000
00010000
,
01000000
10000000
00100000
00000000
01000000
00100000
01000000
00100000
,
10000000
00010000
01000000
00000000
00001000
00010000
00000100
00000010
,
00000100
00000010
00000001
00000000
00001000
00000010
00000100
00001000
,
00010000
01000000
00100000
00000000
00001000
00010000
01000000
10000000
,
01000000
10000000
00100000
00000000
00010000
00001000
00000100
00000001
,
00000100
00000001
00000010
00000000
00000100
00010000
00001000
00100000
,
02000000
00000000
00000000
03000000
,
10000000
00000000
00000000
00000000
00100000
00000000
00000000
00010000
00000000
00000000
00001000
00000000
00000000
00000000
00000010
00000000
,
00000100
00000000
00000000
00000000
00010000
00000000
00000000
00001000
00000000
00000000
00000100
00000000
00000000
00000000
00000001
00000000
,
00001000
00000000
00000000
00000000
00000010
00000000
00000000
00010000
00000000
00000000
00100000
00000000
00000000
00000000
10000000
00000000
,
00010000
00000000
00000000
00000000
01000000
00000000
00000000
00001000
00000000
00000000
00100000
00000000
00000000
00000000
00010000
00000000
,
10000000
00000000
00000000
00000000
01000000
00000000
00000000
00010000
00000000
00000000
00000100
00000000
00000000
00000000
00001000
00000000
,
00000100
00000000
00000000
00000000
00010000
00000000
00000000
00001000
00000000
00000000
00000100
00000000
00000000
00000000
00000001
00000000
,
00000100
00000000
00000000
00000000
00000010
00000000
00000000
00010000
00000000
00000000
00001000
00000000
00000000
00000000
00100000
00000000
,
01000000
00000000
00000000
00000000
10000000
00000000
00000000
01000000
00000000
00000000
00100000
00000000
00000000
00000000
00001000
00000000
,
00010000
00000000
00000000
00000000
00100000
00000000
00000000
10000000
00000000
00000000
01000000
00000000
00000000
00000000
00010000
00000000
,
00001000
00000000
00000000
00000000
00010000
00000000
00000000
00001000
00000000
00000000
00000100
00000000
00000000
00000000
00000001
00000000
,
00000010
00000000
00000000
00000000
00000100
00000000
00000000
00001000
00000000
00000000
00000010
00000000
00000000
00000000
00010000
00000000
,
01000000
00000000
00000000
00000000
00100000
00000000
00000000
00010000
00000000
00000000
10000000
00000000
11000000
00000000
10010000
00000000
,
01000000
00010000
01000000
00000000
00001000
00010000
00001000
00000000
,
00000100
00000010
00000100
00000000
00000001
00000010
00000011
00001001
,
00000000
00000002
00000000
00000100
00000000
00001000
00000000
00000100
,
00000000
00001003
00000000
00000000
00000000
00000000
00000000
00000000
,
00000010
00001000
00000010
00000000
00010000
00001000
00010000
00000000
,
01000000
00100000
01000000
00000000
10000000
11000000
10010000
00020000
,
00000000
01000000
00000000
00100000
00000000
01030000
00000000
00000000
,
00000000
00000000
00000000
00000000
,
00100000
10000000
01000000
00010000
00001000
00000100
00000001
00000010
,
00000100
00001000
00000001
00000100
00001000
00010000
01000000
10000000
,
01000000
00100000
00010000
00100000
01000000
00010000
00001000
00000100
,
00001000
00000000
01000000
00100000
00000000
00100000
00000000
10000000
,
00010000
01000000
00100000
00010000
00001000
00010000
00001000
00000010
,
00000001
00001000
00000100
00001000
00000010
00000001
00001000
00000100
,
00001000
00010000
01000000
10000000
01000000
00010000
00001000
00010000
,
01000000
00000000
10000000
00010000
00000000
00100000
00000000
00000000
,
00001000
00010000
00000010
00000100
00001000
00010000
01000000
00100000
,
00010000
10000000
00100000
00010000
00001000
00000010
00001000
00010000
,
00001000
00000100
00000001
00000010
00000001
00000100
00001000
00010000
,
00001000
00010000
01000000
10000000
00100000
00010000
00001000
00000010
,
00000001
00000100
00001000
00000100
00000001
00000010
00001000
00010000
,
00100000
10000000
01000000
00010000
01000000
10000000
01000000
00010000
,
00001000
00010000
01000000
00010000
00001000
00000100
00001000
00000100
,
00000001
00000100
00001000
00000100
00000001
00000010
00000001
00000010
,
00000100
00000000
00001000
00000100
00000000
00010000
00001000
00010000
,
01000000
00000000
10000000
00100000
00000000
01000000
00010000
00100000
,
00001000
00000000
00010000
01000000
00000000
00100000
00010000
00001000
,
00000010
00000000
00000001
00001000
00000000
00000100
00000001
00000100
,
00001000
00000000
00000010
00000100
00000000
00000001
00000100
00001000
,
00010000
00000000
01000000
10000000
00000000
01000000
00100000
00010000
,
00010000
00100000
00000000
00100000
00001000
00000000
00001000
00010000
00000000
00000000
00001000
00000000
00000100
00000000
00000001
00000000
,
00000100
00001000
00000000
00001000
00010000
00000000
00010000
00000100
00000000
00000000
00001000
00000000
00000001
00000000
00001001
00000000
;
