#TITLE:Everytime We Touch (Radio Mix);
#ARTIST:Cascada;
#BANNER:Everytime We Touch (Radio Mix).png;
#BACKGROUND:Everytime We Touch (Radio Mix)-bg.png;
#CDTITLE:./CDTITLES/Dance Dance Revolution UNIVERSE.png;
#MUSIC:Everytime We Touch (Radio Mix).ogg;
#SAMPLESTART:29.318;
#SAMPLELENGTH:15;
#BPMS:0=142;
#BGCHANGES:4=Everytime We Touch (Radio Mix).avi=1=1=0=0,232=Everytime We Touch (Radio Mix)-bg.png=1=0=0=1;

//---------------dance-single - ----------------
#NOTES:
     dance-single:
     :
     Beginner:
     1:
     :
0000
0000
0000
0000
,
0000
0000
0000
0000
,
1000
0000
1000
0000
,
1000
0000
1000
0000
,
0001
0000
0001
0000
,
0001
0000
0001
0000
,
0010
0000
0010
0000
,
0010
0000
0010
0000
,
0100
0000
0100
0000
,
0200
0000
0000
0300
,
0000
1000
0000
1000
,
0000
0001
0000
0001
,
0000
1000
0000
1000
,
0000
0010
0000
0010
,
0000
0100
0000
0100
,
0000
0010
0000
0010
,
0000
0100
0000
0100
,
0000
0000
0000
0000
,
0001
0000
0001
0000
,
0001
0000
1000
1000
,
1000
0000
0001
0000
,
0001
0000
1000
1000
,
1000
0000
0000
0100
,
0000
0100
0000
0100
,
0000
0100
0000
0100
,
0100
0000
0000
0000
,
0010
0000
0010
0000
,
0010
0000
0010
0000
,
0100
0000
0100
0000
,
0100
0000
0100
0000
,
1000
0000
1000
0000
,
1000
0000
1000
0000
,
0001
0000
0001
0000
,
1001
0000
0000
0000
,
1000
1000
1000
0000
,
1000
0000
0001
0001
,
0001
0000
0001
0000
,
0100
0000
0100
0100
,
0100
0000
0010
0000
,
0010
0010
0010
0000
,
1000
0000
1000
0000
,
1000
0000
0000
0000
,
0100
0100
0100
0000
,
0010
0010
0010
0000
,
0100
0100
0100
0000
,
1000
0000
1000
0000
,
0001
0001
0001
0000
,
1000
1000
1000
0000
,
0001
0000
0001
0000
,
2000
0000
0000
3000
,
1000
0000
1000
0000
,
1000
0000
1000
0000
,
0010
0000
0010
0000
,
0010
0000
0010
0010
,
0010
0000
0100
0000
,
0100
0000
0100
0000
,
0001
0001
0001
0001
,
0001
0000
1000
0000
,
1001
0000
0000
0000
;

//---------------dance-single - ----------------
#NOTES:
     dance-single:
     :
     Easy:
     3:
     :
0000
0000
0000
0000
,
0000
0000
0000
0000
,
2000
0000
0000
3000
,
0002
0000
0000
0003
,
0200
0000
0000
0300
,
0020
0000
0000
0030
,
2000
0000
0000
3000
,
0002
0000
0000
0003
,
0020
0000
0000
0000
,
0000
0000
0030
0000
,
0001
1000
0001
0000
,
1000
0001
1000
0000
,
0010
0100
0010
0000
,
0100
0010
0100
0000
,
0001
0010
0001
0000
,
1000
0010
1000
0001
,
0100
0200
0000
0000
,
0000
0300
0000
0000
,
0001
1000
0001
1000
,
1000
0000
0010
0100
,
0010
0010
0100
0000
,
0100
0000
0001
0001
,
1000
0001
1000
0001
,
0010
0100
0010
0100
,
0110
0000
1000
1000
,
1000
0000
0000
0000
,
0002
0003
2000
3000
,
0002
0003
2000
3000
,
0020
0030
0200
0300
,
0020
0030
0010
1000
,
0002
0003
0200
0300
,
0002
0003
2000
3000
,
0100
0010
0001
1000
,
2002
0000
0000
3003
,
1000
1000
0001
1000
,
0002
0003
0100
0010
,
0100
0010
2000
0000
,
3000
0000
0001
0100
,
0002
0003
0020
0030
,
0100
1000
0200
0300
,
0020
0030
0001
0001
,
2000
0000
0000
3000
,
0001
0100
1000
0100
,
0002
0003
0010
0001
,
0200
0300
0020
0030
,
0200
0300
0010
1000
,
0200
0300
0020
0030
,
0001
0100
0002
0003
,
2000
3000
0002
0003
,
2000
0000
0000
3000
,
0001
0000
0001
0000
,
1000
0000
1000
0000
,
0001
0000
0001
0000
,
0001
0000
1000
0001
,
0100
0000
0010
0000
,
0010
0000
0100
0000
,
0001
1000
0001
1000
,
2002
0000
0000
3003
,
1001
0000
0000
0000
;

//---------------dance-single - ----------------
#NOTES:
     dance-single:
     :
     Medium:
     5:
     :
0000
0000
0000
0000
,
0000
0000
0000
0000
,
0200
0000
1300
0000
,
0100
1000
0100
0000
,
0020
0000
0031
0000
,
0010
0001
0010
0000
,
0002
0000
1003
0000
,
0001
1000
0001
0000
,
0010
0000
0100
0000
,
1001
0000
0000
0000
,
0010
1000
0010
1000
,
0001
0100
0001
0100
,
0010
0100
0010
0100
,
1002
0000
0000
0003
,
0010
0001
0010
0001
,
1000
0100
1000
0100
,
1100
1000
1010
0010
,
0110
0000
0000
0000
,
1000
0100
0001
0100
,
0010
0000
0010
0000
0100
0010
0100
0010
,
0100
1000
0010
0001
,
0010
0000
0100
0000
0010
0100
0010
0100
,
0010
1000
0100
0001
,
1000
1100
0001
0101
,
1000
1010
0001
0011
,
1001
0000
0000
0000
,
0010
1000
0100
0010
,
0001
0100
0010
1000
,
0001
0100
0001
0010
,
0100
1000
0001
1000
,
0001
0010
0100
1000
,
0001
0010
0100
1000
,
0010
0100
0001
0010
,
0000
0000
0000
2002
0000
0000
0000
3003
,
0100
0000
0001
0000
1000
0000
0010
0020
,
0000
0130
0000
0010
0001
0100
0001
0100
,
0020
0000
1030
2000
0000
3100
0010
0200
,
0000
0000
0300
0010
0100
1000
0100
1000
,
0001
0011
1000
1010
,
0010
1000
0010
1000
0100
0000
0010
0001
,
0010
0000
0001
0000
0100
0000
0010
1000
,
0010
0000
0000
2002
0000
0000
0000
3003
,
0010
0000
1000
0000
0001
0000
0100
0200
,
0000
0310
0000
0100
1000
0010
1000
0010
,
0200
0000
0301
0002
0000
0013
0100
0020
,
0000
0000
0030
0100
0010
0001
0010
0001
,
1000
1100
0001
0101
,
0100
0001
0100
0001
0010
0000
0100
1000
,
0100
0000
1000
0000
0010
0000
0100
0001
,
0100
0000
0000
2002
0000
0000
0000
3003
,
1000
0000
0000
0001
0100
0000
1000
0100
,
0000
0001
0000
1000
0001
1000
0001
0010
,
0100
0000
1000
0010
0000
0001
0010
0002
,
0000
0000
0003
0000
1000
0010
1000
0010
,
1000
0000
0001
0000
0001
0000
0000
1000
,
0100
1000
0100
1000
0000
0000
0000
0000
,
0010
0001
1000
0100
,
0010
0001
1000
0100
0010
0001
1000
0000
,
1001
0000
0000
0000
;

//---------------dance-single - ----------------
#NOTES:
     dance-single:
     :
     Hard:
     7:
     :
0000
0000
0000
0000
,
0000
0000
0000
0000
,
0100
0000
0001
0000
,
0020
0001
0031
0000
,
0100
0000
1000
0000
,
0020
1000
1030
0000
,
0100
0000
0010
0000
,
2000
0001
3001
0000
,
0100
0000
0010
0000
,
0002
1000
1003
0000
,
1000
1010
0100
1100
,
0010
0011
0100
0101
,
0010
1010
0001
0101
,
0001
0100
0010
0100
0001
0100
0010
1000
,
0100
1100
0010
0011
,
0100
0110
1000
1010
,
0001
0100
0010
0000
0010
1000
0100
0000
,
0110
0000
0000
0100
1000
0010
0100
0001
,
0010
0000
0000
0010
0001
0000
0001
0100
,
0000
0110
0000
1000
0100
0010
0100
1000
,
1100
0000
0001
0100
0000
0010
1000
0100
,
0010
0001
0010
0001
1000
0010
1000
0010
,
0100
0101
0010
0101
,
0010
0000
1100
0000
0100
1000
0100
0000
,
0010
0001
0010
0000
0001
0010
0100
0010
,
0001
0000
1001
0001
0100
1000
0100
0001
,
0020
0100
0031
0200
,
1000
0000
0310
0000
0001
0100
0010
1000
,
0002
1000
0103
2000
,
0001
0000
3010
0000
0100
0010
1000
0100
,
0020
0031
0200
1300
,
0002
0000
0013
0000
2000
0000
3100
0010
,
0001
0100
0001
0010
0100
1000
0100
1000
,
0010
0000
0100
0000
0001
0000
1000
0100
1000
0000
0010
0000
0100
0000
0001
0000
,
2000
0000
3020
0000
2030
0000
3001
0100
,
0000
1010
0000
0100
0001
0010
0100
1000
,
0200
0300
0100
1000
0000
0010
0001
0200
,
0000
0000
0300
0000
0101
0000
0001
0100
0001
0000
0100
0000
1000
0000
0100
0000
,
0002
0023
0032
0023
,
0130
0000
1000
0000
0100
0000
0010
0000
0001
0000
0000
0000
0100
0000
0000
0100
,
0020
0000
1000
0000
0031
0000
1000
0010
,
2000
0000
0000
0000
0000
0000
3100
1000
0100
0000
0010
0000
0100
0000
1000
0000
,
1100
0000
0101
0000
1010
0000
0011
0002
,
0000
1003
0000
1000
0100
1000
0001
1000
,
0200
0000
0310
0002
0000
0013
0100
1000
,
0000
0000
0000
0000
1010
0000
0010
1000
0010
0000
0100
0000
0001
0000
0100
0000
,
0010
0110
0101
1010
,
1000
0000
0100
0000
1000
0000
0100
0000
0010
0000
0000
0000
0001
0000
0000
0010
,
0200
0000
1000
0000
0301
0000
1000
0010
,
0100
0000
0000
0010
1000
0100
1000
0010
,
1000
1000
1000
0000
0001
0100
0010
0100
,
0001
0001
0001
0000
1000
0010
0100
0010
,
1000
1000
1000
0000
0001
0010
0100
0010
,
0001
0001
0001
0000
1000
0010
0100
0001
,
0010
0100
0010
0000
0010
1000
0100
0000
,
0001
0100
0010
1000
0100
0100
2000
0000
,
3020
0032
0023
2030
,
3010
1000
0100
0010
0001
0100
0010
1000
,
0001
0000
0000
0000
;

//---------------dance-double - ----------------
#NOTES:
     dance-double:
     :
     Beginner:
     1:
     :
00000000
00000000
00000000
00000000
,
00000000
00000000
00000000
00000000
,
00010000
00000000
00010000
00000000
,
00010000
00000000
00010000
00000000
,
10000000
00000000
10000000
00000000
,
10000000
00000000
10000000
00000000
,
01000000
00000000
01000000
00000000
,
01000000
00000000
01000000
00000000
,
00010000
00000000
00010000
00000000
,
00020000
00000000
00000000
00030000
,
00000000
00001000
00000000
00001000
,
00000000
00010000
00000000
00010000
,
00000000
00000100
00000000
00000100
,
00000000
00001000
00000000
00001000
,
00000000
00000001
00000000
00000001
,
00000000
00000100
00000000
00000100
,
00000000
00001000
00000000
00001000
,
00000000
00000000
00000000
00000000
,
00010000
00000000
00010000
00000000
,
00010000
00000000
00001000
00001000
,
00001000
00000000
01000000
00000000
,
01000000
00000000
00010000
00010000
,
00010000
00000000
00000000
10000000
,
00000000
10000000
00000000
10000000
,
00000000
10000000
00000000
10000000
,
10000000
00000000
00000000
00000000
,
00010000
00000000
00010000
00000000
,
00010000
00000000
00010000
00000000
,
00100000
00000000
00100000
00000000
,
00100000
00000000
00100000
00000000
,
01000000
00000000
01000000
00000000
,
01000000
00000000
01000000
00000000
,
00010000
00000000
00010000
00000000
,
00011000
00000000
00000000
00000000
,
00000010
00000010
00000010
00000000
,
00000010
00000000
00001000
00001000
,
00001000
00000000
00001000
00000000
,
00000001
00000000
00000001
00000001
,
00000001
00000000
00001000
00000000
,
00001000
00001000
00001000
00000000
,
00000100
00000000
00000100
00000000
,
00000100
00000000
00000000
00000000
,
00010000
00010000
00010000
00000000
,
00001000
00001000
00001000
00000000
,
00100000
00100000
00100000
00000000
,
00010000
00000000
00010000
00000000
,
10000000
10000000
10000000
00000000
,
00010000
00010000
00010000
00000000
,
00100000
00000000
00100000
00000000
,
02000000
00000000
00000000
03000000
,
01000000
00000000
01000000
00000000
,
01000000
00000000
01000000
00000000
,
00010000
00000000
00010000
00000000
,
00010000
00000000
00001000
00001000
,
00001000
00000000
00000100
00000000
,
00000100
00000000
00000100
00000000
,
00000001
00000001
00000001
00000001
,
00000001
00000000
00001000
00000000
,
00001001
00000000
00000000
00000000
;

//---------------dance-double - ----------------
#NOTES:
     dance-double:
     :
     Easy:
     3:
     :
00000000
00000000
00000000
00000000
,
00000000
00000000
00000000
00000000
,
00000002
00000000
00000000
00000003
,
00000200
00000000
00000000
00000300
,
00002000
00000000
00000000
00003000
,
00020000
00000000
00000000
00030000
,
00002000
00000000
00000000
00003000
,
00020000
00000000
00000000
00030000
,
02000000
00000000
00000000
00000000
,
00000000
00000000
03000000
00000000
,
10000000
01000000
10000000
00000000
,
00010000
00001000
00010000
00000000
,
00001000
00010000
00001000
00000000
,
00000001
00000100
00000001
00000000
,
00000001
00000001
00000100
00000100
,
00001000
00001000
00010000
00100000
,
00100000
02000000
00000000
00000000
,
00000000
03000000
00000000
00000000
,
01000000
10000000
00010000
00001000
,
00000010
00000000
00001000
00000001
,
00001000
00010000
00100000
00000000
,
00100000
00000000
00010000
00010000
,
10000000
01000000
00010000
00001000
,
00010000
00001000
00000100
00000001
,
00001001
00000000
00001000
00001000
,
00001000
00000000
00000000
00000000
,
00020000
00030000
00002000
00003000
,
00020000
00030000
00002000
00003000
,
00200000
00300000
00020000
00030000
,
20000000
30000000
01000000
00010000
,
00002000
00003000
00020000
00030000
,
00002000
00003000
00000200
00000300
,
00000001
00000001
00001000
00001000
,
00002002
00000000
00000000
00003003
,
00001000
00000100
00000100
00010000
,
00002000
00003000
01000000
00010000
,
00010000
10000000
00200000
00000000
,
00300000
00000000
10000000
00010000
,
00002000
00003000
00000020
00000030
,
00000001
00000001
00002000
00003000
,
00000200
00000300
00010000
00010000
,
00002000
00000000
00003000
00000000
,
00100000
00010000
10000000
01000000
,
00020000
00030000
00001000
00010000
,
00000020
00000030
00000200
00000300
,
00000020
00000030
00001000
00001000
,
00000002
00000003
00002000
00003000
,
00010000
00001000
00020000
00030000
,
00002000
00003000
00200000
00300000
,
00020000
00000000
00000000
00030000
,
10000000
00000000
10000000
00000000
,
00010000
00000000
00010000
00000000
,
00001000
00000000
00001000
00000000
,
00000001
00000000
00000001
00000100
,
00001000
00000000
00010000
00000000
,
00010000
00000000
01000000
00000000
,
10000000
01000000
00010000
00001000
,
00022000
00000000
00000000
00033000
,
00011000
00000000
00000000
00000000
;

//---------------dance-double - ----------------
#NOTES:
     dance-double:
     :
     Medium:
     5:
     :
00000000
00000000
00000000
00000000
,
00000000
00000000
00000000
00000000
,
00020000
00000000
10030000
00000000
,
01000000
00010000
00001000
00000000
,
00000020
00000000
00000130
00000000
,
00001000
00000001
00000100
00000000
,
00000020
00000000
00001030
00000000
,
00000001
00000100
00001000
00000000
,
00010000
00000000
01000000
00000000
,
01100000
00000000
00000000
00000000
,
00010000
01000000
00010000
01000000
,
00001000
00010000
00001000
00010000
,
00000100
00000010
00000100
00000010
,
00001002
00000000
00000000
00000000
00000000
00000003
00000000
00000000
,
00001000
00000010
00001000
00000010
,
00010000
00001000
00010000
00001000
,
00100000
01000000
00100000
01000000
,
01100000
00000000
00000000
00000000
,
00010000
10000000
00100000
00010000
,
00001000
00000000
00000100
00000000
00000010
00000100
00000010
00000100
,
00000010
00001000
00000001
00000100
,
00001000
00000000
00010000
00000000
00001000
00010000
00001000
00010000
,
00001000
00100000
01000000
00010000
,
10000000
10100000
00010000
00110000
,
10000000
11000000
00010000
01010000
,
01010000
00000000
00000000
00000000
,
00010000
00001000
00000100
00000001
,
00000010
00000001
00001000
00000100
,
00010000
00001000
01000000
00100000
,
10000000
01000000
00010000
00001000
,
00000100
00000001
00001000
00000001
,
00000010
00000100
00010000
00001000
,
00100000
00010000
10000000
01000000
,
00100000
00000000
00000000
20020000
00000000
00000000
00000000
30030000
,
00010000
00000000
10000000
00000000
00010000
00000000
00001000
00020000
,
00000000
00031000
00000000
00010000
00001000
00000100
00000001
00000010
,
00000002
00000000
00001003
00002000
00000000
00003100
00000001
00000200
,
00000000
00000000
00000300
00001000
00010000
00001000
00010000
00001000
,
00100000
00110000
10000000
10100000
,
00100000
10000000
00100000
10000000
01000000
00000000
00010000
00001000
,
00010000
00000000
00000010
00000000
00001000
00000000
00000001
00000100
,
00000001
00000000
00000000
00002002
00000000
00000000
00000000
00003003
,
00000010
00000000
00000001
00000000
00001000
00000000
00010000
00002000
,
00000000
00013000
00000000
00001000
00010000
01000000
10000000
00100000
,
20000000
00000000
30010000
00020000
00000000
01030000
10000000
02000000
,
00000000
00000000
03000000
00010000
00001000
00010000
00001000
00010000
,
00000010
00000011
00001000
00001010
,
00000010
00000001
00000010
00000001
00000100
00000000
00001000
00010000
,
00001000
00000000
00100000
00000000
00010000
00000000
10000000
01000000
,
10000000
00000000
00000000
20020000
00000000
00000000
00000000
30030000
,
00100000
00000000
00000000
00010000
01000000
00000000
00001000
00010000
,
00000000
00001000
00000000
00000010
00000100
00000010
00000100
00000001
,
00001000
00000000
00000001
00000010
00000000
00001000
00000010
00002000
,
00000000
00000000
00003000
00000000
00010000
00001000
00010000
00001000
,
00010000
00000000
01000000
00000000
01000000
00000000
00000000
00010000
,
10000000
00010000
10000000
00010000
00000000
00000000
00000000
00000000
,
00100000
10000000
01000000
00010000
,
00001000
00000100
00000001
00000010
00000100
00001000
00000001
00000000
,
00001001
00000000
00000000
00000000
;

//---------------dance-double - ----------------
#NOTES:
     dance-double:
     :
     Hard:
     7:
     :
00000000
00000000
00000000
00000000
,
00000000
00000000
00000000
00000000
,
10000000
00000000
00010000
00000000
,
00002000
00000010
00003010
00000000
,
00000001
00000000
00001000
00000000
,
00020000
00100000
00130000
00000000
,
01000000
00000000
00100000
00000000
,
20000000
01000000
31000000
00000000
,
00010000
00000000
00001000
00000000
,
00000020
00000001
00000031
00000000
,
00000020
00001030
00200000
00310000
,
00000020
00001030
00200000
00310000
,
00002000
00003100
00020000
01030000
,
10000000
01000000
10000000
01000000
00010000
00001000
00010000
00001000
,
00000100
00000101
00001000
00001100
,
00010000
00011000
00100000
00110000
,
10000000
01000000
00100000
00000000
01000000
00010000
00001000
00000000
,
00011000
00000000
00000000
00000100
00000001
00000010
00000100
00001000
,
00000001
00000000
00000000
00000010
00001000
00000000
00010000
01000000
,
00000000
11000000
00000000
10000000
01000000
00010000
00001000
00100000
,
00110000
00000000
00001000
00100000
00000000
00001000
00010000
00000010
,
00000100
00000001
00000100
00000001
00001000
00000100
00001000
00000100
,
00010000
00011000
00000010
00001010
,
00010000
00000000
00011000
00000000
00100000
00010000
00100000
00000000
,
01000000
10000000
01000000
00000000
00010000
01000000
10000000
00100000
,
01000000
00000000
00010000
10000000
01000000
00010000
00001000
00000100
,
00000020
00001000
00000031
00000200
,
00000010
00000000
00001300
00000000
00001000
00010000
00100000
10000000
,
00020000
10000000
01030000
20000000
,
00100000
00000000
31000000
00000000
00100000
10000000
01000000
00010000
,
00002000
00103000
00020000
00030010
,
00002000
00000000
01003000
00000000
00020000
00000000
00030100
00010000
,
00001000
00000100
00000010
00001000
00000100
00001000
00000100
00000010
,
00000001
00000000
00000100
00000000
00001000
00000000
00010000
00001000
00010000
00000000
00001000
00000000
01000000
00000000
00100000
00000000
,
20000000
00000000
30200000
00000000
00320000
00000000
00130000
10000000
,
00000000
01000000
00000000
01000000
10000000
01000000
00010000
00001000
,
00020000
00030000
00000010
00001000
00000000
00000001
00000100
00000020
,
00000000
00000000
00000030
00000000
00000000
00000000
00000100
00000010
00000100
00000000
00001000
00000000
00010000
00000000
00001000
00000000
,
00000020
00002030
00023000
00230000
,
10300000
00000000
00100000
00000000
10000000
00000000
00010000
00000000
01000000
00000000
00000000
00000000
00001000
00000000
00000000
00010000
,
00002000
00000000
00010000
00000000
00003010
00000000
00000001
00000100
,
00002000
00000000
00000000
00000000
00003000
00000000
00001000
00010000
00001000
00000000
00010000
00000000
00000100
00000000
00000010
00000000
,
00000011
00000000
00001100
00000000
00010100
00000000
00011000
00020000
,
00000000
00031000
00000000
00010000
01000000
10000000
00100000
10000000
,
02000000
00000000
03100000
00020000
00000000
10030000
01000000
00010000
,
00000000
00000000
00000000
00000000
00011000
00000000
00001000
00010000
00001000
00000000
01000000
00000000
00010000
00000000
01000000
00000000
,
00010000
10100000
01010000
01001000
,
00010000
00000000
00001000
00000000
00010000
00000000
00001000
00000000
00000010
00000000
00000000
00000000
00000001
00000000
00000000
00000010
,
00000200
00000000
00001000
00000000
00000301
00000000
00000001
00000100
,
00001000
00000000
00000000
00000010
00000100
00000010
00000001
00000100
,
00001000
00010000
00100000
00000000
10000000
01000000
10000000
01000000
,
00010000
00001000
00000010
00000000
00000001
00000010
00000100
00000010
,
00001000
00010000
01000000
00000000
10000000
00100000
01000000
00100000
,
00010000
00001000
00000100
00000000
00000001
00000010
00000100
00001000
,
00000001
00000100
00001000
00000000
00010000
01000000
10000000
00000000
,
00100000
00010000
00100000
10000000
01000000
00010000
00001000
00000000
,
00000020
00000032
00000203
00002300
,
00013000
00100000
10000000
01000000
00010000
00001000
00000100
00000001
,
00000010
00000000
00000000
00000000
;
