#TITLE:Don't Play Nice;
#ARTIST:Verbalicious;
#BANNER:Don't Play Nice.png;
#BACKGROUND:Don't Play Nice-bg.png;
#CDTITLE:./CDTITLES/Dance Dance Revolution UNIVERSE.png;
#MUSIC:Don't Play Nice.ogg;
#SAMPLESTART:41.115;
#SAMPLELENGTH:15;
#BPMS:0=105;

//---------------dance-single - ----------------
#NOTES:
     dance-single:
     :
     Beginner:
     1:
     :
0000
0000
0000
0000
,
0000
0000
0000
0000
,
0000
0000
0000
0000
,
0000
0000
0000
0000
,
1000
0000
1000
0000
,
0001
0000
0001
0001
,
0001
0000
0010
0000
,
0010
0000
0100
0000
,
1000
0000
0010
0000
,
0010
0000
0100
0000
,
0001
0000
0000
0000
,
1000
0000
0000
0000
,
0001
0000
1000
0000
,
0001
0000
1000
0000
,
0001
0000
0010
0000
,
0100
0000
0100
0000
,
1000
0000
0001
0000
,
0100
0000
0100
0100
,
0100
0000
0010
0000
,
1000
0000
0100
0000
,
0001
0000
0100
0000
,
1000
0000
0000
0000
,
0001
0000
0001
0000
,
1000
0000
1000
0000
,
0010
0000
0010
0000
,
0100
0000
0000
0000
,
0010
0000
0000
0000
,
1000
0000
0000
0001
,
0001
0000
0000
0000
,
0010
0000
0000
0100
,
0100
0000
0000
0000
,
1000
0000
0000
0001
,
0001
0000
1000
0000
,
0001
0000
0000
0000
,
0001
0000
0010
0000
,
0100
0000
0100
0000
,
1000
0000
0001
0000
,
0100
0000
0100
0100
,
0100
0000
0010
0000
,
1000
0000
0100
0000
,
0001
0000
0100
0000
,
1000
0000
0000
0000
,
0001
0000
0001
0000
,
1000
0000
1000
0000
,
0010
0000
0010
0000
,
0100
0000
0000
0000
,
1001
0000
0000
0000
;

//---------------dance-single - ----------------
#NOTES:
     dance-single:
     :
     Easy:
     3:
     :
0000
0000
0000
0000
,
0000
0000
0000
0000
,
0000
0000
0000
0000
,
0000
0000
0000
0000
,
1000
0000
1000
0000
,
0001
0000
0001
1000
,
1001
0000
0010
0000
,
0100
0000
0010
0000
,
1001
0000
0100
0000
,
0010
0000
0100
0000
,
0110
0000
0001
0000
,
1000
0000
0001
0000
,
0110
0000
1000
0000
,
0001
0000
1000
0000
,
0001
0001
0100
0000
,
1000
1000
0100
0000
,
0001
0001
0010
0000
,
0001
1000
0001
1000
,
1001
0000
0100
0000
,
0001
0000
0010
0000
,
0100
0010
0100
0010
,
0001
1000
1001
1001
,
1000
0000
0100
0000
,
1000
0000
0010
0000
,
0100
0010
0100
0010
,
1000
0001
1001
1001
,
0200
0000
0000
0300
0010
0000
0000
0000
,
0001
0100
0001
1001
,
0000
1000
0000
0001
,
0000
0100
0010
0110
,
0000
1000
0000
0001
,
0000
0010
0100
0010
,
0110
0000
1001
0000
,
1000
0001
1000
0001
,
0001
0001
0100
0000
,
1000
1000
0100
0000
,
0001
0001
0010
0000
,
0001
1000
0001
1000
,
1001
0000
0100
0000
,
0001
0000
0010
0000
,
0100
0010
0100
0010
,
0001
1000
1001
1001
,
1000
0000
0100
0000
,
1000
0000
0010
0000
,
0100
0010
0100
0010
,
1000
0001
1001
1001
,
0100
0000
0000
0000
;

//---------------dance-single - ----------------
#NOTES:
     dance-single:
     :
     Medium:
     5:
     :
0000
0000
0000
0000
,
0000
0000
0000
0000
,
0000
0000
0000
0000
,
0000
0000
0000
0000
,
0001
0100
0010
0100
0001
0000
1001
0000
,
1000
0100
0010
0100
1000
0000
1001
0000
,
0101
0110
1010
1001
,
0011
0110
1100
1001
,
0010
1000
0100
0000
1000
0001
1000
0000
,
0100
0010
0100
0000
0010
0001
0100
0000
,
1001
0110
1010
1100
,
0011
0101
1010
1001
,
0010
0100
0010
0000
1000
0001
0100
0000
,
0010
1000
0100
0010
0001
0000
1001
0000
,
0010
0000
1000
0000
0100
0010
0100
0000
,
0010
0001
0100
1000
,
0010
0100
0010
0000
1000
0001
1000
0000
,
0100
0010
0001
0100
0010
0000
1001
0000
,
0100
0000
0010
0000
0001
0100
0001
0000
,
1000
0000
0100
0000
0010
0001
0100
0000
,
0010
0000
0100
0001
1000
0000
0100
1000
,
0001
0000
0110
0000
2000
3002
2003
3000
,
0100
0000
0001
0000
0100
0001
0100
0000
,
0010
0000
1000
0000
0001
0100
0010
0000
,
1000
0000
0001
1000
0010
0000
1000
0001
,
0010
0000
0110
0000
0002
2003
3002
0003
,
0110
1001
0001
1100
,
1000
0101
0001
0110
,
1001
0110
1000
0011
,
0001
1010
0100
0110
,
1001
0110
0001
0101
,
1000
1100
0001
0220
,
0000
0330
2002
0000
0000
3003
0010
0000
,
0002
2003
3100
1001
,
0100
0000
0001
0000
0010
0100
0010
0000
,
0100
1000
0010
0001
,
0100
0010
0100
0000
0001
1000
0001
0000
,
0010
0100
1000
0010
0100
0000
1001
0000
,
0010
0000
0100
0000
1000
0010
1000
0000
,
0001
0000
0010
0000
0100
1000
0010
0000
,
0100
0000
0010
1000
0001
0000
0010
0001
,
1000
0000
0110
0000
0002
2003
3002
0003
,
0010
0000
1000
0000
0010
1000
0010
0000
,
0100
0000
0001
0000
1000
0010
0100
0000
,
0001
0000
1000
0001
0100
0000
0001
1000
,
0100
0000
0110
0000
2000
3002
2003
3000
,
1001
0000
0000
0000
;

//---------------dance-single - ----------------
#NOTES:
     dance-single:
     :
     Hard:
     9:
     :
0000
0000
0000
0000
,
0000
0000
0000
0000
,
0000
0000
0000
0000
,
0000
0000
0000
0000
,
1000
0000
0010
0000
1000
0100
0000
0000
1100
0000
0000
0000
1010
0000
0000
0000
,
0001
0000
0100
0000
0000
0001
0010
0000
0101
0000
0000
0000
0012
0000
0103
0000
,
1001
0010
1000
0100
0010
0100
1001
0000
,
0110
0001
0010
0100
1000
0010
1002
0103
,
2001
3100
1000
0010
0100
0010
1001
0000
,
0110
1000
0010
0100
0001
0010
2001
3100
,
1002
0103
0010
1000
1010
0000
0101
0000
,
0010
0001
1000
0001
0010
0100
1200
0310
,
0201
0310
0001
0100
0101
0000
1010
0000
,
0001
0000
1000
0000
0100
1000
0010
0000
1010
0000
1001
0000
1100
0000
0010
0000
,
1001
0000
0110
0001
1000
0010
0100
0001
,
1000
0000
0001
1000
0001
0000
0010
0000
0100
0000
0010
0100
0010
0000
0100
0000
,
1001
0000
0000
0000
0110
0000
0000
0000
0100
0000
1000
0010
1000
0000
0001
0000
,
0100
0001
0010
0100
1000
0010
2002
3003
,
1001
0001
1000
0001
0010
0100
1001
0000
,
1001
0100
0010
0001
1000
0001
2002
3003
,
0110
0000
0001
0000
0100
0000
0001
0010
0002
0000
0023
0000
0130
0000
1000
0010
,
2000
0000
3020
0000
0030
0000
0100
0001
0010
0000
1100
0000
0202
0000
0303
0000
,
1001
0000
1000
0000
0001
0000
1000
0100
0020
0000
2030
0000
3010
0000
0001
0100
,
0020
0032
0013
1000
0001
1000
2002
3003
,
0110
0000
1000
0000
0100
0000
1000
0010
2000
0000
3020
0000
0130
0000
0001
0010
,
0002
0000
0023
0000
0030
0000
0100
1000
0010
0000
0101
0000
2200
0000
3300
0000
,
0110
0000
1001
0000
0120
1030
1002
0013
,
0110
0000
0100
0000
0010
0100
0010
0000
0001
0000
1000
0000
0220
0000
0330
0000
,
1001
0000
0110
0000
1002
0013
0210
1300
,
1001
0000
0100
0000
1000
0010
1000
0000
0001
0000
0010
0000
2002
0000
3003
0000
,
0110
0000
1001
0000
1002
0103
1200
0301
,
2001
3100
0201
1300
1001
0110
1001
2000
,
0000
3000
1001
0002
0000
0003
1001
0100
,
0020
0030
0110
0010
0001
1000
1001
0000
,
1001
0000
0000
0000
0110
0000
0001
0000
1000
0000
0010
0000
0100
0000
0001
0010
,
0001
0000
1000
0010
1000
0000
0100
0000
0010
0000
0001
1000
0001
0000
0100
0000
,
1001
0000
0000
0000
0110
0000
0000
0000
1000
0000
0001
0010
0000
0000
1000
0000
,
0010
0001
0100
1000
0100
0010
2002
3003
,
1001
1000
0001
1000
0100
0010
1001
0000
,
1001
0010
0100
1000
0001
1000
2002
3003
,
0110
0000
1000
0000
0010
0000
1000
0100
2000
0000
3200
0000
0310
0000
0001
0100
,
0002
0000
0203
0000
0300
0000
0010
1000
0100
0000
0101
0000
2200
0000
3300
0000
,
1001
0000
0001
0000
1000
0000
0001
0010
0200
0000
0302
0000
0103
0000
1000
0010
,
0200
2300
3100
0001
1000
0001
2002
3003
,
0110
0000
0001
0000
0010
0000
0001
0100
0002
0000
0203
0000
0310
0000
1000
0100
,
2000
0000
3200
0000
0300
0000
0010
0001
0100
0000
1100
0000
0202
0000
0303
0000
,
2002
0000
0000
3003
0100
0000
0000
0000
;

//---------------dance-double - ----------------
#NOTES:
     dance-double:
     :
     Beginner:
     1:
     :
00000000
00000000
00000000
00000000
,
00000000
00000000
00000000
00000000
,
00000000
00000000
00000000
00000000
,
00000000
00000000
00000000
00000000
,
00000010
00000000
00000010
00000000
,
00001000
00000000
00000100
00000100
,
00000100
00000000
00010000
00000000
,
00010000
00000000
01000000
00000000
,
10000000
00000000
00010000
00000000
,
00010000
00000000
00100000
00000000
,
00001000
00000000
00000000
00000000
,
00010000
00000000
00000000
00000000
,
00001000
00000000
00010000
00000000
,
00001000
00000000
00000100
00000000
,
00000001
00000000
00001000
00000000
,
00000001
00000000
00000001
00000000
,
00000010
00000000
00001000
00000000
,
00010000
00000000
00001000
00001000
,
00001000
00000000
00010000
00000000
,
00001000
00000000
00100000
00000000
,
00010000
00000000
01000000
00000000
,
10000000
00000000
00000000
00000000
,
00010000
00000000
00010000
00000000
,
01000000
00000000
01000000
00000000
,
00100000
00000000
00100000
00000000
,
00010000
00000000
00000000
00000000
,
00001000
00000000
00000000
00000000
,
00010000
00000000
00000000
00001000
,
00001000
00000000
00000000
00000000
,
00000100
00000000
00000000
00000001
,
00000001
00000000
00000000
00000000
,
00001000
00000000
00000000
00000010
,
00000010
00000000
00010000
00000000
,
00001000
00000000
00000000
00000000
,
00010000
00000000
00001000
00000000
,
00100000
00000000
00100000
00000000
,
00010000
00000000
10000000
00000000
,
01000000
00000000
00010000
00010000
,
00010000
00000000
00001000
00000000
,
00010000
00000000
00001000
00000000
,
00000100
00000000
00000001
00000000
,
00000010
00000000
00000000
00000000
,
00000100
00000000
00000100
00000000
,
00000010
00000000
00000010
00000000
,
00001000
00000000
00001000
00000000
,
00010000
00000000
00000000
00000000
,
00011000
00000000
00000000
00000000
;

//---------------dance-double - ----------------
#NOTES:
     dance-double:
     :
     Easy:
     3:
     :
00000000
00000000
00000000
00000000
,
00000000
00000000
00000000
00000000
,
00000000
00000000
00000000
00000000
,
00000000
00000000
00000000
00000000
,
00000001
00000000
00001000
00000000
,
00010000
00000000
10000000
00010000
,
10010000
00000000
01000000
00000000
,
00010000
00000000
00000100
00000000
,
00001001
00000000
00000010
00000000
,
00001000
00000000
00100000
00000000
,
01100000
00000000
10000000
00000000
,
01000000
00000000
00010000
00000000
,
00011000
00000000
00001000
00000000
,
00000100
00000000
00000001
00000000
,
00001000
00001000
00000010
00000000
,
00010000
00001000
00010000
00000000
,
10000000
10000000
01000000
00000000
,
00010000
00001000
00010000
00001000
,
00011000
00000000
00000010
00000000
,
00000001
00000000
00000010
00000000
,
00001000
00001000
00010000
00010000
,
01000000
00000000
10010000
10010000
,
00000000
01000000
00000000
00001000
,
00000000
00010000
00000000
00000100
,
00000010
00000010
00000001
00000001
,
00001000
00001000
00001001
00000000
,
00022000
00033000
00000010
00000000
,
00010000
00001000
00010000
00011000
,
00000000
01000000
00000000
10000000
,
00000000
01000000
00100000
01100000
,
00000000
00001000
00000000
00010000
,
00000000
00001000
00000010
00000100
,
00000110
00000000
00001001
00000000
,
00000001
00001000
00000001
00001000
,
00001000
00001000
00000100
00000000
,
00010000
00001000
00010000
00000000
,
10000000
10000000
00100000
00000000
,
00010000
00001000
00010000
00001000
,
00011000
00000000
00000100
00000000
,
00000001
00000000
00000100
00000000
,
00001000
00001000
00010000
00010000
,
00100000
00000000
10010000
10010000
,
00000000
00100000
00000000
00001000
,
00000000
00010000
00000000
00000010
,
00000100
00000100
00000001
00000001
,
00001000
00000000
00001001
00001001
,
00000010
00000000
00000000
00000000
;

//---------------dance-double - ----------------
#NOTES:
     dance-double:
     :
     Medium:
     5:
     :
00000000
00000000
00000000
00000000
,
00000000
00000000
00000000
00000000
,
00000000
00000000
00000000
00000000
,
00000000
00000000
00000000
00000000
,
00010000
01000000
10000000
01000000
00010000
00000000
00011000
00000000
,
00001000
00000100
00000001
00000100
00001000
00000000
00011000
00000000
,
01001000
01010000
01100000
11000000
,
01100000
01010000
00110000
00101000
,
00010000
00001000
00000100
00000000
00001000
00010000
01000000
00000000
,
00100000
00001000
00010000
00000000
00000010
00010000
00001000
00000000
,
00011000
00010010
00001010
00000110
,
00000011
00000110
00001010
00010010
,
00001000
00010000
00100000
00000000
00010000
00001000
00000010
00000000
,
00001000
00010000
00100000
10000000
00010000
00000000
10010000
00000000
,
01000000
00000000
10000000
00000000
00100000
01000000
00100000
00000000
,
00010000
00001000
00000010
00000001
,
00000100
00000010
00000100
00000000
00001000
00010000
00001000
00000000
,
00100000
01000000
00100000
00010000
10000000
00000000
10010000
00000000
,
01000000
00000000
00010000
00000000
00001000
00010000
00001000
00000000
,
00000100
00000000
00000001
00000000
00000010
00000001
00000100
00000000
,
00000010
00000000
00000100
00001000
00010000
00000000
00001000
00010000
,
01000000
00000000
10010000
00000000
02000000
03200000
02300000
03000000
,
10000000
00000000
00100000
00000000
00010000
00001000
00000100
00000000
,
00001000
00010000
01000000
00000000
00010000
00001000
00000010
00000000
,
00000001
00000000
00001000
00000010
00000100
00000000
00010000
01000000
,
00100000
00000000
10010000
00000000
02000000
03200000
02300000
03000000
,
01100000
10010000
01000000
00101000
,
00010000
00010100
00001000
00000110
,
00001001
00000110
00000001
00001100
,
00010000
00110000
01000000
10010000
,
01100000
10010000
00100000
01010000
,
00001000
00000000
00001100
00000000
00000010
00002002
00000000
00000000
,
00003003
00000000
00022000
00000000
00000000
00033000
01000000
00000000
,
00020000
20030000
31000000
10010000
,
00100000
00000000
10000000
00000000
01000000
00100000
01000000
00000000
,
00010000
00001000
00000100
00000001
,
00000010
00000100
00000010
00000000
00001000
00010000
00001000
00000000
,
01000000
00100000
01000000
00010000
10000000
00000000
10010000
00000000
,
00100000
00000000
00010000
00000000
00001000
00010000
00001000
00000000
,
00000010
00000000
00000001
00000000
00000100
00000001
00000010
00000000
,
00000100
00000000
00000010
00001000
00010000
00000000
00001000
00010000
,
00100000
00000000
10010000
00000000
00200000
02300000
03200000
00300000
,
10000000
00000000
01000000
00000000
00010000
00001000
00000010
00000000
,
00001000
00010000
00100000
00000000
00010000
00001000
00000100
00000000
,
00000001
00000000
00001000
00000100
00000010
00000000
00010000
00100000
,
01000000
00000000
10010000
00000000
02000000
03020000
00032000
00003000
,
00011000
00000000
00000000
00000000
;

//---------------dance-double - ----------------
#NOTES:
     dance-double:
     :
     Hard:
     8:
     :
00000000
00000000
00000000
00000000
,
00000000
00000000
00000000
00000000
,
00000000
00000000
00000000
00000000
,
00000000
00000000
00000000
00000000
,
01000000
00000000
00010000
00000000
10000000
00010000
00000000
00000000
00101000
00000000
00000000
00000000
00010100
00000000
00000000
00000000
,
00000100
00000000
00001000
00000000
00000000
00000001
00001000
00000000
00001010
00000000
00000000
00000000
00020100
00000000
00031000
00000000
,
01001000
01000000
00010000
00100000
00001000
00010000
00020100
00031000
,
00102000
00013000
00001000
00000100
00000010
00000100
00001001
00000000
,
00000101
00000010
00001000
00000100
00010000
00001000
00102000
00013000
,
00020100
00031000
00010000
00100000
01000000
00100000
10010000
00000000
,
01100000
00010000
10000000
01000000
00010000
00001000
00000010
00001000
,
00010000
00001000
00000100
00000001
00000010
00001000
00010100
00001000
,
00010010
00001000
00000001
00000100
00001000
00010000
01000000
00010000
,
00001000
00010000
00100000
10000000
10010000
01000000
10010000
00100000
,
10010000
00000000
00011000
00001000
00010000
00000010
00000100
00001000
,
00000100
00000000
00000010
00010000
00000010
00000000
00000100
00000000
00001000
00000000
00010000
00000010
00010000
00000000
00001000
00000000
,
00011000
00000000
00000000
00000000
01100000
00000000
01000000
00000000
10000000
00000000
00100000
01000000
00100000
00000000
00010000
00000000
,
00001000
00010000
01000000
00010000
00001000
00000100
00000002
00000003
,
00001001
00000100
00001000
00000100
00000002
00000023
00002030
00003000
,
00100000
00010000
00000010
00001000
00020000
02030000
23000000
30000000
,
00100000
10000000
00010000
10000000
01000000
00010000
00001000
00000100
,
00000002
00000000
00002000
00000000
00000000
00003003
00000001
00000100
00002000
00000000
00023000
00000000
02030000
00000000
03000000
00000000
,
10010000
10010000
01000000
00010000
00011000
00011000
00001000
00000100
,
00001001
00001001
00000010
00001000
00010000
00011000
00022000
00033000
,
01000000
10000000
00010000
10000000
00100000
00010000
00001000
00000010
,
00000002
00000000
00002000
00000000
00003003
00000000
00000001
00000010
00002000
00000000
00023000
00000000
00032000
00000000
00003000
00000000
,
00011000
00000000
01010000
00000000
00100000
01000000
00010000
10000000
,
00010000
00000000
00100000
00000000
01000000
10000000
01000000
00000000
00010000
00000000
00001000
00000000
00100000
00000000
00000000
00000000
,
00001001
00000000
00001100
00000000
00000010
00000100
00001000
00000001
,
00001000
00000000
00000010
00000000
00000100
00000001
00000100
00000000
00001000
00000000
00010000
00000000
00000100
00000000
00000000
00000000
,
10010000
00000000
01100000
00000000
10000000
01000000
00100000
00001000
,
00010000
00000100
00010000
00001000
00101000
00011000
00010100
00002000
,
00000000
00003000
01001000
00020000
00000000
00030000
00010010
00001000
,
00000200
00000300
00000110
00000100
00000001
00001000
00001001
00000100
,
00001001
00000000
00000000
00000000
00000110
00000000
00001000
00000000
00000001
00000000
00000010
00000000
00001000
00000000
00010000
00100000
,
00010000
00000000
00001000
00000100
00001000
00000000
00010000
00000000
01000000
00000000
10000000
00010000
10000000
00000000
00100000
00000000
,
10010000
00000000
00000000
00000000
01100000
00000000
00000000
00000000
10000000
00000000
01000000
00010000
00000000
00000000
00001000
00000000
,
00000100
00001000
00010000
00100000
00010000
00001000
00011000
00000000
,
00001001
00000010
00001000
00000010
00000002
00000203
00002300
00003000
,
01000000
00010000
00000100
00001000
00020000
00230000
20300000
30000000
,
01000000
10000000
00010000
10000000
00100000
00010000
00001000
00000010
,
00000002
00000000
00002000
00000000
00000000
00003003
00000001
00000010
00002000
00000000
00023000
00000000
00230000
00000000
00300000
00000000
,
10010000
10010000
00100000
00010000
00011000
00011000
00001000
00000010
,
00001001
00001001
00000100
00001000
00010000
00011000
00022000
00033000
,
00100000
10000000
00010000
10000000
01000000
00010000
00001000
00000100
,
00000002
00000000
00002000
00000000
00000000
00003003
00000001
00000100
00002000
00000000
00023000
00000000
00032000
00000000
00003000
00000000
,
00022000
00000000
00000000
00033000
01000000
00000000
00000000
00000000
;
