#TITLE:Close Your Eyes (Activated Mix);
#ARTIST:Daybehavior;
#BANNER:Close Your Eyes (Activated Mix).png;
#BACKGROUND:Close Your Eyes (Activated Mix)-bg.png;
#CDTITLE:./CDTITLES/Dance Dance Revolution UNIVERSE.png;
#MUSIC:Close Your Eyes (Activated Mix).ogg;
#SAMPLESTART:56.496;
#SAMPLELENGTH:15;
#BPMS:0=138;

//---------------dance-single - ----------------
#NOTES:
     dance-single:
     :
     Beginner:
     1:
     :
0000
0000
0000
0000
,
0000
0000
0000
0000
,
0000
0000
0000
0000
,
0000
0000
0000
0000
,
0000
0000
0000
0000
,
0001
0000
0001
0000
,
1000
0000
1000
0000
,
0100
0000
0010
0000
,
0001
0000
1000
0000
,
0001
0000
0001
0000
,
1000
0000
1000
0000
,
0010
0000
0100
0000
,
0001
0000
1000
0000
,
0100
0000
0100
0000
,
0010
0000
0010
0000
,
0001
0000
0001
0000
,
1000
0000
1000
0000
,
0000
0100
0000
0010
,
0000
0100
0000
0010
,
0000
0001
0000
1000
,
0000
0001
0000
1000
,
2000
0000
0000
3000
,
1000
0000
0000
0000
,
0002
0000
0000
0003
,
0001
0000
1000
0000
,
0001
0000
0100
0000
,
0010
0000
0010
0000
,
1000
0000
0100
0000
,
0010
0000
0010
0000
,
0001
0000
0100
0000
,
1000
0000
1000
0000
,
0100
0000
0001
0000
,
0010
0000
0010
0000
,
0100
0000
1000
0000
,
0100
0000
1000
0000
,
0001
0000
0100
0000
,
0001
0000
0100
0000
,
0010
0000
1000
0000
,
0010
0000
1000
0000
,
0100
0000
1000
0000
,
0100
0000
1000
1000
,
1000
0000
0000
0000
,
0010
0000
0000
0000
,
0001
0000
0000
0000
,
0010
0000
0000
0000
,
1000
0000
0000
0000
,
0001
0000
0000
0000
,
1000
0000
0000
0000
,
0100
0000
0010
0000
,
0110
0000
0100
0000
,
0010
0000
0001
0000
,
0100
0000
0010
0000
,
1000
0000
0100
0000
,
0010
0000
0100
0000
,
1000
0000
0001
0000
,
0100
0000
0010
0000
,
1000
0000
0001
0000
,
1001
0000
0000
0000
,
0100
0000
0000
0000
,
0001
0000
0000
0000
,
1000
0000
0000
0000
,
1001
0000
0000
0000
;

//---------------dance-single - ----------------
#NOTES:
     dance-single:
     :
     Easy:
     2:
     :
0000
0000
0000
0000
,
0000
0000
0000
0000
,
0000
0000
0000
0000
,
0000
0000
0000
0000
,
0000
0000
0000
0000
,
0100
0000
0001
0000
,
0100
0001
0010
0000
,
0100
0000
1000
0000
,
0100
0100
1000
1000
,
0010
0000
0100
0000
,
0001
0001
0100
0000
,
0010
0000
1000
0000
,
0001
0001
1000
1000
,
0100
0000
0100
0000
,
0010
0000
0010
0000
,
0001
0000
0001
0000
,
1000
0000
1000
0000
,
0000
1000
0000
0001
,
0000
0100
0000
0010
,
0000
0110
0000
0110
,
0000
1001
0000
1001
,
2000
0000
0000
3000
,
0020
0000
0000
0030
,
0200
0000
0000
0300
,
0001
1000
0001
1000
,
0001
0000
0010
0000
,
0100
0000
1000
0001
,
1000
0000
0010
0000
,
0100
0000
0001
1000
,
0001
0000
0100
0000
,
0001
0000
0010
0100
,
0010
0000
0001
0000
,
0100
0000
0010
0100
,
0010
0000
1000
0000
,
0001
1000
0001
1000
,
0100
0000
0010
0000
,
0001
1000
0001
1000
,
0010
0000
1000
0000
,
0010
1000
0010
1000
,
0100
0000
0010
0000
,
0001
0100
0001
0100
,
1001
0000
0010
0000
,
0100
0010
0100
0000
,
0001
0000
1000
0000
,
0001
1000
0001
0000
,
0010
0000
0100
0000
,
0010
0100
0010
0000
,
0001
0000
1000
0000
,
0001
1000
0001
1000
,
1001
0000
0100
0000
,
0001
0010
0001
0010
,
0100
0000
1000
0000
,
0010
0100
0010
0100
,
0001
0000
1000
0000
,
0010
1000
0010
1000
,
0100
0000
0010
0000
,
0001
1000
0001
1000
,
1001
0000
0000
0000
,
0100
0000
0000
0000
,
0010
0000
0000
0000
,
1000
0000
0000
0000
,
1001
0000
0000
0000
;

//---------------dance-single - ----------------
#NOTES:
     dance-single:
     :
     Medium:
     5:
     :
0000
0000
0000
0000
,
0000
0000
0000
0000
,
0000
0000
0000
0000
,
0000
0000
0000
0000
,
0000
0000
0000
0000
,
0010
0000
1000
0100
0000
0100
0000
0100
,
0010
0001
0100
0010
,
1000
0000
0001
0100
0000
0100
0000
0100
,
0010
1000
0100
0010
,
0001
0000
1000
0010
0000
0010
0000
0010
,
0100
0001
0010
0100
,
1000
0000
0001
0010
0000
0010
0000
0010
,
0100
0000
1000
0000
0010
0100
0010
0000
,
1002
0000
0000
0100
0000
0103
0000
0100
,
0020
0000
0000
1000
0000
1030
0000
1000
,
0200
0000
0000
0010
0000
0310
0000
0001
,
2000
0000
0000
0100
0000
3100
0000
0100
,
1000
0101
0001
1100
,
1000
0011
0001
1010
,
0100
1001
0001
0110
,
1000
1001
0110
1001
,
0001
0000
0100
0020
0000
0000
0031
0000
,
0010
0000
1000
0200
0000
0000
0310
0000
,
1000
0000
0010
0002
0000
0000
0103
0000
,
1000
0000
0100
0001
1000
0000
0001
0000
,
1000
0100
0010
0001
,
1000
0100
0000
1000
0000
0010
0000
0100
,
0001
0010
0001
0100
,
0010
1000
0000
0001
0000
0100
0000
0001
,
0010
0100
1000
0100
,
0010
0001
0000
0010
0000
1000
0000
0010
,
0001
1000
0100
0010
,
0001
0100
0000
1000
0000
0100
0000
0001
,
0010
0001
0100
0010
,
1000
0010
0200
0000
0001
0000
0310
0000
,
1000
0100
0010
0001
,
0100
0010
2000
0000
0001
0000
3010
0000
,
0100
0001
1000
0010
,
0100
0001
0020
0000
0100
0000
0031
0000
,
0010
0100
1000
0001
,
0010
0001
2000
0000
0100
0000
3001
0000
,
0010
0001
0010
0000
0001
0000
0010
0000
,
0100
1000
0100
0000
1000
0000
0100
0000
,
1000
0010
1000
0000
0010
0000
1000
0000
,
0001
0100
0001
0000
0100
0000
0010
1000
,
0001
0100
0010
0000
1000
0000
0001
0000
,
0010
0100
0010
0000
0100
0000
0010
0100
,
1000
0001
0010
0000
0001
0000
0010
0000
,
0011
0000
0000
0110
0000
0000
1100
0000
,
0100
1000
0010
0100
,
0001
0100
0020
0000
1000
0000
0130
0000
,
0001
0010
0100
1000
,
0010
0100
0002
0000
1000
0000
0103
0000
,
0010
1000
0001
0100
,
0010
1000
0200
0000
0010
0000
1300
0000
,
0100
0010
0001
1000
,
0100
1000
0002
0000
0010
0000
1003
0000
,
2002
0000
0000
0003
,
0010
0000
0100
3000
,
0012
0000
0100
0003
,
0110
0000
1001
0000
,
0100
0000
0010
0000
,
0200
0000
0000
0300
;

//---------------dance-single - ----------------
#NOTES:
     dance-single:
     :
     Hard:
     8:
     :
0000
0000
0000
0000
,
0000
0000
0000
0000
,
0000
0000
0000
0000
,
0000
0000
0000
0000
,
0000
0000
0000
0000
,
1000
0000
0001
1000
0010
0100
0001
0000
,
0010
0000
0000
0010
0000
0000
0010
0000
0000
0000
0001
0000
0100
0000
0000
0000
,
0010
1000
0001
0010
0000
0100
0000
1000
,
0010
0100
0010
1000
0001
0000
0100
0000
,
1001
0000
0000
0000
0000
0000
0000
0110
0000
0000
0000
0000
1000
0000
0100
0000
,
0010
0000
0000
0010
0000
0000
0010
0000
0000
0000
0001
0000
1000
0000
0100
0000
,
0010
0000
0001
0100
0000
0010
1000
0001
,
0010
0100
0000
1000
0000
0010
1000
0100
,
1001
0000
1000
0001
0000
0001
0000
0010
,
1000
0000
0010
0001
0000
0001
0000
0100
,
1000
0000
0100
0001
0000
0001
0000
0010
,
0100
0000
0100
0010
0000
0010
0000
0001
,
1000
0010
0100
0010
1000
0010
0100
0001
,
0010
0100
1000
0100
0010
0100
1000
0001
,
0100
0010
0000
1000
0010
0100
0000
0001
,
0010
1000
0010
0001
0000
1000
0000
0001
,
1002
0000
0100
0100
0000
0010
0013
0001
,
2000
0000
0100
0100
0000
0010
3010
1000
,
0100
0010
1000
0000
0001
0100
0010
0000
,
0001
1000
0001
0010
0100
1000
0001
1000
,
1001
0000
0100
0010
0000
0010
0000
0010
,
1000
0100
1000
0010
0100
0001
0010
0100
,
0001
0000
0100
1000
0000
1000
0000
1000
,
0100
0010
0100
1000
0010
0100
0001
0010
,
1000
0000
0010
0001
0000
0001
0000
0001
,
1000
0010
0100
0001
0010
0001
1000
0010
,
0100
1000
0000
0100
0001
0010
0000
0001
,
0100
0000
0010
1000
0000
1000
0000
1000
,
0001
0010
0100
0010
0001
1000
0010
1000
,
0001
0100
0010
0001
0010
1000
0100
0010
,
0001
1000
0001
0100
0010
1000
0100
1000
,
0010
0100
0001
0010
1000
0010
0001
0100
,
0020
0000
1030
0200
0000
1300
0001
0100
,
0002
0000
1003
0200
0000
1300
0010
0001
,
0010
2000
0000
3100
0010
0002
0000
0103
,
0020
0000
1030
0002
0000
1003
0000
0001
,
1000
0100
0001
0000
0101
0000
1100
0000
,
0100
1000
0010
0000
1010
0000
0011
0000
,
0001
0010
1000
0000
1010
0000
1100
0000
,
0100
0010
0001
0000
0011
0000
0010
0001
,
0010
0100
1000
0000
1100
0000
1010
0000
,
0010
0100
0001
0000
0101
0000
0100
0001
,
0100
0010
1000
0000
1010
0000
1000
0100
,
1001
0000
0000
0110
0000
0000
1001
0000
,
1000
0100
0010
0100
1000
0001
0100
0001
,
1000
0010
0100
1000
0100
0001
0010
0100
,
1000
0001
1000
0010
0100
0001
0010
0001
,
0100
0010
1000
0100
0001
0100
1000
0010
,
0200
0000
0301
0020
0000
0031
1000
0010
,
2000
0000
3001
0020
0000
0031
0100
1000
,
0100
0002
0000
0013
0100
2000
0000
3010
,
0200
0000
0301
2000
0000
3001
0000
1000
,
2002
0000
0000
0000
,
0000
0000
0000
3003
,
1000
0000
0000
0000
0100
0000
0000
1000
0000
0000
0100
0000
0000
0000
0000
0000
,
0000
0010
0000
0000
0001
0000
0000
0010
0000
0000
0001
0000
0000
0000
0000
0000
,
0100
0000
0000
0000
0010
0000
0000
0100
0000
0000
0010
0000
0000
0000
0000
0000
,
0000
1000
0000
0000
0001
0000
0000
1000
0000
0000
0001
0000
0000
0000
1000
0001
,
1000
0000
0000
0000
;

//---------------dance-double - ----------------
#NOTES:
     dance-double:
     :
     Beginner:
     1:
     :
00000000
00000000
00000000
00000000
,
00000000
00000000
00000000
00000000
,
00000000
00000000
00000000
00000000
,
00000000
00000000
00000000
00000000
,
00000000
00000000
00000000
00000000
,
10000000
00000000
10000000
00000000
,
00010000
00000000
00010000
00000000
,
01000000
00000000
00100000
00000000
,
00010000
00000000
00001000
00000000
,
00010000
00000000
00010000
00000000
,
00000100
00000000
00000100
00000000
,
00000010
00000000
00000001
00000000
,
00000100
00000000
00000010
00000000
,
00001000
00000000
00001000
00000000
,
00000100
00000000
00000100
00000000
,
00010000
00000000
00010000
00000000
,
00001000
00000000
00001000
00000000
,
00000000
00100000
00000000
00010000
,
00000000
10000000
00000000
00010000
,
00000000
01000000
00000000
00100000
,
00000000
01000000
00000000
00010000
,
00020000
00000000
00000000
00030000
,
00010000
00000000
00000000
00000000
,
00002000
00000000
00000000
00003000
,
00001000
00000000
00010000
00000000
,
00011000
00000000
00001000
00000000
,
00000100
00000000
00000001
00000000
,
00000010
00000000
00000010
00000000
,
00000100
00000000
00001000
00000000
,
00010000
00000000
01000000
00000000
,
10000000
00000000
00100000
00000000
,
10000000
00000000
01000000
00000000
,
00010000
00000000
00001000
00000000
,
00000000
00000100
00000000
00000100
,
00000000
00000001
00000000
00000001
,
00000000
00000010
00000000
00000010
,
00000000
00001000
00000000
00010000
,
00000000
00100000
00000000
00100000
,
00000000
10000000
00000000
10000000
,
00000000
01000000
00000000
01000000
,
00000000
00010000
00000000
00010000
,
00011000
00000000
00000000
00000000
,
00000100
00000000
00000000
00000000
,
00000001
00000000
00000000
00000000
,
00000010
00000000
00000000
00000000
,
00001000
00000000
00000000
00000000
,
00010000
00000000
00000000
00000000
,
01000000
00000000
00000000
00000000
,
10000000
00000000
00010000
00000000
,
10010000
00000000
01000000
00000000
,
00100000
00000000
00010000
00000000
,
00001000
00000000
00000100
00000000
,
00000010
00000000
00001000
00000000
,
00000100
00000000
00000010
00000000
,
00001000
00000000
00010000
00000000
,
00100000
00000000
10000000
00000000
,
00010000
00000000
10000000
00000000
,
10010000
00000000
00000000
00000000
,
01000000
00000000
00000000
00000000
,
00010000
00000000
00000000
00000000
,
00001000
00000000
00000000
00000000
,
00011000
00000000
00000000
00000000
;

//---------------dance-double - ----------------
#NOTES:
     dance-double:
     :
     Easy:
     2:
     :
00000000
00000000
00000000
00000000
,
00000000
00000000
00000000
00000000
,
00000000
00000000
00000000
00000000
,
00000000
00000000
00000000
00000000
,
00000000
00000000
00000000
00000000
,
01000000
00000000
10000000
00000000
,
00010000
10000000
00100000
00000000
,
01000000
00000000
00010000
00000000
,
10000000
00010000
00100000
00001000
,
00010000
00000000
00001000
00000000
,
00010000
00001000
00000100
00000000
,
00000001
00000000
00001000
00000000
,
00000001
00001000
00000100
00010000
,
00001000
00000000
00001000
00000000
,
00100000
00000000
00100000
00000000
,
00010000
00000000
00010000
00000000
,
01000000
00000000
01000000
00000000
,
00000000
00100000
00000000
00010000
,
00000000
00001000
00000000
00000100
,
00000000
00001001
00000000
00001001
,
00000000
00000110
00000000
00000110
,
00000200
00000000
00000000
00000300
,
00002000
00000000
00000000
00003000
,
00020000
00000000
00000000
00030000
,
00001000
00010000
00001000
00010000
,
00001000
00000000
00100000
00000000
,
00010000
00000000
10000000
00010000
,
10000000
00000000
00100000
00000000
,
01000000
00000000
00001000
00010000
,
00001000
00000000
00010000
00000000
,
00000100
00000000
00001000
00000001
,
00001000
00000000
00000010
00000000
,
00000100
00000000
00000001
00001000
,
00000001
00000000
00000100
00000000
,
00001000
00010000
00001000
00010000
,
00100000
00000000
01000000
00000000
,
00010000
01000000
00010000
01000000
,
00100000
00000000
10000000
00000000
,
01000000
10000000
01000000
10000000
,
00010000
00000000
00100000
00000000
,
00001000
00010000
00001000
00010000
,
00011000
00000000
00000010
00000000
,
00000100
00001000
00000100
00000000
,
00000010
00000000
00000001
00000000
,
00000100
00000001
00000100
00000000
,
00001000
00000000
00010000
00000000
,
00001000
00010000
00001000
00000000
,
00010000
00000000
01000000
00000000
,
10000000
00010000
10000000
00010000
,
10010000
00000000
01000000
00000000
,
00010000
00010000
01000000
01000000
,
00001000
00000000
00010000
00000000
,
00000010
00000010
00001000
00001000
,
00000100
00000000
00000010
00000000
,
00000001
00000001
00001000
00001000
,
00000100
00000000
00001000
00000000
,
00000010
00000010
00010000
00010000
,
00011000
00000000
00000000
00000000
,
00100000
00000000
00000000
00000000
,
10000000
00000000
00000000
00000000
,
01000000
00000000
00000000
00000000
,
00011000
00000000
00000000
00000000
;

//---------------dance-double - ----------------
#NOTES:
     dance-double:
     :
     Medium:
     5:
     :
00000000
00000000
00000000
00000000
,
00000000
00000000
00000000
00000000
,
00000000
00000000
00000000
00000000
,
00000000
00000000
00000000
00000000
,
00000000
00000000
00000000
00000000
,
00000001
00000000
00001000
00000001
00000000
00000001
00000000
00000001
,
00000100
00001000
00010000
01000000
,
10000000
00000000
00010000
10000000
00000000
10000000
00000000
10000000
,
01000000
00010000
00001000
00000100
,
00000001
00000000
00000010
00000100
00000000
00000100
00000000
00000100
,
00000010
00001000
00010000
00100000
,
10000000
00000000
00100000
01000000
00000000
01000000
00000000
01000000
,
00100000
00000000
00010000
00000000
00001000
00000100
00000001
00000000
,
00001002
00000000
00000000
00000010
00000000
00000013
00000000
00000100
,
00002000
00000000
00000000
00000010
00000000
00003010
00000000
00010000
,
00002000
00000000
00000000
00100000
00000000
00103000
00000000
00010000
,
20000000
00000000
00000000
01000000
00000000
31000000
00000000
01000000
,
00100000
00110000
00010000
10100000
,
10000000
01010000
00010000
11000000
,
10000000
10010000
00010000
01010000
,
00001000
00101000
00010100
00011000
,
00001000
00000000
00000100
00000020
00000000
00000000
00001030
00000000
,
00000001
00000000
00000100
00000020
00000000
00000000
00001030
00000000
,
00000100
00000000
00010000
00002000
00000000
00000000
00103000
00000000
,
00010000
00000000
01000000
00010000
00100000
00000000
01000000
00000000
,
10000000
00100000
00010000
00001000
,
00010000
00001000
00000000
00010000
00000000
00100000
00000000
10000000
,
00010000
00100000
00001000
00010000
,
00000100
00001000
00000000
00000100
00000000
00010000
00000000
00001000
,
00100000
01000000
00010000
00001000
,
00000100
00000001
00000000
00000100
00000000
00001000
00000000
00010000
,
00001000
00010000
00000100
00001000
,
00000001
00000010
00000000
00001000
00000000
00010000
00000000
00001000
,
00100000
00001000
00010000
00000010
,
00000100
00000001
00002000
00000000
00000010
00000000
00003001
00000000
,
00000100
00001000
00010000
01000000
,
00100000
00010000
20000000
00000000
01000000
00000000
30010000
00000000
,
01000000
00100000
00010000
00001000
,
00000100
00000001
00000020
00000000
00000100
00000000
00000031
00000000
,
00000010
00001000
00010000
00100000
,
10000000
00100000
02000000
00000000
00010000
00000000
03100000
00000000
,
10000000
00010000
10000000
00000000
00010000
00000000
10000000
00000000
,
00100000
01000000
00100000
00000000
01000000
00000000
00100000
00000000
,
00010000
00001000
00010000
00000000
00001000
00000000
00010000
00000000
,
00000100
00000010
00000100
00000000
00000010
00000000
00000100
00001000
,
00000001
00000100
00000010
00000000
00000100
00000000
00000010
00000000
,
00010000
00001000
00010000
00000000
00001000
00000000
00100000
00010000
,
10000000
00100000
01000000
00000000
00100000
00000000
01000000
00000000
,
00110000
00000000
00000000
00011000
00000000
00000000
00001100
00000000
,
00001000
00000100
00000001
00000010
,
00000100
00000001
00002000
00000000
00000010
00000000
00003001
00000000
,
00000100
00001000
00010000
01000000
,
00100000
00010000
20000000
00000000
01000000
00000000
30010000
00000000
,
01000000
00100000
00010000
00001000
,
00000100
00000001
00000020
00000000
00000100
00000000
00000031
00000000
,
00000010
00001000
00010000
00100000
,
10000000
00100000
02000000
00000000
00010000
00000000
03100000
00000000
,
20020000
00000000
00000000
00030000
,
00010000
00000000
00010000
30000000
,
00200000
00000000
00010000
00300000
,
00110000
00000000
00011000
00000000
,
00001000
00000000
00000100
00000000
,
00000002
00000000
00000000
00000003
;

//---------------dance-double - ----------------
#NOTES:
     dance-double:
     :
     Hard:
     7:
     :
00000000
00000000
00000000
00000000
,
00000000
00000000
00000000
00000000
,
00000000
00000000
00000000
00000000
,
00000000
00000000
00000000
00000000
,
00000000
00000000
00000000
00000000
,
00010000
00000000
00001000
00000100
00000010
00000100
00000001
00000000
,
00000010
00000000
00000000
00000010
00000000
00000000
00000010
00000000
00000000
00000000
00000001
00000000
00000100
00000000
00000000
00000000
,
00000010
00001000
00000100
00010000
00000000
00001000
00000000
00010000
,
01000000
00100000
01000000
10000000
00010000
00000000
01000000
00000000
,
01100000
00000000
00000000
00000000
00000000
00000000
00000000
10010000
00000000
00000000
01000000
00000000
00010000
00000000
00100000
00000000
,
01000000
00000000
00000000
01000000
00000000
00000000
01000000
00000000
00000000
00000000
00100000
00000000
00001000
00000000
00010000
00000000
,
00100000
00000000
00010000
00001000
00000000
00000100
00001000
00010000
,
01000000
00010000
00000000
00001000
00000000
00000010
00000001
00001000
,
00001001
00000000
00000100
00000010
00000000
00000010
00000000
00000010
,
00000001
00000000
00000100
00000010
00000000
00000010
00000000
00000010
,
00010000
00000000
00001000
00100000
00000000
00100000
00000000
00100000
,
00010000
00000000
10000000
01000000
00000000
01000000
00000000
10000000
,
00100000
01000000
00010000
01000000
00100000
10000000
00100000
01000000
,
00010000
01000000
00100000
10000000
01000000
00010000
00001000
00000100
,
00000001
00000010
00000001
00001000
00000100
00001000
00000001
00000010
,
00000001
00001000
00000100
00001000
00000001
00000100
00001000
00010000
,
00021000
00000000
00000010
00000010
00000000
00000100
00030100
00010000
,
00002000
00000000
00100000
00100000
00000000
01000000
01003000
00001000
,
00010000
00100000
01000000
00000000
10000000
01000000
00100000
00000000
,
10000000
00010000
01000000
00100000
01000000
00001000
00010000
00001000
,
00011000
00000000
00010000
00001000
00000000
00001000
00000000
00001000
,
00000100
00000010
00000100
00000001
00001000
00000100
00000010
00000001
,
00000100
00000000
00001000
00010000
00000000
00010000
00000000
00010000
,
01000000
00100000
01000000
10000000
00010000
01000000
00100000
10000000
,
01000000
00000000
00010000
00001000
00000000
00001000
00000000
00001000
,
00010000
00000100
00010000
00001000
00100000
00001000
00010000
00000100
,
00000010
00000001
00000000
00000100
00000010
00001000
00000000
00000001
,
00000100
00000000
00000100
00001000
00000000
00001000
00000000
00001000
,
00010000
00100000
10000000
00100000
00010000
00100000
10000000
00100000
,
01000000
00010000
00100000
00010000
01000000
00010000
00100000
01000000
,
10000000
01000000
00010000
01000000
10000000
01000000
00010000
00001000
,
00000100
00001000
00010000
00001000
00000100
00001000
00010000
00000100
,
00002000
00000000
00003010
00000002
00000000
00000013
00001000
00000010
,
00000200
00000000
00000301
00000020
00000000
00001030
00010000
00100000
,
10000000
02000000
00000000
13000000
00100000
00020000
00000000
00130000
,
02000000
00000000
03010000
20000000
00000000
30010000
00000000
10000000
,
00010000
01000000
00100000
00000000
01100000
00000000
01010000
00000000
,
00010000
00100000
00001000
00000000
00101000
00000000
00011000
00000000
,
00010000
00001000
00000100
00000000
00001100
00000000
00000101
00000000
,
00000100
00000001
00000010
00000000
00001010
00000000
00001000
00010000
,
00100000
01000000
10000000
00000000
11000000
00000000
01010000
00000000
,
01000000
00010000
00100000
00000000
00101000
00000000
00001000
00010000
,
00000010
00000100
00000001
00000000
00000101
00000000
00000001
00000010
,
00001001
00000000
00000000
00001100
00000000
00000000
00011000
00000000
,
00010000
01000000
10000000
01000000
00010000
01000000
10000000
01000000
,
00100000
00010000
01000000
00010000
00100000
00010000
01000000
00100000
,
10000000
00100000
00010000
00100000
10000000
00100000
00010000
00001000
,
00000010
00001000
00010000
00001000
00000010
00001000
00010000
00000010
,
00002000
00000000
00003100
00000002
00000000
00000103
00001000
00000100
,
00000020
00000000
00000031
00000200
00000000
00001300
00010000
01000000
,
10000000
00200000
00000000
10300000
01000000
00020000
00000000
01030000
,
00200000
00000000
00310000
20000000
00000000
30010000
00000000
10000000
,
20020000
00000000
00000000
00000000
,
00000000
00000000
00000000
30030000
,
10000000
00000000
00000000
00000000
01000000
00000000
00000000
00010000
00000000
00000000
00001000
00000000
00000000
00000000
00000000
00000000
,
00000000
00010000
00000000
00000000
00100000
00000000
00000000
00001000
00000000
00000000
00000010
00000000
00000000
00000000
00000000
00000000
,
00000001
00000000
00000000
00000000
00000100
00000000
00000000
00001000
00000000
00000000
00010000
00000000
00000000
00000000
00000000
00000000
,
00000000
00001000
00000000
00000000
00000010
00000000
00000000
00010000
00000000
00000000
00100000
00000000
00000000
00000000
00001000
00010000
,
00001000
00000000
00000000
00000000
;
