#TITLE:Beyond Here and Now (Intensified);
#ARTIST:Neuropa;
#BANNER:Beyond Here and Now (Intensified).png;
#BACKGROUND:Beyond Here and Now (Intensified)-bg.png;
#MUSIC:Beyond Here and Now (Intensified).ogg;
#SAMPLESTART:15.837;
#SAMPLELENGTH:15;
#BPMS:0=136;

//---------------dance-single - ----------------
#NOTES:
     dance-single:
     :
     Beginner:
     1:
     :
0000
0000
0000
0000
,
0000
0000
0000
0000
,
0000
0000
0000
0000
,
0100
0000
0000
0000
,
0001
0000
0000
0000
,
1000
0000
0000
0000
,
0001
0000
0000
0000
,
1001
0000
0000
0000
,
0000
0000
0000
0000
,
1000
0000
0001
0000
,
1000
0000
0000
0000
,
0100
0000
0001
0000
,
0100
0000
0000
0000
,
1001
0000
0000
0000
,
0110
0000
0000
0000
,
1001
0000
0000
0000
,
0110
0000
0000
0000
,
0001
0000
1000
0000
,
0001
0000
0000
0000
,
0100
0000
0010
0000
,
0100
0000
0000
0000
,
1001
0000
0000
0000
,
0110
0000
0000
0000
,
1001
0000
0000
0000
,
0100
0000
0100
0000
,
0001
0001
0001
0000
,
0001
0000
0000
0000
,
1000
1000
1000
0000
,
1000
0000
0000
0000
,
0100
0100
0100
0000
,
0100
0000
0000
0000
,
0002
0000
0000
0003
,
0001
0000
0000
0000
,
1000
1000
1000
0000
,
1000
0000
0000
0000
,
0010
0010
0010
0000
,
0010
0000
0000
0000
,
0100
0100
0100
0000
,
0100
0000
0000
0000
,
2000
0000
0000
3000
,
1000
0000
0000
0000
,
0001
0000
1000
0000
,
1001
0000
0000
0000
,
0100
0000
0010
0000
,
0110
0000
0000
0000
,
0001
0000
1000
0000
,
1001
0000
0000
0000
,
0200
0000
0000
0300
,
0100
0000
0000
0000
,
1000
0000
1000
0000
,
0001
0000
0001
0000
,
1000
0000
1000
0000
,
0001
0000
1000
0000
,
0002
0000
0000
0003
,
0001
0000
0000
0000
,
0110
0000
0000
0000
,
1000
0000
0001
0000
,
1001
0000
0000
0000
,
1001
0000
0000
0000
,
0100
0000
0000
0000
;

//---------------dance-single - ----------------
#NOTES:
     dance-single:
     :
     Easy:
     3:
     :
0000
0000
0000
0000
,
0000
0000
0000
0000
,
0000
0000
0000
0000
,
0001
0000
0000
1000
,
0100
0000
0000
0000
,
0010
0000
0000
0000
,
1000
0000
0000
0001
,
0200
0000
0000
0000
,
0000
0000
0000
0300
,
0001
1000
0010
0000
,
1000
0000
0100
0000
,
1000
0001
0100
0000
,
0001
0000
1000
0000
,
1001
0000
0000
0000
,
0010
0010
1000
0001
,
0100
0000
0000
0000
,
0010
0010
1000
0001
,
0100
0000
0001
0000
,
1000
0000
0001
0000
,
0110
0000
0000
0000
,
0100
0000
0010
0000
,
1001
0000
0000
0000
,
0100
0100
0001
1000
,
0010
0000
0000
0000
,
0100
0100
0001
1000
,
0010
0000
0100
0000
,
0002
0000
0000
0003
,
1000
0001
0100
0000
,
0020
0000
0000
0030
,
1000
0100
0010
0000
,
0200
0000
0000
0300
,
1000
0000
0001
0000
,
0100
0000
0110
0000
,
1000
0001
0010
0000
,
0002
0000
0000
0003
,
0100
0010
1000
0000
,
0200
0000
0000
0300
,
1000
0001
0010
0000
,
0002
0000
0003
1000
,
0001
0000
0110
0000
,
1001
0000
0000
0000
,
0001
1000
0200
0300
,
1000
0000
0010
0000
,
0100
0001
2000
3000
,
0100
0000
1000
0000
,
0010
1000
0200
0300
,
0010
0000
0100
0000
,
1000
0000
0001
0000
,
0100
0000
0100
0000
,
1001
0000
0001
0000
,
0010
0000
0100
1000
,
0002
0003
0100
0000
,
0010
0000
0100
0001
,
2000
3000
0010
0000
,
0100
0000
0001
1000
,
0020
0030
0100
0000
,
0010
0010
1000
0001
,
0100
0000
0000
0000
,
1000
0000
0000
0000
,
0110
0000
0000
0000
;

//---------------dance-single - ----------------
#NOTES:
     dance-single:
     :
     Medium:
     5:
     :
0000
0000
0000
0000
,
0000
0000
0000
0000
,
0000
0000
0000
0000
,
0001
0000
0000
0000
0000
0000
1000
0010
,
0000
0000
0000
0000
,
0001
0010
0100
1000
0000
0000
0000
0000
,
0100
0010
0100
0001
0100
0000
0000
0000
,
0001
0010
0100
1000
0000
0000
0000
0000
,
0101
0000
0000
0000
,
1000
0000
0001
0000
0100
0000
0010
1000
,
0000
0001
0000
0000
0010
0000
0100
0010
,
0000
0000
0000
0000
1000
0000
0010
0100
,
0000
1001
0000
0110
0000
0100
0000
1001
,
0000
0000
1000
0010
,
0100
0000
0001
0000
1000
0100
0000
0010
,
0000
0001
0100
1000
,
0100
0000
0001
0000
0100
0010
0000
2000
,
0000
0000
0000
0000
3001
0000
0100
0010
,
0000
1000
0000
0110
0000
1001
0000
0100
,
0000
0000
0001
0000
1000
0000
0010
0100
,
0000
0010
0000
1100
0000
0101
0000
1000
,
0000
0100
0010
0001
,
1000
0010
0000
0100
0000
0000
0001
0000
,
0200
0000
0310
1000
,
0100
0001
0000
0100
0000
0000
0110
0000
,
0001
0100
0020
0000
1000
0000
1030
0000
,
2000
0000
0000
3200
0000
0000
0310
0000
,
0001
1000
0200
0000
0010
0000
0310
0000
,
0200
0000
0000
2300
0000
0000
3001
0000
,
0100
0001
0020
0000
0100
0000
0130
0000
,
2000
0000
0000
3002
0000
0000
0103
0000
,
0200
0000
0000
0320
0000
0000
1030
0000
,
0000
0001
1000
0001
,
1000
0100
0020
0000
1000
0000
1030
0000
,
0002
0000
0000
0203
0000
0000
0310
0000
,
1000
0001
0200
0000
0001
0000
0301
0000
,
2000
0000
0000
3020
0000
0000
0130
0000
,
0001
0100
0020
0000
1000
0000
1030
0000
,
0200
0000
0000
0320
0000
0000
0031
0000
,
0002
0000
0000
0023
0000
0000
0130
0000
,
0000
0001
1000
0001
,
1000
0010
1000
0000
0100
0000
0001
0000
,
0100
0000
0001
1000
0000
0000
0010
0000
,
0100
0001
0100
0000
1000
0000
0100
0000
,
0010
0000
0001
0100
0000
0000
0010
0000
,
1000
0100
1000
0000
0001
0000
0100
0000
,
0010
0000
0100
0010
0000
0000
1000
0000
,
0001
0000
1000
0100
0000
0010
0100
0000
,
1000
0100
0000
0010
0100
0000
1000
0000
,
0001
0100
0001
0000
1000
0000
0100
0000
,
0010
0000
0001
0010
0000
0000
0110
0000
,
1000
0010
1000
0000
0001
0000
0100
0000
,
0010
0000
0100
0001
0000
0000
1001
0000
,
0010
0100
0010
0000
1000
0000
0001
0000
,
0100
0000
0010
1000
0000
0000
1001
0000
,
0100
0000
0001
0100
0000
0010
1000
0000
,
0001
0100
0000
0010
1000
0000
0100
0000
,
0001
1000
0001
0000
,
1000
0100
0001
0100
,
1000
0010
1001
0000
;

//---------------dance-single - ----------------
#NOTES:
     dance-single:
     :
     Hard:
     7:
     :
0000
0000
0000
0000
,
0000
0000
0000
0000
,
0000
0000
0000
0000
,
1000
0010
0100
0001
,
0100
0010
1000
0001
,
0010
1000
0100
0001
0000
0000
0000
0010
,
1000
0100
0001
0100
1000
0000
0000
0000
,
0010
0001
0100
1000
0000
0000
0000
0000
,
0022
0000
0000
0033
,
0100
0000
1100
0000
1000
0010
0001
0010
,
1000
0110
1000
0110
,
0100
0000
0101
0000
0001
0100
1000
0100
,
0001
1010
0100
1010
,
0100
1000
0020
0000
0130
0001
2000
0000
,
3002
0000
1000
0000
0100
0100
0000
1000
,
0000
1000
0100
2003
,
0001
0000
0010
0000
0001
0001
0000
3010
,
0000
0000
0101
0000
0010
1000
0100
1000
,
0010
1100
0010
1100
,
0100
0000
1001
0000
0010
0001
0100
0001
,
0010
0101
0010
0101
,
0100
0001
0020
0000
0031
1000
0100
1000
,
0100
2000
0000
0001
0000
0000
0010
0000
,
3002
1000
0100
1000
,
0100
0100
0000
1003
0000
0000
0110
0000
,
0101
0001
0200
0000
0320
0000
0230
0000
,
0001
1000
0001
1300
,
1100
1000
0200
0000
0302
0000
0203
0000
,
1000
0010
1000
0310
,
0101
0100
0020
0000
2030
0000
3020
0000
,
0001
1000
0001
1030
,
0100
0001
0200
0000
0310
0001
0020
0000
,
1030
0100
1000
0010
1000
0100
1000
0010
,
0100
0001
0100
0000
1000
0001
0010
0000
,
0100
1001
0010
1001
,
1000
0100
1000
0000
0001
0100
0010
0000
,
1000
1010
0001
0011
,
0100
0010
0100
0000
0001
0100
1000
0000
,
0100
1100
0100
0101
,
1000
0010
0200
0000
0301
0010
2000
0000
,
3010
0001
0100
1000
0100
0001
0010
0000
,
1000
0100
0010
0000
1000
0100
0010
0000
,
0100
1001
0010
1001
,
0001
0010
0100
0000
0001
0010
0100
0000
,
1000
1100
0001
1100
,
1000
0001
0100
0000
1000
0001
0100
0000
,
0001
0110
1000
0110
,
2000
0001
3002
0100
,
0203
0010
0320
1000
,
1030
0100
0010
0000
0110
0000
1001
0000
,
0001
1000
0001
1000
0001
1000
0010
0100
,
0001
0100
0010
0000
1100
0000
0101
0000
,
1000
0100
1000
0100
1000
0100
0010
0001
,
0100
1000
0100
0000
0110
0000
1001
0000
,
0100
0010
0100
0010
0100
0010
1000
0001
,
0010
0100
1000
0000
0101
0000
1100
0000
,
0010
1000
0100
0001
0100
1000
0010
0000
,
0200
1000
2300
0001
,
3002
0010
0023
0100
,
0230
0000
0000
0300
;

//---------------dance-double - ----------------
#NOTES:
     dance-double:
     :
     Beginner:
     1:
     :
00000000
00000000
00000000
00000000
,
00000000
00000000
00000000
00000000
,
00000000
00000000
00000000
00000000
,
00000001
00000000
00000000
00000000
,
00001000
00000000
00000000
00000000
,
00010000
00000000
00000000
00000000
,
10000000
00000000
00000000
00000000
,
01000000
00000000
00000000
00010000
,
00010000
00000000
00000000
00000000
,
00001000
00000000
00001000
00000000
,
00010000
00000000
00010000
00000000
,
00001000
00000000
00000000
00000000
,
00000100
00000000
00000001
00000000
,
00000100
00000000
00000000
00000000
,
00000001
00000001
00000001
00000000
,
00000001
00000000
00000000
00000000
,
00000100
00000100
00000100
00000000
,
00000100
00000000
00000000
00000000
,
00010000
00000000
00001000
00000000
,
00010000
00000000
00000000
00000000
,
01000000
00000000
10000000
00000000
,
01000000
00000000
00000000
00000000
,
00010000
00010000
00010000
00000000
,
00010000
00000000
00000000
00000000
,
00001000
00001000
00001000
00000000
,
00001000
00000000
00000000
00000000
,
00000001
00000000
00000000
00000100
,
00000100
00000000
00000000
00000000
,
00001000
00000000
00000000
01000000
,
01000000
00000000
00000000
00000000
,
00010000
00000000
00000000
10000000
,
10000000
00000000
10000000
00000000
,
01000000
00000000
00000000
00000000
,
00001000
00000000
00000000
00000100
,
00000100
00000000
00000000
00000000
,
00000001
00000000
00000000
00001000
,
00001000
00000000
00000000
00000000
,
01000000
00000000
00000000
00001000
,
00001000
00000000
00000000
00000000
,
00000100
00000000
00000100
00000000
,
00000001
00000000
00000000
00000000
,
00001000
00000000
00000000
00000000
,
00100000
00000000
00100000
00000000
,
01000000
00000000
00000000
00000000
,
00001000
00000000
00001000
00000000
,
00010000
00000000
00000000
00000000
,
00000100
00000000
00000100
00000000
,
00000001
00000000
00000000
00000000
,
00001000
00000000
00000000
00000000
,
00010000
00000000
00010000
00000000
,
01000000
00000000
00000000
00000000
,
10000000
00000000
10000000
00000000
,
00100000
00000000
00000000
00000000
,
01000000
00000000
01000000
00000000
,
00010000
00000000
00000000
00000000
,
00001000
00000000
00001000
00000000
,
00000100
00000000
00000100
00000000
,
00001001
00000000
00000000
00000000
,
00000000
00000000
00000000
00000000
,
00011000
00000000
00000000
00000000
;

//---------------dance-double - ----------------
#NOTES:
     dance-double:
     :
     Easy:
     3:
     :
00000000
00000000
00000000
00000000
,
00000000
00000000
00000000
00000000
,
00000000
00000000
00000000
00000000
,
00000110
00000000
00000000
00000001
,
00001000
00000000
00000000
00000000
,
01100000
00000000
00000000
00000000
,
10010000
00000000
00000000
00001000
,
00020000
00000000
00000000
00030000
,
00000000
00000000
00000000
00000000
,
10000000
01000000
00100000
00010000
,
10000000
01000000
00010000
00001000
,
00000100
00000000
00000001
00000010
,
00000100
00001000
00000001
00000100
,
00001000
00000000
00000000
00000000
,
10000000
00100000
00010000
00001000
,
00000010
00000000
00000001
00000000
,
00000001
00000010
00001000
00010000
,
00100000
00000000
10000000
01000000
,
00100000
00010000
10000000
01000000
,
00010000
00000000
00001000
00000100
,
00000010
00000001
00001000
00000100
,
00000001
00000000
00000001
00000000
,
00000001
00000100
00001000
00010000
,
01000000
00000000
10000000
00000000
,
10000000
01000000
00010000
00001000
,
00000100
00000000
00000000
00010000
,
00001000
00000000
00010000
01000000
,
10000000
00000000
00000000
00001000
,
00010000
00000000
00001000
00000100
,
00000001
00000000
00000000
00010000
,
00001000
00000000
01000000
00100000
,
20000000
00000000
30020000
00000000
,
20030000
00000000
00000000
30000000
,
10010000
00000000
00000000
01000000
,
00100000
00000000
01000000
00010000
,
00001000
00000000
00000000
00000100
,
00000010
00000000
00000100
00001000
,
00010000
00000000
00000000
01000000
,
00100000
00000000
01000000
00010000
,
00002000
00003000
00000200
00000300
,
00002000
00000000
00000000
00003000
,
00010000
01000000
00010000
00000000
,
01000000
10000000
00100000
00000000
,
10000000
01000000
00010000
00001000
,
00010000
00001000
00000100
00000000
,
00010000
00001000
00010000
00000000
,
00000100
00001000
00000010
00000000
,
00000001
00000100
00001000
00010000
,
00001000
00010000
01000000
00000000
,
10000000
01000000
00010000
00000000
,
00001000
00010000
00001000
00000000
,
00000100
00000001
00000010
00000000
,
00000100
00001000
00000100
00000000
,
00010000
01000000
10000000
00000000
,
10000000
01000000
00100000
00010000
,
10000000
01000000
00010000
00001000
,
00000100
00000001
00000010
00000100
,
00002000
00000000
00000000
00003000
,
00020000
00030000
02000000
03000000
,
20000000
00000000
00000000
30000000
;

//---------------dance-double - ----------------
#NOTES:
     dance-double:
     :
     Medium:
     5:
     :
00000000
00000000
00000000
00000000
,
00000000
00000000
00000000
00000000
,
00000000
00000000
00000000
00000000
,
00000001
00000001
00001000
00000100
,
00010000
00010000
00001000
01000000
,
00200000
00000000
00000000
00300000
,
20000000
00000000
00000000
31000000
,
00020000
00000000
00000100
00030100
,
00002000
00000000
00000000
00003000
,
00000100
00000100
00000010
00001001
,
00000100
00010000
00001000
00011000
,
01000000
00100000
00100000
10010000
,
01000000
00001000
00010000
00011000
,
00001000
00000100
00000001
00000000
00000010
00000000
00001000
00000000
,
00010000
00100000
10000000
00000000
01000000
00000000
00010000
00000000
,
00001000
00010000
01000000
00000000
00010000
00000000
00001000
00000000
,
00000110
00000000
00000100
00000000
,
00001001
00000000
00000100
00001000
,
00000100
00011000
00010000
01010000
,
10000000
00100000
01000000
10010000
,
01000000
00010000
00001000
00011000
,
00001000
00000100
00000001
00000000
00000010
00000000
00001000
00000000
,
00010000
00100000
10000000
00000000
01000000
00000000
00010000
00000000
,
00001000
00010000
01000000
00000000
00010000
00001000
00000100
00000000
,
00000002
00000023
00002030
00023000
,
00230000
00000000
00000000
10300000
,
01000000
00010000
00001000
00010000
00000000
00000000
00001000
00000000
,
00000200
00000000
00000000
00000301
,
00000010
00001000
00010000
00001000
00000000
00000000
00010000
00000000
,
00200000
00000000
00000000
10300000
,
01000000
00010000
00001000
00010000
00000000
00000000
00000100
00000000
,
00000020
00000000
00000000
00000032
00000000
00000000
00000203
00000000
,
00000000
00002300
00000000
00000000
00013000
00000000
01000000
00000000
,
10000000
10010000
00100000
01010000
,
00001000
00011000
00001000
00001100
,
00001000
00000100
00000001
00000000
00000001
00000100
00001000
00000000
,
00010000
00001000
00000100
00000000
00000100
00001000
00010000
00000000
,
00001000
00011000
01000000
01010000
,
10000000
01100000
00010000
10010000
,
20000000
00000000
00000000
32000000
00000000
00000000
03020000
00000000
,
00000000
00032000
00000000
00000000
00003100
00000000
00000001
00000000
,
00000001
00000010
00001000
00010000
,
00001000
00010000
00100000
10000000
,
01000000
00010000
00000100
00010000
,
00000100
00000010
00000001
00000100
,
00001000
00100000
01000000
00100000
,
00001000
00010000
00000010
00000100
,
00000020
00000000
00000000
00002030
00000000
00000000
00003002
00000000
,
00000000
00000000
00000000
00000003
,
00000100
00001001
00000100
00001001
,
00000001
00000100
00001000
00010000
,
00001000
00010000
00100000
00000000
00100000
00010000
00001000
00000000
,
00010000
01000000
10000000
00000000
10000000
01000000
00010000
00000000
,
00001000
00011000
00001000
00011000
,
00001000
00000100
00000001
00000010
,
00002000
00000000
00000000
00023000
00000000
00000000
00230000
00000000
,
00000000
00000000
00000000
00300000
,
10000000
10000000
00010000
00010000
,
00001000
00001000
00000001
00000001
,
00002000
00000000
00000000
00003000
;

//---------------dance-double - ----------------
#NOTES:
     dance-double:
     :
     Hard:
     7:
     :
00000000
00000000
00000000
00000000
,
00000000
00000000
00000000
00000000
,
00000000
00000000
00000000
00000000
,
00010000
10000000
10000000
01000000
,
00100000
00001000
00001000
00100000
,
00001000
00010000
00001000
00000100
00000001
00000000
00000000
00000000
,
00000100
00010000
00000010
00001000
00000010
00000000
00000000
00000000
,
00010000
00001000
01000000
00100000
01000000
00000000
00010000
00000000
,
00022000
00000000
00000000
00033000
,
00001000
00100000
01000000
00000000
10000000
00100000
01000000
00000000
,
00100000
10000000
01000000
00010000
00001000
00010000
00100000
00000000
,
01000000
00001000
00010000
00000000
00100000
00010000
00001000
00000000
,
00000100
00000001
00000100
00001000
00010000
00001000
00000100
00000000
,
00000001
00000010
00000100
00001000
,
00000100
00000000
00010000
00000000
01000000
10000000
00000000
00100000
,
01000000
00010000
01000000
00000000
00100000
00000000
10000000
00000000
,
01000000
00000000
00010000
00000000
00001000
00010000
00000010
00000000
,
00001000
00000000
00000100
00000000
00010000
00001000
00100000
00000000
,
00001000
00100000
00001000
00010000
00001000
00100000
00001000
00000000
,
00000100
00000001
00001000
00000000
00000100
00000010
00000001
00000000
,
00000001
00000100
00001000
00010000
01000000
00010000
00001000
00000000
,
00010000
01000000
10000000
00100000
,
00010000
00001000
00010000
00000010
,
00000001
00000010
00001000
00000100
,
00000010
00000001
00000100
00000001
00000100
00001000
00010000
00001000
,
00000100
00001000
00010000
00000000
01000000
00000000
10000000
00000000
,
01100000
00000000
00000000
00011000
00000000
00000000
01100000
00000000
,
00010000
10000000
01000000
00000000
00010000
00000000
00001000
00000000
,
00000110
00000000
00000000
00011000
00000000
00000000
00000110
00000000
,
00001000
00000001
00000100
00000000
00001000
00000000
00010000
00000000
,
01100000
00000000
00000000
00011000
00000000
00000000
01100000
00000000
,
10010000
00000000
00000000
11000000
00000000
00000000
01010000
00000000
,
00000000
00001000
00010000
00000100
,
00001000
00000100
00000010
00000000
00000100
00000010
00000001
00000000
,
00000010
00000001
00000100
00000010
00001000
00000100
00010000
00000000
,
10000000
01000000
00100000
00000000
01000000
00100000
00010000
00000000
,
01000000
00010000
00100000
00001000
00010000
00000100
00001000
00000000
,
00000001
00000010
00000100
00000000
00000010
00000100
00001000
00000000
,
00000100
00010000
00001000
00000100
00001000
00010000
00000100
00000000
,
00000110
00000000
00000000
00011000
00000000
00000000
00000110
00000000
,
00000000
00010000
01000000
10000000
,
00100000
10000000
01000000
10000000
00100000
01000000
00001000
00010000
,
00001000
00010000
00001000
00010000
00001000
00000000
00011000
00000000
,
00001000
00010000
00001000
00100000
01000000
00010000
00000100
00000010
,
00000100
00000010
00000100
00000010
00000100
00000000
00000110
00000000
,
00000100
00000010
00000100
00001000
00000100
00010000
01000000
00100000
,
01000000
00100000
01000000
00100000
01000000
00010000
00001000
00000100
,
00000001
00000010
00000001
00000000
00001000
00000100
00001000
00000000
,
00010000
00011000
01000000
01010000
,
00010000
00100000
01000000
10000000
00010000
01000000
00010000
01000000
,
00001000
00010000
00000100
00001000
00000010
00000100
00000010
00000100
,
00000001
00001000
00000010
00000100
00001000
00010000
00001000
00010000
,
00100000
01000000
00010000
10000000
00010000
01000000
00010000
01000000
,
00001000
00010000
00000010
00001000
00000100
00000010
00000100
00000010
,
00000001
00000100
00001000
00010000
01000000
10000000
01000000
10000000
,
01100000
00000000
00000000
00011000
00000000
00000000
01100000
00000000
,
01000000
10000000
01000000
00010000
01000000
00010000
00001000
00010000
,
00022000
00000000
00000000
00033000
,
00010000
00001000
00000100
00000100
,
00001000
00000000
00000000
00000000
;
