#TITLE:Beside You;
#ARTIST:Intuition;
#BANNER:Beside You.png;
#BACKGROUND:Beside You-bg.png;
#CDTITLE:./CDTITLES/Dance Dance Revolution UNIVERSE DLC.png;
#MUSIC:Beside You.ogg;
#SAMPLESTART:30.927;
#SAMPLELENGTH:15;
#DISPLAYBPM:131;
#BPMS:0=132;

//---------------dance-single - ----------------
#NOTES:
     dance-single:
     :
     Beginner:
     1:
     :
0000
0000
0000
0000
,
0000
0000
0000
0000
,
0000
0000
0000
0000
,
0000
0000
0000
0000
,
0000
0000
0000
0000
,
0010
0000
0010
0000
,
0100
0000
0100
0000
,
0001
0001
0001
0000
,
0001
0000
0000
0000
,
1000
0000
1000
0000
,
0100
0000
0100
0000
,
0010
0010
0010
0000
,
0010
0000
0000
0000
,
0001
0000
1000
0000
,
0001
0000
1000
0000
,
0100
0000
1000
0000
,
0010
0000
0000
0000
,
0010
0000
0010
0000
,
0100
0000
0100
0000
,
0001
0000
0001
0000
,
1000
0000
0001
0000
,
1000
0000
1000
0000
,
0100
0000
0100
0000
,
0010
0000
0010
0000
,
0100
0000
0001
0000
,
1000
0000
1000
0000
,
0001
0000
0010
0000
,
0100
0000
0100
0000
,
0010
0000
1000
0000
,
0100
0000
0100
0000
,
0010
0000
0100
0000
,
1000
0000
1000
0000
,
0001
0000
1000
0000
,
0010
0000
0000
0000
,
0100
0000
0000
0000
,
0001
0000
0000
0000
,
1000
0000
0000
0000
,
0100
0000
0000
0000
,
1000
0000
0000
0000
,
0010
0000
0000
0000
,
0001
0000
0000
0000
,
0010
0000
0000
0000
,
1000
0000
1000
0000
,
0001
0000
0001
0000
,
0100
0000
0100
0000
,
0010
0000
0001
0000
,
1000
0000
1000
0000
,
0100
0000
0100
0000
,
0010
0000
0010
0000
,
1000
0000
0001
0000
,
0100
0000
0000
0000
;

//---------------dance-single - ----------------
#NOTES:
     dance-single:
     :
     Easy:
     3:
     :
0000
0000
0000
0000
,
0000
0000
0000
0000
,
0000
0000
0000
0000
,
0000
0000
0000
0000
,
0000
0000
0000
0000
,
1000
1000
0000
0001
,
0000
0100
0010
0100
,
0001
0001
0000
1000
,
0000
0100
0000
0000
,
0010
0010
0000
0100
,
0000
1000
0001
1000
,
0010
0010
0000
0100
,
0000
0001
0000
0000
,
1000
0100
1000
0000
,
0001
0100
0001
0010
,
0100
0010
0100
0000
,
0010
0001
0010
0000
,
1000
1000
0001
0001
,
1000
0001
1000
0001
,
1000
0000
0000
0000
,
0010
0000
0100
0000
,
0001
0001
1000
1000
,
0001
1000
0001
1000
,
0001
0000
0000
0000
,
0100
0010
0100
0000
,
0010
0001
0010
0000
,
0100
0100
0100
0100
,
0100
1000
0100
0000
,
0010
0000
0010
0000
,
1000
0001
1000
0000
,
0010
0010
0010
0010
,
0100
0010
0100
0000
,
0002
0000
0000
0000
,
1003
0000
0000
0000
,
1001
0000
0000
0000
,
0010
0000
0010
0000
,
0010
0000
0000
0000
,
1000
0000
0001
0000
,
1001
0000
0000
0000
,
0100
0000
0100
0000
,
0100
0000
0000
0000
,
0020
0000
0030
0000
,
0010
0001
0010
0000
,
0010
1000
0010
0000
,
0100
0000
0001
0000
,
1000
0000
0100
0000
,
0010
0100
0010
0000
,
0001
1000
0001
0000
,
0100
0000
0100
0000
,
0010
0000
1000
0000
,
0001
0000
0000
0000
;

//---------------dance-single - ----------------
#NOTES:
     dance-single:
     :
     Medium:
     5:
     :
0000
0000
0000
0000
,
0000
0000
0000
0000
,
0000
0000
0000
0000
,
0000
0000
0000
0000
,
0000
0000
0000
0000
,
0001
0100
1000
0100
,
0001
0000
0010
0000
1000
0010
0100
0000
,
0010
0001
0010
1000
,
0100
0001
0000
0000
,
1000
0010
0001
0010
,
1000
0000
0100
0000
0001
0100
0010
0000
,
0100
1000
0100
0001
,
0010
1000
0000
0000
,
1000
0010
0100
0001
,
1000
0000
0001
0000
1000
0000
0001
0010
,
0100
1000
0010
0100
,
0001
0010
0001
0000
,
1001
0100
0100
0010
,
1000
0100
0010
0001
,
0200
0000
0000
0000
0300
0000
0000
0001
,
1000
0010
0100
1000
,
1001
0010
0010
0100
,
0001
0100
0010
1000
,
0010
0000
0000
0000
0000
0000
1000
0001
,
1000
0100
1000
0001
,
1001
0000
1000
0100
1000
0000
1000
0010
,
1000
0000
1000
0100
1000
0000
0010
0100
,
0010
0000
0001
0100
0001
0000
0001
0010
,
0001
0000
0001
1000
0001
0000
0000
0000
,
0010
0001
0010
0000
0010
0100
0010
0000
,
0100
0010
0100
0000
0100
1000
0100
0000
,
1000
0001
0100
0010
,
0220
0000
0000
0000
,
0000
0000
0330
0000
,
0010
0001
0100
0010
,
0010
1000
0100
0010
,
0200
0000
0301
0000
,
1000
0001
0100
0010
,
1000
0100
0001
1000
,
0001
0100
1000
0001
,
0020
0000
0030
0000
,
1001
0000
0000
0000
,
1010
0100
0100
0001
,
1000
0000
0010
0000
0001
1000
0100
0000
,
1100
0000
1000
0010
1000
0000
0001
0010
,
0001
0100
0010
1000
,
1001
0001
0100
1000
,
0100
0010
0001
0100
,
0020
0000
0030
0000
,
0010
1000
0001
0100
,
0110
0000
0000
0000
;

//---------------dance-single - ----------------
#NOTES:
     dance-single:
     :
     Hard:
     6:
     :
0000
0000
0000
0000
,
0000
0000
0000
0000
,
0000
0000
0000
0000
,
0000
0000
0000
0000
,
0000
0000
0000
0000
,
0001
0011
1000
1010
,
0001
0000
0011
0000
1000
0010
0100
0000
,
0010
0000
0110
0000
0100
0000
0001
1000
,
0000
1001
0000
0000
0000
0000
1000
0100
,
0001
1100
1000
0101
,
0001
0000
1100
0000
0010
1000
0001
0100
,
0000
1000
0000
0100
0000
0001
0000
0100
,
0000
1000
0002
0000
0000
0000
0003
0000
,
0100
0001
1000
1100
,
0101
0000
0011
0000
1010
0000
0010
0001
,
0100
0000
0001
0000
1000
0000
0010
0100
,
0001
0010
0001
0010
0000
0000
0000
0000
,
1010
0000
0011
0001
1000
0000
1010
1000
,
0000
0010
0000
0001
0000
0100
0010
1000
,
0000
0002
0000
0000
0000
0000
0003
1000
,
0100
0000
0001
0100
0000
0010
0100
0000
,
0110
0000
0011
0001
0100
0000
0110
0010
,
1000
0000
0001
0100
0000
0010
0000
0200
,
0000
0000
0000
0000
0300
0000
0001
0100
,
0010
0000
0010
0100
0000
0110
0000
0000
,
1001
0000
1000
0100
1000
0010
0000
0100
,
0000
0001
0000
0020
0000
0100
0130
0000
,
0110
0000
1000
0100
0000
1000
0000
0020
,
0000
0100
1000
0130
,
1001
0000
1100
0100
0000
1000
0000
0010
,
0000
0100
0000
0001
0000
1000
0010
0100
,
0001
0000
0010
0100
0000
0010
0000
0000
,
0210
0000
0000
0000
0000
0300
0010
0002
,
0000
0000
0003
0000
,
1001
0000
0010
0100
0001
0000
0010
0000
,
0001
1000
0100
0010
,
0001
1000
0010
1000
,
0001
0000
0100
0010
0000
0100
0010
0000
,
0011
0000
0010
0100
1000
0000
0001
0000
,
1000
0100
1000
0010
,
0200
0000
0000
0000
0000
0300
0000
1000
,
0100
0000
0001
0010
0000
0100
0000
0000
,
1100
0000
1010
1000
0010
0000
0110
0010
,
0000
1000
0000
0001
0000
0100
0010
0001
,
0000
0000
1000
0010
0100
0001
0010
0100
,
1000
0001
0000
0100
0000
0010
0000
0110
,
0000
0000
1100
1000
0001
0010
0000
0200
,
0000
2000
0300
0002
3000
0200
0003
0020
,
0300
0000
0000
0000
0030
0000
0000
1000
,
0100
0000
0001
0100
0000
0010
0000
0000
,
1001
0000
0000
0000
;

//---------------dance-double - ----------------
#NOTES:
     dance-double:
     :
     Beginner:
     1:
     :
00000000
00000000
00000000
00000000
,
00000000
00000000
00000000
00000000
,
00000000
00000000
00000000
00000000
,
00000000
00000000
00000000
00000000
,
00000000
00000000
00000000
00000000
,
00001000
00000000
00001000
00000000
,
00000010
00000000
00000010
00000000
,
00010000
00010000
00010000
00000000
,
00001000
00000000
00000000
00000000
,
00100000
00000000
00100000
00000000
,
00010000
00000000
00010000
00000000
,
10000000
10000000
10000000
00000000
,
01000000
00000000
00000000
00000000
,
00100000
00000000
00001000
00000000
,
00010000
00000000
00000100
00000000
,
00001000
00000000
00000010
00000000
,
00000100
00000000
00000000
00000000
,
00000001
00000000
00001000
00000000
,
00000010
00000000
00000010
00000000
,
00000100
00000000
00000100
00000000
,
00000010
00000000
00010000
00000000
,
00001000
00000000
00001000
00000000
,
00100000
00000000
00100000
00000000
,
00010000
00000000
00010000
00000000
,
10000000
00000000
00100000
00000000
,
01000000
00000000
01000000
00000000
,
00001000
00000000
00100000
00000000
,
00001000
00000000
00001000
00000000
,
00010000
00000000
00000100
00000000
,
00000010
00000000
00000010
00000000
,
00000001
00000000
00001000
00000000
,
00000100
00000000
00000100
00000000
,
00010000
00000000
00001000
00000000
,
01000000
00000000
00000000
00000000
,
00100000
00000000
00000000
00000000
,
10000000
00000000
00000000
00000000
,
00010000
00000000
00000000
00000000
,
00100000
00000000
00000000
00000000
,
00001000
00000000
00000000
00000000
,
00010000
00000000
00000000
00000000
,
00000100
00000000
00000000
00000000
,
00001000
00000000
00000000
00000000
,
00000001
00000000
00000001
00000000
,
00001000
00000000
00001000
00000000
,
00000010
00000000
00000010
00000000
,
00000100
00000000
00000001
00000000
,
00001000
00000000
00001000
00000000
,
00000010
00000000
00000010
00000000
,
00010000
00000000
00010000
00000000
,
00001000
00000000
00010000
00000000
,
00001000
00000000
00000000
00000000
;

//---------------dance-double - ----------------
#NOTES:
     dance-double:
     :
     Easy:
     3:
     :
00000000
00000000
00000000
00000000
,
00000000
00000000
00000000
00000000
,
00000000
00000000
00000000
00000000
,
00000000
00000000
00000000
00000000
,
00000000
00000000
00000000
00000000
,
00010000
00010000
00000000
00001000
,
00000000
00010000
00000100
00010000
,
00001000
00001000
00000000
00000100
,
00000000
00000010
00000000
00000000
,
00000001
00000001
00000000
00000010
,
00000000
00000100
00001000
00000100
,
00010000
00010000
00000000
00001000
,
00000000
00010000
00000000
00000000
,
01000000
00100000
01000000
00000000
,
10000000
00100000
10000000
00010000
,
01000000
00010000
01000000
00000000
,
00001000
00010000
00001000
00000000
,
00010000
00010000
00000100
00000100
,
00001000
00000010
00001000
00000010
,
00001000
00000000
00000000
00000000
,
00000001
00000000
00001000
00000000
,
00000010
00000010
00000100
00000100
,
00000001
00000100
00000001
00000100
,
00000001
00000000
00000000
00000000
,
00001000
00000100
00001000
00000000
,
00010000
00001000
00010000
00000000
,
01000000
01000000
01000000
01000000
,
01000000
00100000
00010000
00000000
,
10000000
00000000
00010000
00000000
,
01000000
00010000
01000000
00000000
,
00100000
00100000
00100000
00100000
,
10000000
00010000
00100000
00000000
,
00002000
00000000
00000000
00000000
,
00013000
00000000
00000000
00000000
,
00011000
00000000
00000000
00000000
,
00000100
00000000
00000010
00000000
,
00000001
00000000
00000000
00000000
,
00001000
00000000
00000100
00000000
,
00011000
00000000
00000000
00000000
,
01000000
00000000
00100000
00000000
,
10000000
00000000
00000000
00000000
,
00020000
00000000
00030000
00000000
,
01000000
00010000
01000000
00000000
,
00010000
00100000
00010000
00000000
,
01000000
00000000
00001000
00000000
,
00010000
00000000
00000100
00000000
,
00001000
00000001
00001000
00000000
,
00000010
00001000
00000010
00000000
,
00000100
00000000
00000100
00000000
,
00000001
00000000
00001000
00000000
,
00000010
00000000
00000000
00000000
;

//---------------dance-double - ----------------
#NOTES:
     dance-double:
     :
     Medium:
     5:
     :
00000000
00000000
00000000
00000000
,
00000000
00000000
00000000
00000000
,
00000000
00000000
00000000
00000000
,
00000000
00000000
00000000
00000000
,
00000000
00000000
00000000
00000000
,
10000000
00100000
00010000
00100000
,
00001000
00000000
00010000
00000000
00000100
00001000
00000010
00000000
,
00000100
00000001
00000100
00001000
,
00000100
00000001
00000000
00000000
,
00000100
00010000
00001000
00100000
,
01000000
00000000
00010000
00000000
10000000
00100000
01000000
00000000
,
00010000
00100000
01000000
00100000
,
00010000
01000000
00000000
00000000
,
00100000
01000000
00010000
00100000
,
00001000
00000000
00010000
00000000
00001000
00000000
00000100
00000001
,
00000010
00000100
00000001
00001000
,
00000100
00001000
00000100
00000000
,
00000110
00000001
00000001
00001000
,
00000100
00010000
00001000
00100000
,
00020000
00000000
00000000
00000000
00030000
00000000
00000000
00100000
,
00010000
01000000
00010000
10000000
,
01100000
10000000
10000000
00010000
,
01000000
00100000
00010000
00100000
,
00001000
00000000
00000000
00000000
00000000
00000000
00010000
00001000
,
00010000
00000100
00001000
00000010
,
00000110
00000000
00000001
00000010
00000001
00000000
00000001
00000100
,
00000001
00000000
00000010
00000100
00000010
00000000
00010000
00001000
,
00010000
00000000
00001000
00100000
00001000
00000000
00001000
00010000
,
00001000
00000000
00100000
00010000
00100000
00000000
00000000
00000000
,
01000000
10000000
01000000
00000000
01000000
00100000
01000000
00000000
,
10000000
00010000
10000000
00000000
10000000
00100000
10000000
00000000
,
01000000
00100000
00001000
00010000
,
00022000
00000000
00000000
00000000
,
00000000
00000000
00033000
00000000
,
00001000
00000100
00000010
00000001
,
00000001
00000010
00000100
00001000
,
00000020
00000000
00001030
00000000
,
00000100
00000010
00010000
00001000
,
01000000
00010000
00100000
01000000
,
01000000
10000000
00100000
01000000
,
00020000
00000000
00030000
00000000
,
01100000
00000000
00000000
00000000
,
01010000
10000000
10000000
00100000
,
01000000
00000000
00001000
00000000
00010000
00001000
00000100
00000000
,
00000110
00000000
00000100
00000001
00000100
00000000
00000010
00001000
,
00000010
00000100
00000010
00000001
,
00001100
00000001
00000010
00001000
,
00000100
00010000
00001000
00100000
,
02000000
00000000
03000000
00000000
,
01000000
00010000
10000000
00100000
,
10010000
00000000
00000000
00000000
;

//---------------dance-double - ----------------
#NOTES:
     dance-double:
     :
     Hard:
     6:
     :
00000000
00000000
00000000
00000000
,
00000000
00000000
00000000
00000000
,
00000000
00000000
00000000
00000000
,
00000000
00000000
00000000
00000000
,
00000000
00000000
00000000
00000000
,
00001000
00001010
00000001
00000011
,
00001000
00000000
00001100
00000000
00010000
00001000
01000000
00000000
,
00010000
00000000
00110000
00000000
10000000
00000000
00100000
01000000
,
00000000
01100000
00000000
00000000
00000000
00000000
00100000
10000000
,
01000000
01100000
00010000
00110000
,
00001000
00000000
00011000
00000000
00001000
00000100
00000010
00001000
,
00000000
00000001
00000000
00000100
00000000
00000010
00000000
00001000
,
00000000
00000010
00000200
00000000
00000000
00000000
00000300
00000000
,
00000010
00001000
00000001
00001001
,
00011000
00000000
10010000
00000000
01100000
00000000
00100000
10000000
,
01000000
00000000
00100000
00000000
10000000
00000000
00010000
10000000
,
01000000
00100000
01000000
00100000
00000000
00000000
00000000
00000000
,
00011000
00000000
00001100
00001000
00000010
00000000
00000110
00000100
,
00000000
00000001
00000000
00001000
00000000
00000010
00001000
00000100
,
00000000
00000020
00000000
00000000
00000000
00000000
00000030
00000001
,
00001000
00000000
00000010
00000100
00000000
00000010
00001000
00000000
,
00011000
00000000
00110000
00010000
01000000
00000000
01100000
01000000
,
00010000
00000000
10000000
00100000
00000000
10000000
00000000
00020000
,
00000000
00000000
00000000
00000000
00030000
00000000
00100000
01000000
,
10000000
00000000
00010000
01000000
00000000
01010000
00000000
00000000
,
11000000
00000000
00100000
10000000
00100000
01000000
00000000
00010000
,
00000000
10000000
00000000
02000000
00000000
00100000
03100000
00000000
,
00011000
00000000
00010000
00001000
00000000
00000100
00000000
00000020
,
00000000
00001000
00000100
00001030
,
00001001
00000000
00000011
00000010
00000000
00000100
00000000
00000001
,
00000000
00000100
00000000
00001000
00000000
00000100
00000010
00000001
,
00001000
00000000
00000010
00000100
00000000
00010000
00000000
00000000
,
00012000
00000000
00000000
00000000
00000000
00003000
01000000
00200000
,
00000000
00000000
00300000
00000000
,
10010000
00000000
01000000
00010000
00100000
00000000
01000000
00000000
,
00100000
00010000
01000000
00100000
,
10000000
00010000
00100000
00001000
,
00010000
00000000
00000100
00001000
00000000
00000010
00000100
00000000
,
00001001
00000000
00000100
00001000
00000010
00000000
00000100
00000000
,
00000010
00001000
00000100
00000010
,
00000002
00000000
00000000
00000000
00000000
00000003
00000000
00001000
,
00000100
00000000
00000001
00000100
00000000
00000010
00000000
00000000
,
00011000
00000000
00110000
00010000
01000000
00000000
01100000
01000000
,
00000000
00010000
00000000
01000000
00000000
00100000
10000000
01000000
,
00000000
00100000
00010000
01000000
00001000
00100000
00001000
00100000
,
00001000
00010000
00000000
00000100
00000000
00001000
00000000
00001001
,
00000000
00000000
00000011
00000001
00001000
00000100
00000000
00000020
,
00000000
00000200
00000030
00020000
00000300
00002000
00030000
02000000
,
00003000
00000000
00000000
00000000
03000000
00000000
00000000
00010000
,
01000000
00000000
10000000
01000000
00000000
00100000
00000000
00000000
,
01100000
00000000
00000000
00000000
;
