#TITLE:BRIGHTNESS DARKNESS;
#ARTIST:SPARKER;
#BANNER:BRIGHTNESS DARKNESS.png;
#BACKGROUND:BRIGHTNESS DARKNESS-bg.png;
#CDTITLE:./CDTITLES/Beatmania IIDX 9th style.png;
#MUSIC:BRIGHTNESS DARKNESS.ogg;
#SAMPLESTART:33.577;
#SAMPLELENGTH:15;
#BPMS:0=150;
#STOPS:244=0.4,247=0.8;

//---------------dance-single - ----------------
#NOTES:
     dance-single:
     :
     Beginner:
     1:
     :
0000
0000
0000
0000
,
0000
0000
0000
0000
,
0000
0000
0000
0000
,
0100
0000
0000
0000
,
0001
0000
0000
0000
,
1000
0000
0000
0000
,
0100
0000
0000
0000
,
1000
0000
0000
0000
,
0001
0000
0000
0000
,
0100
0000
0100
0000
,
0100
0000
0100
0000
,
0010
0000
0000
0000
,
1000
0000
0000
0000
,
0001
0000
0000
0000
,
0010
0000
0000
0000
,
0001
0000
0000
0000
,
1000
0000
0000
0000
,
0100
0000
0100
0000
,
0100
0000
0100
0000
,
0010
0010
0000
0000
,
0000
0000
0000
0000
,
0000
0100
0000
0100
,
0000
1000
0000
0000
,
0000
0001
0000
0001
,
0000
0100
0000
0000
,
0000
0010
0000
0010
,
0000
0010
0000
0010
,
0000
1000
0000
1000
,
0000
0001
0000
0001
,
0000
1000
0000
1000
,
0000
0100
0000
0000
,
0000
0010
0000
0010
,
0000
0001
0000
0000
,
0000
0100
0000
0100
,
0000
0100
0000
0100
,
0000
0001
0000
0001
,
0000
1000
0000
1000
,
1000
0000
0000
0000
,
0100
0000
0000
0000
,
0001
0000
0000
0000
,
0100
0000
0000
0000
,
1000
0000
0000
0000
,
0010
0000
0000
0000
,
0000
0100
0000
0100
,
0000
0001
0000
0000
,
0000
1000
0000
1000
,
0000
0100
0000
0000
,
0000
0001
0000
0001
,
0000
0001
0000
0001
,
0000
0100
0000
0010
,
0000
0100
0000
0010
,
0010
0000
0000
0000
,
0001
0000
0000
0000
,
0100
0000
0000
0000
,
1000
0000
0000
0000
,
0100
0000
0000
0000
,
0001
0000
0000
0000
,
1000
0000
0001
0000
,
1000
0000
0001
0000
,
0010
0000
0010
0000
,
0100
0000
1000
0000
,
0001
0000
0000
1000
,
0000
1000
0000
0100
,
0000
0001
0000
0010
,
0000
1000
1000
0000
,
0000
0000
0000
0000
,
0000
0000
0000
0000
,
0000
0001
0001
0000
;

//---------------dance-single - ----------------
#NOTES:
     dance-single:
     :
     Easy:
     3:
     :
0000
0000
0000
0000
,
0000
0000
0000
0000
,
0000
0000
0000
0000
,
0100
0000
1000
0000
,
0100
0000
1000
0000
,
0001
0000
0100
0000
,
0001
0000
0100
0000
,
0010
0000
1000
0000
,
0010
0000
1000
0000
,
0001
0000
0010
0000
,
1000
0000
0100
0000
,
0001
0002
0000
0003
,
1000
2000
0000
3000
,
0100
0200
0000
0300
,
0010
0020
0000
0030
,
0100
0000
1000
0000
,
0001
0000
0100
0000
,
0010
0000
0001
0000
,
0010
0000
1000
0000
,
0001
2000
0000
0000
,
3000
0000
0000
0000
,
0000
0010
0001
0001
,
0000
1000
0010
0010
,
0000
1000
0000
0010
,
0000
0100
0000
0001
,
1000
0000
0001
0000
,
1000
0000
0001
0000
,
0000
0010
0010
0100
,
0100
1000
0001
1000
,
0000
0100
1000
1000
,
0000
0001
0100
0100
,
0000
0001
0000
0100
,
0000
0010
0000
1000
,
0001
0000
1000
0000
,
0001
0000
1000
0000
,
0000
0100
0100
0010
,
0010
0001
1000
0001
,
0000
0100
0000
0100
,
0000
0010
0000
0010
,
0000
1000
0000
1000
,
0000
0100
0000
0100
,
0000
0010
0000
0010
,
0000
0001
0000
0001
,
0000
0010
0100
0100
,
0000
1000
0010
0010
,
0000
1000
0000
0010
,
0000
0100
0000
0001
,
1000
1000
0001
0001
,
1000
1000
0001
0001
,
0000
0010
0010
0100
,
0100
1000
0001
1000
,
0000
0100
0000
0100
,
0000
0010
0000
0010
,
0000
0001
0000
0001
,
0000
0100
0000
0100
,
0000
0010
0000
0010
,
0000
1000
0000
1000
,
2000
3000
0002
0003
,
2000
3000
0002
0003
,
1000
0000
0010
0000
,
0001
0000
0100
0000
,
2000
0000
3000
0002
,
0000
1003
0000
0100
,
0000
0001
0100
1000
,
0001
0100
0020
0000
,
0000
0030
0000
0000
,
0000
0000
0000
0000
,
0000
1000
0002
0000
,
0000
0003
0000
0000
;

//---------------dance-single - ----------------
#NOTES:
     dance-single:
     :
     Medium:
     6:
     :
0000
0000
0000
0000
,
0000
0000
0000
0000
,
0000
0000
0000
0000
,
1000
0100
0010
0100
,
1000
0010
0100
0001
,
0100
0010
1000
0001
,
0010
0100
1000
0010
,
0001
0010
1000
0100
,
0001
0100
1000
0010
,
0001
0010
0100
0010
,
1000
0001
1000
0001
,
1001
0100
0001
0100
,
0001
0010
0100
1000
,
0010
1000
0100
1000
,
0100
0010
0001
0010
,
0001
0100
1000
0100
,
0001
0010
1000
0010
,
0022
0033
0202
0303
,
2020
3030
2200
3300
,
0010
0020
0000
0000
,
0000
0000
0000
0030
0000
0001
0000
0100
,
0000
0010
1000
0001
0100
0000
0100
0000
,
0000
0010
1000
0000
0100
0000
0010
0020
,
0000
0001
0000
0001
0000
1000
0000
1000
,
0000
0130
0000
0001
0100
0000
1000
0001
,
0010
1001
0100
1001
,
0010
0101
0010
1100
,
0000
0010
0001
0000
0100
0000
1000
0000
,
0100
0010
0100
0001
,
0000
0100
0001
1000
0010
0000
0010
0000
,
0000
0100
0001
0000
0010
0000
0100
0200
,
0000
1000
0000
1000
0000
0001
0000
0001
,
0000
0310
0000
1000
0010
0000
0001
1000
,
0100
1001
0010
1001
,
0100
1010
0100
0011
,
0000
0100
1000
0000
0010
0000
0001
0000
,
0010
0100
0010
1000
,
0002
0023
0230
2300
,
3200
0320
0032
2003
,
3020
0032
0023
2030
,
3002
0023
2030
3020
,
0032
0203
0320
2030
,
3002
0103
1010
0101
,
0000
0100
0001
1000
0010
0000
0020
0000
,
0030
0100
0002
0000
0013
0000
0100
0200
,
0000
1000
0000
1000
0000
0001
0000
0001
,
0000
0310
0000
1000
0010
0000
0001
1000
,
0100
1001
0010
1001
,
0100
1010
0100
0011
,
0000
0100
1000
0000
0010
0000
0001
0000
,
0010
0100
0010
1000
,
0002
0203
0320
2030
,
3020
0230
0302
2003
,
3200
0302
0203
2300
,
3002
0203
2300
3200
,
0302
0023
0230
2300
,
3002
0103
1010
0101
,
1000
0001
0010
0100
,
0001
0100
0010
0001
,
1000
1000
1000
0000
0001
0001
0001
0000
,
0100
0010
0100
0010
,
0110
0000
0000
0110
,
0100
0001
1000
0100
,
0010
0000
0001
1000
0001
1000
0001
1000
,
0100
0100
0020
0000
0200
0000
0000
0000
,
0000
0000
0000
0000
,
0000
0000
0000
0000
,
0030
1300
0002
0000
,
0000
0003
0000
0000
;

//---------------dance-single - ----------------
#NOTES:
     dance-single:
     :
     Hard:
     9:
     :
0000
0000
0000
0000
,
0000
0000
0000
0000
,
0000
0000
0000
0000
,
0010
0100
1000
0100
0010
0100
0001
0100
,
1000
0010
0100
0010
0001
0010
0100
1000
,
0100
0001
1000
0001
0010
0001
1000
0001
,
0100
0010
1000
0010
0001
0010
1000
0001
,
0010
0100
1000
0100
0001
0100
1000
0010
,
0100
0001
1000
0001
0010
0001
1000
0100
,
0002
0203
2300
3020
,
0032
0023
1030
1001
,
0100
1000
0010
1000
0100
1000
0010
0100
,
0001
0010
1000
0010
0001
0010
1000
0010
,
0100
0001
0010
0001
0100
0001
0010
0100
,
1000
0100
0001
0100
1000
0100
0001
0010
,
0100
1000
0100
0010
0001
0100
0001
1000
,
0010
0100
0010
1000
0001
0010
0001
0000
,
0010
0100
0000
0000
0000
0000
0000
0000
0100
1000
0000
0000
0000
0000
0000
0000
1000
0010
0000
0000
0000
0000
0000
0000
0010
0001
0000
0000
0000
0000
0000
0000
,
0010
1000
0000
0000
0000
0000
0000
0000
0100
0010
0000
0000
0000
0000
0000
0000
0001
0100
0000
0000
0000
0000
0000
0000
0010
1000
0000
0000
0000
0000
0000
0000
,
1001
0220
0000
0000
,
0000
0000
0000
0000
0330
0100
0000
0010
,
1001
0100
0010
0001
0100
0010
0200
0000
,
0000
0310
0001
0010
1000
0001
0010
0001
,
0000
1100
0000
1010
0000
0101
0000
0011
,
0000
1001
0000
0100
1000
0010
0100
0001
,
0010
0100
1001
1000
0010
0100
1001
0010
,
0001
0100
1001
0010
1000
0100
0010
0002
,
0000
0103
1000
0100
0010
0001
0010
1000
,
0100
1000
0010
1000
0100
0010
0001
0010
,
1001
0010
0100
1000
0010
0100
0020
0000
,
0000
0130
1000
0100
0001
1000
0100
1000
,
0000
0011
0000
0101
0000
1010
0000
1100
,
0000
1001
0000
0010
1000
0100
0010
0001
,
0100
1000
1100
0100
0001
0010
1010
1000
,
0010
0100
0101
0001
0100
1000
1001
2000
,
0000
3010
0001
0010
0100
1000
0100
0001
,
0010
0001
0100
0001
0010
0100
1000
0001
,
1000
1100
1010
1002
,
0103
0011
0101
2001
,
3100
1100
0110
0012
,
0103
0110
1010
2100
,
3010
0102
0013
0210
,
1300
0210
0301
1001
,
0010
0100
1000
0001
0010
0001
0100
0002
,
0000
1003
0100
1000
0010
1000
0001
0200
,
0000
0310
0100
0001
0010
1000
0010
0001
,
0100
0010
0001
0010
1000
0100
0010
0001
,
0100
0010
0100
0000
1001
0000
0000
0000
0010
0100
0010
0000
1001
0000
0000
0000
,
0100
1000
0010
0000
1010
0000
0000
0000
0100
0001
0010
0000
0011
0000
0002
0000
,
0000
0103
1000
0100
0010
0001
0010
1000
,
0100
1000
0010
1000
0100
0010
0001
1000
,
1002
0000
0000
0000
0013
0100
0000
0000
0210
0000
0000
0000
1300
0010
0000
0000
,
1020
0000
0000
0000
0130
0001
0000
0000
0102
0000
0000
0000
0013
1000
0000
0000
,
1020
0000
0000
0000
0031
0100
0000
0000
0201
0000
0000
0000
1300
0100
0000
0000
,
0210
0000
0000
0000
0301
1000
0000
0000
2001
0000
0000
0000
3100
1000
0000
0000
,
0120
0000
0000
0000
0031
0100
0000
0000
0201
0000
0000
0000
1300
0100
0000
0000
,
0210
0000
0000
0000
0301
0001
0000
0000
1000
1000
0000
0000
0100
0100
0000
0000
,
1100
1000
0010
0011
0010
0100
0101
0100
,
0001
0011
0001
1000
1100
1000
0010
0110
,
0010
1000
0100
0001
0010
1000
0100
0010
,
0001
0100
1000
0010
0001
0100
0010
1000
,
1001
0000
0000
0000
0110
0000
0000
1001
0000
1001
0000
0000
0110
0000
0000
0000
,
2002
3003
1010
0100
0101
0010
0011
0100
,
1100
0010
1010
1001
1100
0110
0011
1001
,
0101
0110
2000
0000
0002
0000
0000
0000
,
0000
0000
0000
0000
,
0000
0000
0000
0000
,
0000
3003
0020
0000
0200
0000
0000
0000
,
0330
0000
0000
0000
;

//---------------dance-double - ----------------
#NOTES:
     dance-double:
     :
     Beginner:
     1:
     :
00000000
00000000
00000000
00000000
,
00000000
00000000
00000000
00000000
,
00000000
00000000
00000000
00000000
,
10000000
00000000
00000000
00000000
,
00010000
00000000
00000000
00000000
,
00100000
00000000
00000000
00000000
,
00001000
00000000
00000000
00000000
,
00010000
00000000
00000000
00000000
,
00000100
00000000
00000000
00000000
,
00001000
00000000
00001000
00000000
,
00001000
00000000
00001000
00000000
,
00000001
00000000
00000000
00000000
,
00001000
00000000
00000000
00000000
,
00000010
00000000
00000000
00000000
,
00010000
00000000
00000000
00000000
,
00001000
00000000
00000000
00000000
,
01000000
00000000
00000000
00000000
,
00010000
00000000
00010000
00000000
,
00010000
00000000
00010000
00000000
,
10000000
10000000
00000000
00000000
,
00000000
00000000
00000000
00000000
,
00000000
01000000
00000000
01000000
,
00000000
00010000
00000000
00000000
,
00000000
00010000
00000000
00010000
,
00000000
00001000
00000000
00000000
,
00000000
00000100
00000000
00000100
,
00000000
00000100
00000000
00000100
,
00000000
00000001
00000000
00000001
,
00000000
00000100
00000000
00000100
,
00000000
00001000
00000000
00001000
,
00000000
00010000
00000000
00000000
,
00000000
00001000
00000000
00001000
,
00000000
00010000
00000000
00000000
,
00000000
01000000
00000000
01000000
,
00000000
01000000
00000000
01000000
,
00000000
10000000
00000000
10000000
,
00000000
00010000
00000000
00010000
,
00010000
00000000
00000000
00000000
,
00100000
00000000
00000000
00000000
,
00010000
00000000
00000000
00000000
,
01000000
00000000
00000000
00000000
,
00001000
00000000
00000000
00000000
,
00010000
00000000
00000000
00000000
,
00000000
00001000
00000000
00010000
,
00000000
00001000
00000000
00000000
,
00000000
00000100
00000000
00000010
,
00000000
00000100
00000000
00000000
,
00000000
00000001
00000000
00000001
,
00000000
00000001
00000000
00000001
,
00000000
00000100
00000000
00001000
,
00000000
00010000
00000000
00001000
,
00001000
00000000
00000000
00000000
,
00010000
00000000
00000000
00000000
,
01000000
00000000
00000000
00000000
,
10000000
00000000
00000000
00000000
,
01000000
00000000
00000000
00000000
,
00010000
00000000
00000000
00000000
,
00001000
00000000
00000100
00000000
,
00000001
00000000
00000100
00000000
,
00001000
00000000
00000000
00000000
,
00010000
00000000
00000000
00000000
,
00011000
00000000
00000000
00011000
,
00000000
00010000
00000000
01000000
,
00000000
10000000
00000000
00010000
,
00000000
10000000
10000000
00000000
,
00000000
00000000
00000000
00000000
,
00000000
00000000
00000000
00000000
,
00000000
00010000
00010000
00000000
;

//---------------dance-double - ----------------
#NOTES:
     dance-double:
     :
     Easy:
     3:
     :
00000000
00000000
00000000
00000000
,
00000000
00000000
00000000
00000000
,
00000000
00000000
00000000
00000000
,
00100000
00000000
10000000
00000000
,
00100000
00000000
10000000
00000000
,
00010000
00000000
00100000
00000000
,
00010000
00000000
00100000
00000000
,
00001000
00000000
00010000
00000000
,
00001000
00000000
00010000
00000000
,
00000100
00000000
00001000
00000000
,
00000001
00000000
00000100
00000000
,
00000010
00000020
00000000
00000030
,
00000100
00000200
00000000
00000300
,
00001000
00002000
00000000
00003000
,
00010000
00020000
00000000
00030000
,
01000000
00000000
10000000
00000000
,
00010000
00000000
01000000
00000000
,
00100000
00000000
01000000
00000000
,
00010000
00000000
00100000
00000000
,
00001000
00020000
00000000
00000000
,
00030000
00000000
00000000
00000000
,
00000000
00000100
00000010
00000010
,
00000000
00000001
00001000
00001000
,
00000000
00000010
00000000
00000100
,
00000000
00001000
00000000
00010000
,
00002000
00003000
00020000
00030000
,
00002000
00003000
00020000
00030000
,
00000000
01000000
01000000
10000000
,
10000000
00010000
10000000
00010000
,
00000000
01000000
00100000
00100000
,
00000000
10000000
00010000
00010000
,
00000000
00100000
00000000
01000000
,
00000000
00010000
00000000
00001000
,
00020000
00030000
00002000
00003000
,
00020000
00030000
00002000
00003000
,
00000000
00000100
00000100
00000001
,
00000001
00001000
00000001
00001000
,
00000000
00000001
00000000
00000001
,
00000000
00000100
00000000
00000100
,
00000000
00001000
00000000
00001000
,
00000000
00010000
00000000
00010000
,
00000000
01000000
00000000
01000000
,
00000000
10000000
00000000
10000000
,
00000000
00100000
01000000
01000000
,
00000000
00010000
10000000
10000000
,
00000000
01000000
00000000
00010000
,
00000000
00001000
00000000
00000100
,
00000001
00000001
00001000
00001000
,
00000001
00000001
00001000
00001000
,
00000000
00000100
00000100
00010000
,
00010000
00001000
00010000
00001000
,
00000000
00100000
00000000
00100000
,
00000000
00010000
00000000
00010000
,
00000000
01000000
00000000
01000000
,
00000000
00100000
00000000
00100000
,
00000000
00010000
00000000
00010000
,
00000000
00001000
00000000
00001000
,
00020000
00030000
00000200
00000300
,
00002000
00003000
00000020
00000030
,
00001000
00000000
00000100
00000000
,
00000001
00000000
00000010
00000000
,
00002000
00000000
00003000
00000002
,
00000000
00001003
00000000
00000100
,
00000000
00010000
00001000
00010000
,
00001000
01000000
00020000
00000000
,
00000000
00030000
00000000
00000000
,
00000000
00000000
00000000
00000000
,
00000000
00100000
02000000
00000000
,
00000000
03000000
00000000
00000000
;

//---------------dance-double - ----------------
#NOTES:
     dance-double:
     :
     Medium:
     6:
     :
00000000
00000000
00000000
00000000
,
00000000
00000000
00000000
00000000
,
00000000
00000000
00000000
00000000
,
00010000
01000000
00100000
10000000
,
00100000
00010000
00001000
00010000
,
01000000
00100000
10000000
00100000
,
01000000
00010000
00001000
00000010
,
00000001
00000010
00000100
00001000
,
00000010
00000100
00000001
00000100
,
00000010
00001000
00000100
00010000
,
00001000
00010000
00001000
00010000
,
00011000
00001000
01000000
00001000
,
00100000
00010000
00100000
00010000
,
10000000
01000000
10000000
01000000
,
00010000
00001000
00010000
00001000
,
00000100
00000001
00000100
00000001
,
00000010
00001000
00010000
00100000
,
02200000
03300000
00022000
00033000
,
00000220
00000330
00022000
00033000
,
00001000
00020000
00000000
00000000
,
00000000
00000000
00030000
00000000
00000000
00010000
00000000
10000000
,
00000000
01000000
00010000
01000000
00100000
00000000
10000000
00000000
,
00000000
00010000
00100000
00000000
01000000
00000000
00010000
00002000
,
00000000
00000100
00000000
00000100
00000000
00010000
00000000
00010000
,
00000000
00003100
00000000
00000001
00000010
00000000
00000100
00001000
,
00000010
00000110
00000100
00001100
,
00001000
00011000
00010000
00110000
,
00000000
00100000
10000000
00000000
01000000
00000000
00100000
00000000
,
10000000
00010000
00100000
01000000
,
00000000
00100000
00010000
00100000
01000000
00000000
10000000
00000000
,
00000000
00010000
01000000
00000000
00100000
00000000
00010000
00002000
,
00000000
00000010
00000000
00000010
00000000
00010000
00000000
00010000
,
00000000
00003010
00000000
00000001
00000100
00000000
00000010
00001000
,
00000100
00000110
00000010
00001010
,
00001000
00011000
00010000
01010000
,
00000000
01000000
10000000
00000000
00100000
00000000
01000000
00000000
,
10000000
00010000
00100000
01000000
,
10000000
00200000
01300000
00020000
,
00130000
00002000
00003100
00000020
,
00001030
00000200
00000310
00002000
,
00013000
00200000
10300000
02000000
,
03010000
00002000
00003100
00000002
,
00001003
00000100
00010100
00101000
,
00000000
00100000
00010000
00100000
01000000
00000000
10000000
00000000
,
00000000
00010000
01000000
00000000
00100000
00000000
00010000
00002000
,
00000000
00000010
00000000
00000010
00000000
00010000
00000000
00010000
,
00000000
00003010
00000000
00000001
00000100
00000000
00000010
00001000
,
00000100
00000110
00000010
00001010
,
00001000
00011000
00010000
01010000
,
00000000
01000000
10000000
00000000
01000000
00000000
00100000
00000000
,
10000000
00010000
01000000
00100000
,
10000000
02000000
03100000
00020000
,
01030000
00002000
00003010
00000200
,
00001300
00000020
00000130
00002000
,
00013000
02000000
13000000
00200000
,
00310000
00002000
00003010
00000002
,
00001003
00000010
00010010
01001000
,
00001000
00010000
01000000
10000000
,
01000000
00010000
00001000
00000100
,
00000010
00000010
00000010
00000000
00000100
00000100
00000100
00000000
,
00001000
00010000
01000000
10000000
,
00010000
00000000
00000000
00001000
,
00000001
00000100
00001000
00000010
,
00010000
00000000
00001000
00010000
00001000
00010000
00001000
00010000
,
00100000
00100000
20000000
00000000
00020000
00000000
00000000
00000000
,
00000000
00000000
00000000
00000000
,
00000000
00000000
00000000
00000000
,
30000000
00230000
02000000
00000000
,
03300000
00000000
00000000
00000000
;

//---------------dance-double - ----------------
#NOTES:
     dance-double:
     :
     Hard:
     9:
     :
00000000
00000000
00000000
00000000
,
00000000
00000000
00000000
00000000
,
00000000
00000000
00000000
00000000
,
00001001
00000000
00000010
00000001
00000100
00000010
00010000
00000100
,
00001100
00000000
00000010
00010000
00001000
00010000
01000000
10000000
,
10100000
00000000
01000000
00001000
00010000
01000000
00100000
00001000
,
01001000
00000000
00010000
00001000
00000100
00000001
00000010
00000100
,
00010100
00010000
00000010
00001000
00000100
00010000
00000010
00000100
,
00000101
00000001
00000010
00000100
00010000
00001000
00000100
00000000
,
00002001
00003100
00001002
00000103
,
00000210
00001300
00000210
00000301
,
00000011
00000001
00000100
00000010
00010000
00001000
00100000
01000000
,
10000000
00100000
01000000
00100000
10000000
01000000
00001000
01000000
,
00100000
00001000
00010000
00000100
00000001
00000100
00001000
00000010
,
00000100
00000001
00000010
00000100
00010000
00000010
00010000
00001000
,
01000000
00100000
10000000
01000000
00100000
00001000
01000000
10000000
,
01000000
00010000
00110000
00000000
10010000
00000000
11000000
00000000
,
00100000
10000000
00000000
00000000
10000000
01000000
00000000
00000000
01000000
00010000
00000000
00000000
00010000
00001000
00000000
00000000
,
00001000
00000100
00000000
00000000
00000100
00000001
00000000
00000000
00000001
00000010
00000000
00000000
00000010
00000100
00000000
00000000
,
00001001
00000022
00000000
00000033
,
00000000
00000000
00000000
00000000
00000000
11000000
00000000
10010000
,
00000000
01000000
00100000
00001000
00010000
01000000
10000000
00200000
,
00000000
01300000
00001000
00010000
00000100
00000010
00000001
00002000
,
00000000
00003001
00000100
00000010
00010000
00000100
00000010
00000002
,
00000000
00000103
00001000
00010000
01000000
10000000
00010000
01000000
,
00100000
10000000
00100000
00000000
01000000
00000000
00000000
00000000
00001000
00010000
00001000
00000000
00100000
00000000
00000000
00000000
,
01000000
10000000
01000000
00000000
00010000
00000000
00000000
00000000
00001000
00010000
00001000
00000000
00000100
00000000
00000001
00000000
,
00000000
00001000
00000010
00010000
00000100
00000010
00000001
00001000
,
00000100
00010000
01000000
10000000
00010000
01000000
00001000
00000100
,
00000000
00000001
00000010
00000001
00001000
00000100
00010000
00021000
,
00000000
00031000
00000100
00000001
00000010
00000100
00010000
00021000
,
00000000
00031000
01000000
00100000
10000000
00010000
01000000
02100000
,
00000000
03100000
10000000
01000000
00010000
00001000
00000100
00000001
,
00000010
00000100
00001000
00000000
00000001
00000000
00000000
00000000
00001000
00000001
00000100
00000000
00000010
00000000
00000000
00000000
,
00010000
00001000
01000000
00000000
00010000
00000000
00000000
00000000
01000000
00100000
10000000
00000000
00010000
00000000
01000000
00000000
,
00000000
00100000
00010000
00000010
00001000
00000010
00010000
00001000
,
01000000
00001000
00010000
00000100
00001000
00000010
00010000
00001000
,
00000000
00000000
00100000
01000000
10000000
00100000
01000000
10000000
,
01000000
00010000
00100000
01000000
10000000
00100000
01000000
10000000
,
01000000
00001000
00010000
00000100
00000001
00000100
00001000
00000010
,
00000100
00000001
00000010
00000100
00000001
00000100
00001000
00000010
,
00000100
00000001
00000010
00000100
00000001
00000100
00010000
00001000
,
00012000
01003000
00021000
00030100
,
00000000
00011000
00010000
01000000
10000000
00100000
01000000
01001000
,
00000000
00011000
00001000
00000100
00000001
00000010
00000100
00010100
,
00000000
00011000
00010000
00100000
10000000
01000000
00100000
00101000
,
00000000
00011000
00001000
00000010
00000001
00000100
00000010
00010010
,
00010000
00001000
01000000
00000000
01010000
00000000
00000000
00000000
00010000
00100000
01000000
00000000
11000000
00000000
00000000
00000000
,
10000000
01000000
00100000
00000000
00101000
00000000
00000000
00000000
00001000
00010000
00000100
00000000
00000010
00000000
00000001
00000000
,
00000000
00000010
00000100
00010000
00001000
01000000
00100000
10000000
,
01000000
00100000
00001000
00010000
00000010
00000100
00000001
00000010
,
00000000
00000000
00000000
00000000
00000100
00000000
00000010
00000000
00000001
00000000
00001000
00000000
00000010
00010000
00000010
00000000
,
00001000
00000000
00000001
00000000
00000100
00000000
00001000
00000000
00010000
00000000
01000000
00000000
10000000
00100000
10000000
00000000
,
01000000
00000000
00100000
00000000
00001000
00000000
00010000
00000000
00000010
00000000
00001000
00000000
00000001
00000010
00000001
00000000
,
00000100
00000000
00000010
00000000
00010000
00000000
00001000
00000000
00000100
00000000
00000001
00000000
00000010
00000100
00000010
00000000
,
00000001
00000000
00000100
00000000
00001000
00010000
00001000
00000000
01000000
00000000
00010000
00000000
10000000
00100000
10000000
00000000
,
02000000
03020000
00032000
00003200
,
00000301
00000001
00000010
00000100
00000100
00000100
00010000
00001000
,
00000100
00000100
00000001
00000010
00000010
00000010
00001000
00010000
,
00100000
10000000
01000000
00010000
00001000
00000100
00000001
00000010
,
00001000
00010000
00100000
10000000
01000000
00010000
00001000
00000100
,
00000110
00000000
00000000
00000000
00001001
00000000
00000000
00010100
00000000
01001000
00000000
00000000
10010000
00000000
00000000
00000000
,
00001001
00000011
00010100
01001000
,
10100000
00000000
11000000
00000000
00101000
00000000
00010010
00001010
,
00001001
00000101
00000110
00000000
00002002
00000000
00000000
00000000
,
00003003
00000000
00000000
00000000
,
00000000
00000000
00000000
00000000
,
00000000
10010000
02200000
00000000
,
03300000
00000000
00000000
00000000
;
