#TITLE:B4U (B4 ZA BEAT MIX);
#ARTIST:NAOKI;
#BANNER:B4U (B4 ZA BEAT MIX).png;
#BACKGROUND:B4U (B4 ZA BEAT MIX)-bg.png;
#CDTITLE:./CDTITLES/DDRMAX2 -Dance Dance Revolution 7thMIX-.png;
#MUSIC:B4U (B4 ZA BEAT MIX).ogg;
#SAMPLESTART:38.088;
#SAMPLELENGTH:15;
#DISPLAYBPM:170;
#BPMS:0=170.616,4=169.999;

//---------------dance-single - ----------------
#NOTES:
     dance-single:
     :
     Beginner:
     1:
     :
0000
0000
0000
0000
,
0000
0000
0000
0000
,
0000
0000
0000
0000
,
0000
0000
0000
0000
,
0000
0000
0000
0000
,
0100
0000
0000
0000
,
0010
0000
0000
0000
,
0100
0000
0100
0000
,
0100
0000
0000
0000
,
2000
0000
0000
0000
,
3000
0000
0000
0000
,
0002
0000
0000
0000
,
0003
0000
0000
0000
,
1000
0000
0000
0000
,
0001
0000
0000
0000
,
1000
0000
0000
0000
,
0001
0000
0000
0000
,
0010
0000
0010
0000
,
0010
0000
0010
0000
,
0010
0000
0000
0000
,
0100
0000
0000
0000
,
1000
0000
0000
0000
,
0001
0000
0000
0000
,
0010
0000
0000
0000
,
0100
0000
0000
0000
,
1000
0000
0000
0000
,
0001
0000
0000
0000
,
1000
0000
1000
0000
,
1000
0000
0000
0000
,
0001
0000
0001
0000
,
0001
0000
0000
0000
,
1000
0000
1000
0000
,
0001
0000
0001
0000
,
0200
0000
0000
0300
,
0100
0000
0000
0000
,
1001
0000
0000
0000
,
0100
0000
0100
0000
,
0100
0000
0000
0000
,
0010
0000
0010
0000
,
0010
0000
0000
0000
,
1000
0000
1000
0000
,
1000
0000
0000
0000
,
0001
0000
0001
0000
,
0001
0000
1000
0000
,
0001
0000
1000
0000
,
0100
0000
0000
0000
,
0100
0000
0100
0000
,
0110
0000
0000
0000
,
0100
0000
0000
0000
,
0010
0000
0000
0000
,
0100
0000
0000
0000
,
0010
0000
0000
0000
,
0001
0000
0000
0000
,
1000
0000
0000
0000
,
0100
0000
0010
0000
,
0100
0000
0000
0000
,
1001
0000
0000
0000
;

//---------------dance-single - ----------------
#NOTES:
     dance-single:
     :
     Easy:
     4:
     :
0000
0000
0000
0000
,
0000
0000
0000
0000
,
0000
0000
0000
0000
,
0000
0000
0000
0000
,
0000
0000
0000
0000
,
2000
0000
0000
0000
,
3002
0000
0000
0000
,
0023
0000
0230
0000
,
1300
0001
1000
0001
,
1001
0000
0100
1000
,
1001
0000
0100
0001
,
1001
0000
1000
0001
,
0220
0000
0000
0330
,
1000
0100
1000
0100
,
0001
0100
0001
0100
,
0010
1000
0001
0010
,
0100
0100
0100
0100
,
0010
0010
0010
0010
,
2002
0000
0000
3003
,
1000
0000
0001
0000
,
1000
0100
0010
0010
,
0001
0000
1000
0000
,
0001
0100
0010
0010
,
1000
0000
0100
0000
,
0010
0001
0100
0100
,
0001
0000
0100
0000
,
0010
1000
0100
0100
,
1000
0100
0001
0010
,
1000
0100
0001
0000
,
0001
0100
1000
0010
,
0001
0100
1000
0000
,
1000
0010
0001
0100
,
1000
0010
0001
0000
,
0001
0010
1000
0100
,
0001
0010
1000
0000
,
1001
0000
0100
0010
,
0001
0001
0001
1000
,
1001
0000
0100
0010
,
1000
0001
0010
0100
,
1001
0000
0100
0010
,
1000
1000
1000
0001
,
1001
0000
0100
0010
,
0001
1000
0010
0100
,
0101
0000
1010
0000
,
1100
0000
0011
0000
,
0100
0100
0100
0100
,
2002
0000
3003
0110
,
1001
0000
0010
0100
,
0001
1000
0001
0100
,
1001
0000
0010
0100
,
1000
0001
0010
0100
,
1001
0000
0010
0100
,
1000
0001
1000
0100
,
1001
0000
0010
0100
,
0001
1000
0010
0100
,
0001
1000
0001
1000
,
1001
0000
0000
0000
;

//---------------dance-single - ----------------
#NOTES:
     dance-single:
     :
     Medium:
     6:
     :
0000
0000
0000
0000
,
0000
0000
0000
0000
,
0000
0000
0000
0000
,
0000
0000
0000
0000
,
0000
0000
0000
0000
,
0010
0000
0000
0000
0000
0000
0000
0100
,
0100
0000
0000
0000
0000
0000
0000
1000
,
0001
0000
1000
0000
,
0001
0000
0010
0000
0100
0000
1000
0001
,
2000
0000
0000
0000
,
3002
0000
0000
0000
,
0203
0000
0000
0000
,
0320
0000
0000
0000
,
1030
0000
0001
0000
1000
0000
0010
1000
,
0100
0000
0010
0000
0100
0000
0010
0001
,
0100
0000
0001
0000
1000
0000
0001
1000
,
0100
0000
1000
0000
0001
0000
1000
0001
,
0100
0000
0100
0000
0100
0000
0001
1000
,
0001
1000
0001
1001
,
0000
1000
0000
0001
0000
1000
0000
0001
,
0000
0010
0000
0001
0000
0100
0000
1000
,
0000
0001
0000
1000
0000
0001
0000
1000
,
0000
0010
0000
1000
0000
0100
0000
0001
,
0000
1000
0000
0100
0000
0010
0000
0001
,
0000
0010
0000
0100
0000
1000
0000
0001
,
0000
0010
0000
0100
0000
1000
0000
0100
,
0000
0010
0000
0001
0000
1000
0000
0001
,
1000
0000
0100
0000
0010
0100
1000
0000
,
0001
0000
0100
0000
0010
0100
0001
0000
,
1000
0000
0010
0000
0001
0100
1000
0000
,
0001
0000
0010
0000
1000
0100
0001
0000
,
1000
0000
0010
0000
0100
0010
1000
0000
,
0001
0000
0010
0000
0100
0010
0001
0000
,
1000
0000
0100
0000
0001
0010
1000
0000
,
0001
0000
0100
0000
1000
0010
0001
0000
,
1000
0000
0010
0000
0100
0000
0001
1000
,
0001
0000
0010
0000
0100
0000
1000
0001
,
1000
0000
0100
0000
0010
0000
0001
1000
,
0001
0000
0100
0100
0010
0000
0100
0100
,
0001
0000
0010
0000
0100
0000
1000
0001
,
1000
0000
0010
0000
0100
0000
0001
1000
,
0001
0000
0100
0000
0010
0000
1000
0001
,
1000
0000
0100
0100
0010
0000
0100
0100
,
1000
1000
0001
0001
,
1000
1000
0001
0001
,
1000
0100
0010
0001
,
0010
0100
0010
0100
1000
0001
1000
0000
,
0010
0000
1000
0000
0001
0000
0100
0001
,
1000
0000
0001
0000
1000
0000
0001
1000
,
0001
0000
0010
0000
0001
0000
1000
0001
,
0100
0000
0010
0010
0100
0000
0001
0001
,
0010
0000
0001
0000
1000
0000
0100
1000
,
0001
0000
1000
0000
0001
0000
1000
0001
,
1000
0000
0010
0000
1000
0000
0001
1000
,
0100
0000
0010
0010
0100
0000
1000
1000
,
0010
0100
0000
0001
1000
0001
1000
0000
,
1001
0000
0000
0000
;

//---------------dance-single - ----------------
#NOTES:
     dance-single:
     :
     Hard:
     8:
     :
0000
0000
0000
0000
,
0000
0000
0000
0000
,
0000
0000
0000
0000
,
0000
0000
0000
0000
,
0000
0000
0000
0000
,
2001
0000
0000
0000
0000
0000
0000
0001
,
3002
0000
0000
0000
0000
0000
0000
1000
,
1003
0000
0100
0000
,
0010
0000
0000
0000
0010
0000
0000
0000
0001
0000
0000
1000
0100
0000
1000
0000
,
0001
0000
0000
0100
0000
0000
0001
0000
0000
0010
0000
0000
0100
0000
0100
0000
,
1000
0000
0000
0010
0000
0000
1000
0000
0000
0100
0000
0000
0010
0000
0010
0000
,
0100
0000
0000
1000
0000
0000
0001
0000
0000
0010
0000
0000
0001
0000
0001
0000
,
2000
0000
3001
1001
,
0100
0000
0000
1000
0000
0000
0100
0000
0000
0010
0001
0000
1000
0000
0001
0000
,
0100
0000
0000
0001
0000
0000
0100
0000
0000
0010
1000
0000
0100
0000
1000
0000
,
0001
0000
0000
0010
0000
0000
0100
0000
0000
1000
0001
0000
0010
0000
0001
0000
,
0100
0000
0000
0010
0000
0000
1000
0000
0000
0001
0010
0000
0100
0000
1000
0000
,
0010
0000
0010
0000
0010
0000
1000
0001
,
2002
0000
3003
0110
,
1000
0000
0001
0100
0000
0000
0001
0000
1000
0100
0000
0000
1000
0000
0001
0010
,
0000
0001
0100
0001
0010
0100
1000
0001
,
0100
0000
0001
1000
0000
0000
0100
0000
1000
0001
0000
0000
0100
0000
0001
0010
,
0000
0001
0010
0100
1000
0010
1000
0001
,
0010
0000
0100
1000
0000
0000
0010
0000
0100
0000
0000
0001
0010
0000
0100
1000
,
0000
0001
0100
0010
1000
0001
0100
0010
,
1000
0000
0100
0010
0000
0000
0001
0000
0100
0010
0000
0000
1000
0000
0100
0010
,
0000
0001
1000
0010
0100
0001
0100
0000
,
0010
1000
0010
0100
0001
1000
0100
0000
,
0010
0100
1000
0100
0010
0001
0100
0000
,
0001
1000
0001
0010
0100
1000
0001
1000
,
0010
0100
0001
0010
0001
1000
0100
0000
,
1000
0100
1000
0001
0100
0001
0010
0000
,
0100
1000
0010
0100
0010
1000
0001
0000
,
1000
0100
0010
0100
1000
0001
0010
0001
,
2000
0000
3002
0000
0013
0100
0010
0100
,
1000
0000
0000
0000
0001
0000
0100
0000
0010
0000
0000
0100
0001
0000
1000
0000
,
0002
0000
2003
0000
3002
0000
0103
0100
,
0010
0000
0000
0000
1000
0000
0001
0000
0100
0000
0000
0001
1000
0000
0010
0000
,
1000
0100
0010
0001
1000
0100
0010
0001
,
0100
0000
0000
0000
0010
0000
1000
0000
0001
0000
0000
1000
0100
0000
0010
0000
,
0002
0000
2003
0000
3002
0000
0103
0100
,
0010
0000
0000
0000
1000
0000
0001
0000
0010
0000
0000
0001
0100
0000
0010
0000
,
1000
0100
1000
0100
0010
0001
0010
0001
,
1001
1000
1100
0001
,
0101
1000
0110
0001
,
0011
1100
1010
0101
,
0010
0000
0001
0000
0100
0000
0001
0000
1000
0100
1000
0100
0000
0000
0000
0000
,
0010
0001
0000
1000
0000
0010
0000
0100
0000
0001
0000
0001
0010
0000
0100
0000
,
1100
0000
0101
0000
1001
0000
0010
0100
,
1000
0001
0000
1000
0000
0010
0000
0100
0000
0001
0000
0001
0010
0000
0100
0000
,
0010
0001
1000
0100
1000
0001
0010
0100
,
1000
0001
0000
1000
0000
0100
0000
0010
0000
0001
0000
0001
0100
0000
0010
0000
,
1010
0000
0011
0000
1001
0000
0100
0010
,
1000
0001
0000
0010
0000
0100
0000
1000
0000
0001
0000
0001
1000
0000
0010
0000
,
0100
0001
1000
0001
0010
0100
1000
0001
,
0100
0100
0000
1000
0100
0001
0010
0000
,
1001
0000
0000
0000
;

//---------------dance-single - ----------------
#NOTES:
     dance-single:
     :
     Challenge:
     7:
     :
0000
0000
0000
0000
,
0000
0000
0000
0000
,
0000
0000
0000
0000
,
0000
0000
0000
0000
,
0000
0000
0000
0000
,
0010
0000
0000
0000
0000
0000
0000
0100
,
0010
0000
0000
0000
0000
0000
0000
0100
,
0010
0000
0010
0000
,
0010
0000
0000
0000
0100
0000
0000
0000
0001
0000
0000
1000
0001
0000
0100
0000
,
0020
0000
0000
0000
,
2000
0000
0000
0030
,
0002
0000
0000
3000
,
0200
0000
0000
0303
,
0010
0100
0001
1000
,
0001
0100
0010
1000
,
0010
1000
0001
0100
,
0001
0010
0100
1000
,
0010
0000
0010
0000
0010
0000
0010
0100
,
0010
1000
0100
0010
0001
0010
0100
1000
,
0000
0001
0000
1000
0000
0010
0000
0100
,
0000
0001
0000
0010
0000
0100
0000
0010
,
0000
0001
0000
1000
0000
0100
0000
0010
,
0000
0100
0000
1000
0000
0001
0000
0100
,
0000
1010
0000
0100
0000
1000
0000
0010
,
0000
0101
0000
1000
0000
0001
0000
0010
,
0000
1100
0000
0001
0000
1000
0000
0100
,
0000
0011
0000
0100
0000
1000
0000
0010
,
1000
0001
0100
0001
1000
0001
0010
0000
,
0100
1000
0001
1000
0010
1000
0001
0000
,
0010
1000
1000
0100
0010
1000
0001
0000
,
0010
0001
0001
0100
0010
0001
1000
0000
,
0010
0100
1000
0010
1000
0001
0100
0000
,
0010
0100
0001
0010
0001
1000
0100
0000
,
0001
0100
0010
1000
1000
0100
0010
0001
,
0010
0000
0100
0000
0001
1000
0010
0100
,
0002
0000
0010
0100
,
1000
0000
1000
0000
1003
0000
1000
0100
,
2000
0000
0001
3001
,
0010
1000
0001
0100
0001
1000
0010
0100
,
0002
0000
0010
0100
,
1000
0000
1000
0000
1003
0000
1000
0010
,
2000
0000
0010
3100
,
0010
1000
0100
0010
0001
0100
0010
0100
,
0010
1000
0011
0100
,
1010
0001
0110
1000
,
0110
1001
0110
1001
,
0010
0000
1000
0000
0100
0000
1000
0000
0001
0100
1000
0100
0000
0000
0000
0000
,
0010
0000
1000
0000
0001
0100
0010
0100
,
1000
0000
1000
0000
1000
0000
1000
0001
,
0100
0000
0010
0000
0001
0001
1000
0001
,
0100
0010
0001
0100
,
0010
0000
0100
0000
0001
0010
1000
0010
,
0100
0000
0100
0000
0100
0000
0100
0001
,
1000
0000
0010
0000
1000
0000
0100
0010
,
0001
0100
0001
1000
0100
0010
0100
1000
,
0001
1000
0000
0010
0100
0010
0100
0000
,
1001
0000
0000
0000
;

//---------------dance-double - ----------------
#NOTES:
     dance-double:
     :
     Beginner:
     1:
     :
00000000
00000000
00000000
00000000
,
00000000
00000000
00000000
00000000
,
00000000
00000000
00000000
00000000
,
00000000
00000000
00000000
00000000
,
00000000
00000000
00000000
00000000
,
00000010
00000000
00000000
00000000
,
00000100
00000000
00000000
00000000
,
00000001
00000000
00000000
00000000
,
00000100
00000000
00000000
00000000
,
00002000
00000000
00000000
00000000
,
00003000
00000000
00000000
00000000
,
00020000
00000000
00000000
00000000
,
00030000
00000000
00000000
00000000
,
01000000
00000000
00000000
00000000
,
10000000
00000000
00000000
00000000
,
00100000
00000000
00000000
00000000
,
00010000
00000000
00000000
00000000
,
20020000
00000000
00000000
00000000
,
30030000
00000000
00000000
00000000
,
10010000
00000000
00000000
00000000
,
01000000
00000000
00000000
00000000
,
00001000
00000000
00000000
00000000
,
00010000
00000000
00000000
00000000
,
00000100
00000000
00000000
00000000
,
00010000
00000000
00000000
00000000
,
00001000
00000000
00000000
00000000
,
00100000
00000000
00000000
00000000
,
10000000
00000000
10000000
00000000
,
10000000
00000000
00000000
00000000
,
00010000
00000000
00010000
00000000
,
00010000
00000000
00000000
00000000
,
00001000
00000000
00001000
00000000
,
00000100
00000000
00000100
00000000
,
00000001
00000000
00000000
00000000
,
00000010
00000000
00000000
00000000
,
00001001
00000000
00000000
00000000
,
00000100
00000000
00000100
00000000
,
00000100
00000000
00000000
00000000
,
00010000
00000000
00001000
00000000
,
00010000
00000000
00000000
00000000
,
01000000
00000000
01000000
00000000
,
01000000
00000000
00000000
00000000
,
00100000
00000000
00100000
00000000
,
00100000
00000000
00000000
00000000
,
00010000
00000000
10000000
00000000
,
00010000
00000000
00000000
00000000
,
10000000
00000000
00010000
00000000
,
10010000
00000000
00000000
00000000
,
01000000
00000000
00000000
00000000
,
00010000
00000000
00000000
00000000
,
00001000
00000000
00000000
00000000
,
00000100
00000000
00000000
00000000
,
00001000
00000000
00000000
00000000
,
00010000
00000000
00000000
00000000
,
00100000
00000000
01000000
00000000
,
00100000
00000000
00000000
00000000
,
10010000
00000000
00000000
00000000
;

//---------------dance-double - ----------------
#NOTES:
     dance-double:
     :
     Easy:
     4:
     :
00000000
00000000
00000000
00000000
,
00000000
00000000
00000000
00000000
,
00000000
00000000
00000000
00000000
,
00000000
00000000
00000000
00000000
,
00000000
00000000
00000000
00000000
,
20000000
00000000
00000000
00000000
,
32000000
00000000
00000000
00000000
,
03200000
00000000
00320000
00000000
,
10030000
01000000
00010000
00001000
,
00011000
00000000
00010000
00001000
,
00011000
00000000
00001000
00000100
,
00000110
00000000
00000010
00001000
,
00002002
00000000
00000000
00003003
,
00000001
00000000
00000100
00000000
,
00001000
00010000
01000000
00000000
,
10000000
00000000
01000000
00000000
,
00100000
00100000
00100000
00000000
,
01000000
01000000
01000000
01000000
,
20020000
00000000
00000000
30030000
,
10000000
00000000
01000000
00000000
,
00100000
00001000
00100000
00001000
,
00010000
00000000
00000010
00000000
,
00001000
00000001
00001000
00000001
,
00000100
00000000
00000010
00000000
,
00010000
00000100
00010000
00000100
,
00001000
00000000
00000001
00000000
,
00000010
00000100
00000010
00000100
,
00010000
00001000
00010000
00001000
,
00010000
01000000
10000000
00000000
,
00100000
01000000
00100000
01000000
,
00100000
10000000
01000000
00000000
,
00010000
00001000
00010000
00001000
,
00000100
00000001
00000010
00000000
,
00000100
00001000
00000100
00001000
,
00000001
00000100
00001000
00000000
,
00011000
00000000
01000000
00100000
,
10000000
10000000
10000000
00010000
,
10010000
00000000
01000000
00001000
,
00010000
00000010
00001000
00000100
,
00001001
00000000
00000010
00000001
,
00001000
00001000
00001000
00000001
,
00001001
00000000
00000100
00000010
,
00010000
00001000
00100000
01000000
,
11000000
00000000
10100000
00000000
,
01010000
00000000
00110000
00000000
,
01000000
01000000
01000000
01000000
,
10000000
01000000
00010000
00011000
,
00011000
00000000
00001000
00000100
,
00000001
00000010
00000100
00001000
,
00001001
00000000
00000100
00001000
,
00010000
01000000
10000000
00100000
,
01100000
00000000
00100000
10000000
,
00010000
00100000
00001000
00010000
,
00011000
00000000
00001000
00000100
,
00000001
00000010
00000100
00001000
,
00000001
00001000
00000001
00001000
,
00000110
00000000
00000000
00000000
;

//---------------dance-double - ----------------
#NOTES:
     dance-double:
     :
     Medium:
     6:
     :
00000000
00000000
00000000
00000000
,
00000000
00000000
00000000
00000000
,
00000000
00000000
00000000
00000000
,
00000000
00000000
00000000
00000000
,
00000000
00000000
00000000
00000000
,
00000001
00000000
00000000
00000000
00000000
00000000
00000000
00000100
,
00000100
00000000
00000000
00000000
00000000
00000000
00000000
00001000
,
00010000
00000000
00001000
00000000
,
00010000
00000000
01000000
00000000
10000000
00000000
00100000
01000000
,
00002000
00000000
00000000
00000000
,
00023000
00000000
00000000
00000000
,
00030200
00000000
00000000
00000000
,
00000320
00000000
00000000
00000000
,
00000031
00000000
00000100
00000000
00000001
00000000
00001000
00001000
,
00000100
00000000
00010000
00000000
00001000
00000000
00100000
00100000
,
00010000
00000000
10000000
00000000
00100000
00000000
01000000
01000000
,
00010000
00000000
10000000
00000000
00010000
10000000
00010000
00010000
,
01000000
00000000
00001000
00000000
00010000
00000100
00001000
00001000
,
00000010
00001000
00000001
00001001
,
00000000
00000001
00000000
00000100
00000000
00001000
00000000
00000100
,
00000000
00000010
00000000
00010000
00000000
00001000
00000000
00100000
,
00000000
01000000
00000000
10000000
00000000
01000000
00000000
00010000
,
00000000
00001000
00000000
00000010
00000000
00000001
00000000
00000010
,
00000000
00000100
00000000
00010000
00000000
00001000
00000000
00100000
,
00000000
00010000
00000000
01000000
00000000
00100000
00000000
10000000
,
00000000
00010000
00000000
01000000
00000000
10000000
00000000
01000000
,
00000000
00010000
00000000
10000000
00000000
00010000
00000000
10000000
,
01000000
10000000
00100000
01000000
,
00001000
00100000
00001000
00000000
00010000
00000010
00010000
00000000
,
00001000
00000100
00000001
00000100
,
00000010
00001000
00000010
00000000
00000100
00000001
00000100
00000000
,
00001000
00010000
00001000
00100000
,
00010000
00100000
00010000
00000000
10000000
01000000
10000000
00000000
,
00010000
01000000
00001000
00010000
,
00000010
00000010
00000010
00001001
,
00000001
00000000
00000100
00000000
00000001
00000000
00001000
00000001
,
00001000
00000000
00000100
00000000
00010000
00000000
01000000
00100000
,
01000000
00000000
10000000
00000000
00100000
00000000
10000000
00010000
,
10000000
00000000
01000000
00000000
00010000
00000000
00001000
00010000
,
00001000
00000000
00000100
00000000
00000001
00000000
00000100
00000010
,
00000100
00000000
00000001
00000000
00000010
00000000
00001000
00010000
,
00001000
00000000
00010000
00000000
00100000
00000000
01000000
00100000
,
01000000
00000000
00100000
01000000
00100000
00000000
01000000
10000000
,
00010000
00010000
01000000
01000000
,
00001000
00001000
00010000
00010000
,
00001000
00000100
00000001
00000010
,
00000100
00001000
00000010
00000001
00000010
00001000
00000100
00000000
,
00010000
00000000
00001000
00000000
00010000
00000000
01000000
10000000
,
00010000
00000000
00100000
00000000
01000000
00000000
10000000
00100000
,
01000000
00000000
00001000
00000000
00010000
00000000
00001000
00000100
,
00000001
00000000
00000010
00000010
00000100
00000000
00001000
00001000
,
00000001
00000000
00000100
00000000
00001000
00000000
00010000
01000000
,
00100000
00000000
00010000
00000000
10000000
00000000
00100000
01000000
,
00010000
00000000
00100000
00000000
01000000
00000000
10000000
01000000
,
00010000
00000000
00001000
00001000
00010000
00000000
00010000
00010000
,
00001000
00000100
00000000
00000001
00000010
00000100
00001000
00000000
,
00001001
00000000
00000000
00000000
;

//---------------dance-double - ----------------
#NOTES:
     dance-double:
     :
     Hard:
     8:
     :
00000000
00000000
00000000
00000000
,
00000000
00000000
00000000
00000000
,
00000000
00000000
00000000
00000000
,
00000000
00000000
00000000
00000000
,
00000000
00000000
00000000
00000000
,
00000201
00000000
00000000
00000000
00000000
00000000
00000300
00001000
,
00021000
00000000
00000000
00000000
00000000
00000000
00030000
01000000
,
01200000
00000000
00320000
00000000
,
01030000
00000000
00000000
00000000
00001000
00000000
00000000
00000000
00010000
00000000
00000000
00001000
00010000
00000000
00000100
00000000
,
00002100
00000001
00000010
00013000
,
01020000
10000000
00100000
00031000
,
00002010
00000001
00000100
00013000
,
00120000
10000000
01000000
00031000
,
00002000
00000100
00000001
00000010
,
00023000
01000000
10000000
00100000
,
00032000
00000100
00000001
00000010
,
00023000
01000000
10000000
00130000
,
10010000
00000000
10010000
00000000
10010000
00000000
10000000
00010000
,
01000000
00001000
00010000
00000100
00001000
00000001
00000010
00000100
,
00001000
00000001
00000100
00000001
00000010
00000100
00010000
00000010
,
00001000
00000100
00010000
00001000
00100000
00010000
01000000
00100000
,
10000000
01000000
00010000
01000000
10000000
00100000
01000000
00010000
,
10000000
01000000
00010000
00001000
00000010
00000001
00000100
00000010
,
00001000
00000100
00000001
00000100
00000010
00000001
00000010
00000100
,
00001000
00000010
00010000
00000100
00010000
00001000
00100000
01000000
,
10000000
00100000
00010000
00100000
01000000
00100000
10000000
00010000
,
00100000
01000000
10000000
01000000
00100000
00001000
00010000
00001000
,
00000100
00001000
00010000
01000000
10000000
00100000
01000000
00010000
,
10000000
01000000
00000000
01000000
00100000
00000000
00100000
00010000
00000000
00010000
01000000
00000000
00001000
00000000
00000000
00000000
,
00010000
00000010
00001000
00000010
00000001
00000010
00000100
00000001
,
00001000
00000100
00010000
00000010
00000100
00001000
00010000
01000000
,
10000000
00000000
00100000
01000000
00000000
00000000
00010000
00000000
00100000
00000000
01000000
10000000
00000000
00000000
00010000
00000000
,
10000000
01000000
00010000
00001000
00000010
00000100
00010000
00000100
,
00010000
00000010
00001000
00000100
00010000
00000010
00001000
00000100
,
00010000
00001000
00000100
00000001
00000010
00000001
00001001
00000000
,
00000001
00000100
00000000
00000001
00000000
00001000
00000000
00000010
00000000
00001000
00000000
00000001
00000100
00000000
00001000
00000000
,
00020000
00000000
00032000
00000000
00023000
00000000
01030000
10000000
,
00100000
01000000
00000000
00100000
00000000
10000000
00000000
00010000
00000000
00100000
00000000
01000000
10000000
00000000
00000000
00000000
,
00100000
00010000
00001000
00000010
00001000
00010000
00100000
00010000
,
00001000
00010000
00000000
00001000
00000000
01000000
00000000
00100000
00000000
10000000
00000000
01000000
00010000
00000000
00001000
00000000
,
00000200
00000000
00000320
00000000
00000230
00000000
00000301
00000010
,
00000001
00001000
00000000
00000001
00000000
00000010
00000000
00000001
00000000
00000100
00000000
00000010
00010000
00000000
00000000
00000000
,
00001000
01000000
00010000
00100000
00010000
01000000
00100000
10000000
,
02000000
00000000
00000000
00000000
00000000
00000000
00000000
00000000
13000000
00000000
00000000
00010000
00000000
01000000
00000000
00010000
,
00200000
00000000
00000000
00000000
00000000
00000000
00000000
00000000
00301000
00010000
00000000
00001000
00000000
00010000
00000000
00000000
,
00000200
00002300
00003020
00000032
,
00000013
00000000
00001000
00000000
00000100
00000000
00000001
00000000
00000100
00001000
00000100
00001000
00000000
00000000
00000000
00000000
,
00000001
00000100
00000010
00001000
00000001
00000010
00000100
00010000
,
00002000
00000000
00023000
00000000
00032000
00000000
00013000
00100000
,
10000000
01000000
00100000
00010000
01000000
00100000
00010000
00001000
,
00000010
00000100
00001000
00000001
00000010
00000100
00000001
00000100
,
00010000
00001000
00000010
00000100
00001000
00000010
00010000
00001000
,
00020000
00000000
00032000
00000000
00023000
00000000
00030100
00100000
,
00010000
01000000
00001000
00010000
00000010
00010000
00001000
01000000
,
00010000
00100000
00001000
00010000
00000010
00001000
00000100
00010000
,
00011000
00011000
00000000
00010000
01000000
10000000
00100000
00000000
,
10010000
00000000
00000000
00000000
;

//---------------dance-double - ----------------
#NOTES:
     dance-double:
     :
     Challenge:
     7:
     :
00000000
00000000
00000000
00000000
,
00000000
00000000
00000000
00000000
,
00000000
00000000
00000000
00000000
,
00000000
00000000
00000000
00000000
,
00000000
00000000
00000000
00000000
,
00010000
00000000
00000000
00000000
00000000
00000000
00000000
00000010
,
00000100
00000000
00000000
00000000
00000000
00000000
00000000
00010000
,
00100000
00000000
01000000
00000000
,
00100000
00000000
00000000
00000000
01000000
00000000
00000000
00000000
00010000
00000000
00000000
00001000
00010000
00000000
00001000
00000000
,
00200000
00000000
00000000
00000000
,
00302000
00000000
00000000
00000000
,
00003200
00000000
00000000
00000000
,
00000302
00000000
00000000
00000003
,
00001000
00000001
00000010
00000100
,
00001000
00000001
00000100
00001000
,
00010000
01000000
10000000
00010000
,
00100000
01000000
10000000
00100000
,
00010000
00000000
00010000
00000000
00010000
00000000
00010000
00001000
,
00010000
00001000
00010000
00001000
00010000
00001000
00010000
00000100
,
00000000
00001000
00000000
00000001
00000000
00000010
00000000
00000100
,
00000000
00000010
00000000
00001000
00000000
00010000
00000000
00100000
,
00000000
10000000
00000000
00010000
00000000
01000000
00000000
00100000
,
00000000
10000000
00000000
01000000
00000000
00010000
00000000
00001000
,
00000000
00010000
00000000
00000010
00000000
00001000
00000000
00000100
,
00000000
00000010
00000000
00000001
00000000
00000100
00000000
00001000
,
00000000
00010000
00000000
00001000
00000000
00100000
00000000
00010000
,
00000000
01000000
00000000
00100000
00000000
01000000
00000000
00100000
,
10000000
01000000
00010000
01000000
00010000
00001000
00000100
00000000
,
00000001
00000100
00001000
00000100
00001000
00010000
01000000
00000000
,
00100000
00010000
01000000
00100000
10000000
01000000
00010000
00000000
,
00001000
00000100
00000001
00000010
00000001
00001000
00000100
00000000
,
00000010
00001000
00010000
00100000
00010000
00001000
00000100
00000000
,
00001000
00010000
01000000
00010000
00001000
00000100
00000001
00000000
,
00001000
00000001
00001000
00000001
00000100
00001000
00010000
00100000
,
01000000
00000000
00100000
00000000
00010000
00001000
00000010
00000001
,
00000200
00000000
00000000
00000000
,
00000001
00000000
00000001
00000000
00000301
00000000
00000001
00000100
,
00002000
00000000
00000000
00003000
,
00010000
00100000
10000000
01000000
,
02000000
00000000
00000000
00000000
,
10000000
00000000
10000000
00000000
13000000
00000000
10000000
01000000
,
00020000
00000000
00000000
00030000
,
00001000
00000010
00000001
00000100
,
00001001
00000100
00011000
00010000
,
00101000
01000000
01100000
00010000
,
01001000
00011000
00010100
00011000
,
00100000
00000000
00010000
00000000
00001000
00000000
00000100
00000000
00000001
00000100
00000001
00000100
00000000
00000000
00000000
00000000
,
00000010
00000000
00001000
00000000
00000001
00000000
00000100
00001000
,
00010000
00000000
01000000
00000000
10000000
00000000
00010000
00100000
,
00010000
00000000
10000000
00000000
01000000
00000000
00010000
00001000
,
00000010
00000000
00000001
00000000
00001000
00000001
00000100
00001000
,
00010000
00000000
01000000
00000000
10000000
00000000
00010000
00100000
,
01000000
00000000
10000000
00000000
00010000
00000000
10000000
01000000
,
00010000
00000000
00001000
00000000
00010000
00000000
00100000
00010000
,
00001000
00000100
00000001
00000010
00000001
00000100
00001000
00010000
,
00001000
00000100
00000000
00000001
00001000
00000100
00010000
00000000
,
00011000
00000000
00000000
00000000
;
