#TITLE:All Up In My Face;
#ARTIST:DJ? Acucrack;
#BANNER:All Up In My Face.png;
#BACKGROUND:All Up In My Face-bg.png;
#CDTITLE:./CDTITLES/Dance Dance Revolution UNIVERSE.png;
#MUSIC:All Up In My Face.ogg;
#SAMPLESTART:40.028;
#SAMPLELENGTH:15;
#BPMS:0=144;

//---------------dance-single - ----------------
#NOTES:
     dance-single:
     :
     Beginner:
     1:
     :
0000
0000
0000
0000
,
0000
0000
0000
0000
,
0000
0000
0000
0000
,
0000
0000
0000
0000
,
1000
0000
0000
0000
,
0000
0000
0010
0010
,
0010
0000
0000
0000
,
0000
0000
0100
0100
,
0100
0000
0000
0000
,
0000
0000
0001
0001
,
0001
0000
0000
0000
,
0000
0000
1000
1000
,
1000
0000
0001
0000
,
0100
0000
0000
0000
,
0100
0000
0000
0000
,
0010
0000
0000
0000
,
1000
0000
0001
0000
,
1000
0000
0000
0000
,
0100
0000
0000
0000
,
0010
0000
0000
0000
,
2002
0000
0000
3003
,
0000
0000
0000
0000
,
0220
0000
0000
0330
,
0000
0000
0000
0000
,
1000
0000
1000
0000
,
0001
0000
0000
0000
,
0001
0000
0100
0000
,
0010
0000
0000
0000
,
1000
0000
0001
0000
,
1000
0000
0001
0000
,
0100
0000
0100
0000
,
0010
0000
0000
0000
,
1000
0000
0010
0000
,
0100
0000
0001
0000
,
1000
0000
0001
0000
,
1001
0000
0000
0000
,
0010
0000
0010
0000
,
0100
0000
0100
0000
,
0001
0001
0001
0000
,
1000
1000
1000
0000
,
0100
0000
0001
0000
,
0010
0000
0000
0000
,
0001
0001
0001
0000
,
1000
1000
1000
0000
,
1000
1000
0000
0000
,
0001
0000
0000
0000
,
0010
0010
0000
0000
,
0100
0000
0000
0000
,
0010
0000
0000
0000
,
1000
0000
0000
0000
,
0001
0000
0000
1000
,
1000
0000
0000
0000
,
2002
0000
0000
3003
,
0000
0000
0000
0000
,
1000
0000
0001
0000
,
0100
0000
0100
0000
,
0220
0000
0000
0330
,
0000
0000
0000
0000
,
0100
0000
0001
0000
,
1000
0000
0001
0000
,
1000
0000
0000
0000
;

//---------------dance-single - ----------------
#NOTES:
     dance-single:
     :
     Easy:
     3:
     :
0000
0000
0000
0000
,
0000
0000
0000
0000
,
0000
0000
0000
0000
,
0000
0000
0000
0000
,
0100
0200
0000
0301
,
0010
0001
0000
1000
,
0010
0020
0000
1030
,
0100
1000
0000
0010
,
0100
0002
0000
1003
,
0010
0100
0000
0001
,
1000
0020
0000
0130
,
0001
0010
0000
0100
,
0010
0010
0100
1000
,
0100
0000
0010
0000
,
0001
0001
1000
0001
,
0100
0000
0010
0000
,
0100
0100
0010
1000
,
0100
0000
1000
0000
,
0001
0001
0100
0001
,
0010
0100
0010
0000
,
0100
0100
1000
0010
,
0100
0000
0001
0000
,
0100
0100
0001
1000
,
0100
0000
1000
0000
,
0100
0100
0010
0100
,
1000
0001
0000
1000
,
0001
0010
0100
1000
,
0001
1000
0001
0000
,
1000
1000
0100
0010
,
0001
0010
0001
0010
,
0001
1000
1000
0001
,
1000
1000
0001
0000
,
0100
0100
0001
1000
,
0010
1000
0010
1000
,
0100
0100
0010
0001
,
1000
0100
0010
0000
,
1000
1000
1000
0001
,
0100
0100
0100
0000
,
0010
0010
0010
1000
,
0001
0001
0001
0000
,
0100
0100
0100
0010
,
1000
1000
1000
0000
,
0001
0001
0001
1000
,
0010
0010
0010
0000
,
2000
3010
0000
0100
,
0002
0013
0000
0001
,
0200
0301
0000
0010
,
0200
0310
0000
0001
,
1000
0000
0000
0000
,
0001
0000
0000
0100
,
0001
0000
0000
1000
,
0001
1000
0010
1000
,
0001
0000
0010
0000
,
0100
0000
1000
0000
,
0010
0000
0100
0000
,
0010
0100
0001
1000
,
0010
0000
0100
0000
,
0010
0000
1000
0000
,
0100
0000
0010
0000
,
0100
0000
1000
0000
,
0001
0000
0000
0000
;

//---------------dance-single - ----------------
#NOTES:
     dance-single:
     :
     Medium:
     6:
     :
0000
0000
0000
0000
,
0000
0000
0000
0000
,
0000
0000
0000
0000
,
0000
0000
0000
0000
,
0001
0000
0100
0000
0000
1000
0100
0000
,
0001
0010
0000
0010
,
0100
0000
1000
0000
0000
0010
0001
0000
,
0010
1000
0000
0001
,
1000
0000
0100
0000
0000
0010
0001
0000
,
0100
0010
0000
0100
,
0001
0000
0010
0000
0000
0100
0010
0000
,
0100
0000
1000
0000
0000
0001
1000
0000
,
1000
0001
0010
0001
,
0100
0100
0010
1000
,
0001
0100
0010
1000
,
0010
0001
1000
0000
,
0001
1000
0100
1000
,
0010
0010
0100
0001
,
1000
0010
0100
0001
,
0100
1000
0001
1000
,
0110
0000
0110
0000
,
0110
0000
0010
0100
,
1000
0001
0100
0001
,
0100
1000
0100
0001
,
0010
0100
0010
0001
,
0100
0010
0100
0001
,
1000
1000
0001
0001
,
1000
0010
0100
0000
,
0001
0100
0010
0100
,
1000
0000
0010
0000
1000
0010
0100
0000
,
0010
0000
0100
0000
0001
0010
0100
0000
,
1000
0010
0100
0000
0001
0010
0100
0000
,
1000
1000
0001
1000
,
0001
0000
1000
0000
0010
0100
0001
0000
,
0010
0100
1000
0000
0010
0100
0001
0000
,
0010
0100
1000
0010
0100
0010
1000
0000
,
1001
0000
0001
1000
,
0100
0010
0100
1000
,
0001
0010
0100
0000
0001
0010
0100
0000
,
0010
0001
1000
0010
,
1000
0010
0100
0001
,
0001
0010
0001
0100
,
0010
0100
1000
0000
0010
0100
1000
0000
,
0100
0001
0010
0001
,
0100
1000
0001
0100
,
0010
0100
1000
0000
0001
0000
1000
0001
,
1000
0000
0001
0000
0010
0100
1000
0000
,
0010
0000
0100
0000
0001
0010
0100
1000
,
0010
0200
0000
0000
,
1000
0000
0001
1300
,
0001
0000
0000
0100
,
0001
0010
0100
1000
0010
0100
0001
0000
,
0010
0000
0100
0000
0010
0100
0000
0010
,
0100
0000
0010
0100
0000
0010
0100
0000
,
0001
0010
0100
1000
,
0001
0000
0010
0100
1000
0010
0100
0000
,
0001
0010
0100
0000
1000
0010
0000
1000
,
0010
0000
1000
0010
0000
1000
0010
0000
,
0100
0000
0001
0000
0010
0001
0000
0010
,
0001
0000
0010
0001
0000
0010
0001
0000
,
1000
0000
0000
0000
;

//---------------dance-single - ----------------
#NOTES:
     dance-single:
     :
     Hard:
     7:
     :
0000
0000
0000
0000
,
0000
0000
0000
0000
,
0000
0000
0000
0000
,
0000
0000
0000
0000
,
1000
0000
0011
0000
0000
0010
0100
0000
,
1000
0100
0010
0000
0001
0100
0010
1000
,
0001
0000
1010
0000
0000
1000
0001
0000
,
0010
0100
1000
0000
0001
0010
0100
1000
,
0001
0100
0001
0010
0001
0100
0001
0010
,
0100
1000
0002
0010
0010
0010
0013
0100
,
1000
0100
1000
0010
1000
0100
1000
0010
,
0100
0001
1000
0000
0010
1000
0100
0000
,
0000
0001
0000
1000
0000
0001
0000
1010
,
0000
0011
0000
0100
1000
0010
0100
0001
,
0000
0101
0000
0101
0000
0101
0000
1100
,
0000
0010
0000
0001
0000
0010
0001
0100
,
0000
0001
0000
1000
0000
1100
0000
0110
,
0000
1010
0000
0010
1000
0100
0001
0100
,
0000
0110
0000
0110
0000
0011
0000
1010
,
0000
0100
0000
0001
0000
1000
0000
0001
,
0010
0100
1000
0010
1000
0100
0001
0100
,
1000
0001
0010
0001
0100
1000
0000
0110
,
0000
1010
0000
0110
0000
1010
0000
0110
,
0000
0011
0000
0110
0000
0011
0000
0100
,
0000
1000
0000
0001
0000
0100
0000
0101
,
0000
0101
0000
1010
0000
1010
0000
0001
,
0000
0110
0000
0110
0000
1100
0000
0011
,
0000
1001
0000
1100
0000
0000
0000
0000
,
1000
0100
0010
0001
0010
0100
1000
0010
,
0001
0010
0100
1000
0100
0001
0010
0001
,
0000
0011
0000
0011
0000
1001
0000
1001
,
0000
1100
0000
0110
0000
1010
0000
0001
,
0100
1000
0100
1000
0100
0010
0001
0010
,
1000
0100
0010
0001
0010
0100
0010
0001
,
0000
1010
0000
1010
0000
1010
0000
0101
,
0000
0101
0000
1001
0000
1001
0000
0000
,
1000
0000
0101
0000
1000
0001
1000
0000
,
0001
0000
1010
0000
0001
1000
1000
0001
,
0010
0100
1000
0001
0010
0100
1000
0001
,
0010
0100
1000
0001
0010
0100
1000
0001
,
1000
0000
0101
0000
0000
1000
0001
0000
,
0010
0100
1000
0000
0010
0100
1000
0010
,
0000
0100
0000
0001
0000
0010
0000
0010
,
0010
0001
1000
0100
0010
0001
0100
0000
,
0002
0013
0000
1002
,
0203
0000
0301
0000
1000
0010
0100
1000
,
0200
0301
0000
0210
,
0301
1000
0100
0010
0001
1000
0100
1000
,
0020
0000
0000
0000
,
1030
0000
0000
0000
0001
0010
0001
0010
,
0002
0003
0000
0110
,
0001
0001
0100
0010
1000
0010
0001
0000
,
1000
0100
0010
0000
1000
0100
0010
0001
,
0010
0100
1000
0100
0010
0001
0010
0000
,
1000
0100
0001
0100
1000
0010
0100
0001
,
1000
0100
0020
0000
1000
1000
1030
0000
,
0001
0010
0100
0000
0001
0010
0100
1000
,
0100
0010
0001
0010
0100
1000
0010
0000
,
0001
0010
0100
0000
0001
0010
0000
0001
,
0010
0000
0001
0010
0100
1000
0020
0000
,
0130
0000
0000
0000
;

//---------------dance-double - ----------------
#NOTES:
     dance-double:
     :
     Beginner:
     1:
     :
00000000
00000000
00000000
00000000
,
00000000
00000000
00000000
00000000
,
00000000
00000000
00000000
00000000
,
00000000
00000000
00000000
00000000
,
00001000
00000000
00000000
00000000
,
00000000
00000000
00010000
00010000
,
00010000
00000000
00000000
00000000
,
00000000
00000000
00001000
00001000
,
00001000
00000000
00000000
00000000
,
00000000
00000000
00100000
00100000
,
00100000
00000000
00000000
00000000
,
00000000
00000000
00010000
00010000
,
00010000
00000000
01000000
00000000
,
00100000
00000000
00000000
00000000
,
10000000
00000000
00000000
00000000
,
00010000
00000000
00000000
00000000
,
01000000
00000000
00001000
00000000
,
00010000
00000000
00000000
00000000
,
00000100
00000000
00000000
00000000
,
00001000
00000000
00000000
00000000
,
00001001
00000000
00000000
00000000
,
00000000
00000000
00000000
00000000
,
00000110
00000000
00000000
00000000
,
00000000
00000000
00000000
00000000
,
00010000
00000000
00010000
00000000
,
00001000
00000000
00000000
00000000
,
00100000
00000000
00010000
00000000
,
10000000
00000000
00000000
00000000
,
00010000
00000000
00100000
00000000
,
00001000
00000000
00010000
00000000
,
00000010
00000000
00000100
00000000
,
00000001
00000000
00000000
00000000
,
00001000
00000000
00000100
00000000
,
00010000
00000000
00001000
00000000
,
00010000
00000000
00001000
00000000
,
00011000
00000000
00000000
00000000
,
01000000
00000000
00010000
00000000
,
00100000
00000000
01000000
00000000
,
10000000
10000000
10000000
00000000
,
00010000
00010000
00010000
00000000
,
00100000
00000000
00001000
00000000
,
00010000
00000000
00000000
00000000
,
00000100
00000100
00000100
00000000
,
00001000
00001000
00001000
00000000
,
00000010
00000010
00000000
00000000
,
00000100
00000000
00000000
00000000
,
00000001
00000001
00000000
00000000
,
00001000
00000000
00000000
00000000
,
00000100
00000000
00000000
00000000
,
00010000
00000000
00000000
00000000
,
00001000
00000000
00000000
00100000
,
00100000
00000000
00000000
00000000
,
00022000
00000000
00000000
00033000
,
00000000
00000000
00000000
00000000
,
01000000
00000000
00010000
00000000
,
00100000
00000000
01000000
00000000
,
02200000
00000000
00000000
03300000
,
00000000
00000000
00000000
00000000
,
00100000
00000000
10000000
00000000
,
00010000
00000000
00100000
00000000
,
00001000
00000000
00000000
00000000
;

//---------------dance-double - ----------------
#NOTES:
     dance-double:
     :
     Easy:
     4:
     :
00000000
00000000
00000000
00000000
,
00000000
00000000
00000000
00000000
,
00000000
00000000
00000000
00000000
,
00000000
00000000
00000000
00000000
,
00010000
00002000
00000000
00013000
,
00000100
00001000
00000000
00000001
,
00000100
00000020
00000000
00001030
,
00000100
00000010
00000000
00000001
,
00001000
00000200
00000000
00010300
,
00001000
00100000
00000000
00010000
,
01000000
00020000
00000000
00130000
,
01000000
10000000
00000000
00010000
,
10000000
10000000
00010000
00100000
,
00001000
00000000
00010000
00000000
,
00000100
00000100
00001000
00000010
,
00000100
00000000
00000001
00000000
,
00001000
00001000
00000100
00010000
,
00001000
00000000
00000100
00000000
,
00000001
00000001
00001000
00000100
,
00010000
00001000
00100000
00000000
,
00010000
00010000
01000000
00100000
,
10000000
00000000
00010000
00000000
,
00100000
00100000
01000000
10000000
,
00010000
00000000
00100000
00000000
,
00001000
00001000
00010000
00000100
,
00000010
00000001
00000000
00000100
,
00000010
00001000
00000100
00010000
,
00001000
00100000
00010000
00000000
,
00100000
00100000
01000000
00100000
,
00010000
10000000
00010000
10000000
,
00010000
00100000
00001000
00010000
,
00000100
00000100
00001000
00000000
,
00000010
00000010
00001000
00000001
,
00000100
00000010
00000100
00000010
,
00000100
00000001
00000100
00001000
,
00010000
00100000
10000000
00000000
,
00010000
00010000
00010000
10000000
,
00100000
00100000
00100000
00000000
,
01000000
01000000
01000000
00001000
,
00010000
00010000
00010000
00000000
,
00000100
00000100
00000100
00001000
,
00000010
00000010
00000010
00000000
,
00000100
00000100
00000100
00000001
,
00000010
00000010
00000010
00000000
,
00000200
00000310
00000000
00000100
,
00020000
00031000
00000000
00010000
,
00002000
01003000
00000000
00001000
,
00200000
00310000
00000000
00100000
,
00010000
00000000
00000000
00000000
,
01000000
00000000
00000000
00100000
,
10000000
00000000
00000000
00010000
,
01000000
00010000
00100000
00001000
,
00010000
00000000
00000100
00000000
,
00001000
00000000
00000010
00000000
,
00000100
00000000
00000010
00000000
,
00001000
00000010
00000100
00000001
,
00001000
00000000
00000100
00000000
,
00010000
00000000
00001000
00000000
,
00100000
00000000
00010000
00000000
,
00100000
00000000
01000000
00000000
,
10000000
00000000
00000000
00000000
;

//---------------dance-double - ----------------
#NOTES:
     dance-double:
     :
     Medium:
     6:
     :
00000000
00000000
00000000
00000000
,
00000000
00000000
00000000
00000000
,
00000000
00000000
00000000
00000000
,
00000000
00000000
00000000
00000000
,
00000001
00000000
00000010
00000000
00000000
00000100
00000010
00000000
,
00000001
00001000
00000000
00000100
,
00010000
00000000
01000000
00000000
00000000
00100000
10000000
00000000
,
01000000
00100000
00000000
01000000
,
00100000
00000000
00010000
00000000
00000000
01000000
00100000
00000000
,
01000000
00001000
00000000
00010000
,
00000100
00000000
00000010
00000000
00000000
00000001
00001000
00000000
,
00000100
00000000
00000010
00000000
00000000
00000100
00001000
00000000
,
00000010
00010000
00001000
00100000
,
00010000
00010000
01000000
00100000
,
01000000
00010000
00100000
01000000
,
10000000
01000000
10000000
00000000
,
00100000
01000000
00010000
00100000
,
00001000
00001000
00010000
00000010
,
00000100
00001000
00010000
00001000
,
00010000
00000100
00000010
00000001
,
00001001
00000000
00000110
00000000
,
00011000
00000000
01000000
00010000
,
00100000
01000000
10000000
01000000
,
10000000
01000000
10000000
01000000
,
00010000
00001000
00000100
00000001
,
00001000
00000010
00001000
00000100
,
00010000
00010000
00001000
00001000
,
00100000
00010000
10000000
00000000
,
00100000
10000000
00010000
00100000
,
01000000
00000000
00100000
00000000
00010000
00100000
00001000
00000000
,
00010000
00000000
00000100
00000000
00001000
00000010
00000100
00000000
,
00000001
00000100
00000010
00000000
00001000
00000001
00000100
00000000
,
00000010
00000010
00000100
00000001
,
00001000
00000000
00000100
00000000
00010000
00001000
00100000
00000000
,
00010000
01000000
00100000
00000000
10000000
00010000
01000000
00000000
,
00010000
00100000
00001000
00010000
00001000
00000100
00000010
00000000
,
00000110
00000000
00001000
00000100
,
00000001
00000100
00001000
00000010
,
00001000
00000100
00010000
00000000
00001000
00010000
01000000
00000000
,
10000000
00100000
01000000
00000000
00100000
00000000
00010000
00000000
,
00100000
01000000
00010000
00100000
,
00001000
00010000
00000100
00000010
,
00000001
00001000
00000100
00000000
00000010
00000001
00000100
00000000
,
00000010
00001000
00000100
00010000
,
00001000
00100000
01000000
10000000
,
00010000
01000000
00100000
00000000
10000000
00000000
01000000
00100000
,
00010000
00000000
00100000
00000000
00001000
00000100
00000010
00000000
,
00001000
00000000
00000001
00000000
00000100
00000010
00001000
00000100
,
00000010
00000200
00000000
00010000
,
00000000
00000000
00001000
00010300
,
00001000
00000000
00000000
00100000
,
01000000
00100000
00010000
00100000
00001000
00010000
00001000
00000000
,
01000000
00000000
00100000
00000000
10000000
01000000
00000000
10000000
,
00010000
00000000
00100000
00010000
00000000
00100000
00001000
00000000
,
00000100
00000010
00000100
00000001
,
00000100
00000000
00000010
00010000
00001000
01000000
00100000
00000000
,
10000000
00010000
01000000
00000000
00100000
10000000
00000000
00100000
,
01000000
00000000
00010000
00100000
00000000
00010000
01000000
00000000
,
00100000
00000000
01000000
00000000
00001000
00010000
00000000
00001000
,
00000100
00000000
00000010
00001000
00000000
00000010
00000100
00000000
,
00000001
00000000
00000000
00000000
;

//---------------dance-double - ----------------
#NOTES:
     dance-double:
     :
     Hard:
     7:
     :
00000000
00000000
00000000
00000000
,
00000000
00000000
00000000
00000000
,
00000000
00000000
00000000
00000000
,
00000000
00000000
00000000
00000000
,
00001000
00000000
00000110
00000000
00000000
00000001
00000010
00000000
,
00000100
00001000
00000010
00000000
00010000
00001000
00010000
01000000
,
00100000
00000000
00110000
00000000
00000000
01000000
00100000
00000000
,
10000000
01000000
00100000
00000000
00010000
00100000
00010000
01000000
,
00001000
00010000
00001000
00010000
00000100
00000010
00000001
00000100
,
00000010
00001000
00000200
00000010
00000010
00000010
00000310
00000001
,
00001000
00000100
00010000
00001000
00100000
00010000
01000000
00010000
,
10000000
00100000
01000000
00000000
00010000
00100000
01000000
00000000
,
00000000
10000000
00000000
01000000
00000000
00010000
00000000
00011000
,
00000000
00000110
00000000
00000001
00000100
00000010
00000001
00000010
,
00000000
00001010
00000000
00000101
00000000
00001001
00000000
00001100
,
00000000
00010000
00000000
00001000
00000000
00010000
01000000
10000000
,
00000000
00100000
00000000
01000000
00000000
01010000
00000000
00110000
,
00000000
00011000
00000000
00010000
00001000
00000100
00001000
00010000
,
00000000
00011000
00000000
00011000
00000000
00001100
00000000
00000011
,
00000000
00000100
00000000
00000010
00000000
00001000
00000000
00000001
,
00000100
00001000
00010000
00001000
00010000
00100000
10000000
00010000
,
01000000
00100000
00010000
00100000
00010000
01000000
00000000
00110000
,
00000000
00011000
00000000
00110000
00000000
00011000
00000000
00001100
,
00000000
00011000
00000000
00001100
00000000
00011000
00000000
00000100
,
00000000
00001000
00000000
00000010
00000000
00000100
00000000
00000110
,
00000000
00000110
00000000
00001001
00000000
00001001
00000000
00000100
,
00000000
00011000
00000000
00011000
00000000
01100000
00000000
10010000
,
00000000
00110000
00000000
10100000
00000000
00000000
00000000
00000000
,
00100000
10000000
00010000
00100000
00001000
00010000
01000000
00100000
,
00001000
00010000
00000100
00000010
00000100
00000001
00000010
00000100
,
00000000
00001100
00000000
00001100
00000000
00000110
00000000
00000110
,
00000000
00000101
00000000
00001100
00000000
00011000
00000000
00001000
,
01000000
00100000
10000000
00010000
01000000
00010000
00100000
01000000
,
10000000
00010000
01000000
00100000
10000000
00010000
00100000
00010000
,
00000000
00110000
00000000
00011000
00000000
00001100
00000000
00001001
,
00000000
00000101
00000000
00000110
00000000
00000110
00000000
00000000
,
00000010
00000000
00001010
00000000
00001000
00000100
00010000
00000000
,
00001000
00000000
00110000
00000000
01000000
00100000
10000000
01000000
,
00010000
00001000
00000100
00000001
00000010
00000001
00000100
00001000
,
00010000
00100000
10000000
01000000
10000000
00100000
01000000
00100000
,
01000000
00000000
01100000
00000000
00000000
01000000
00001000
00000000
,
00010000
00001000
00000100
00000000
00000010
00001000
00000100
00000010
,
00000000
00000100
00000000
00001000
00000000
00000010
00000000
00000100
,
00000100
00000001
00000010
00000100
00001000
00000100
00010000
00000000
,
00002000
00013000
00000000
00011000
,
00020000
00000000
01030000
00000000
00100000
00010000
10000000
01000000
,
00200000
00310000
00000000
11000000
,
10000000
00100000
10000000
00010000
01000000
00010000
00100000
00001000
,
00020000
00000000
00000000
00000000
,
00030100
00000000
00000000
00000000
00001000
00000010
00001000
00000010
,
00000200
00000300
00000000
00000110
,
00000010
00000000
00001000
00000100
00000010
00000100
00001000
00000000
,
00001000
00000100
00010000
00001000
01000000
00100000
10000000
01000000
,
00010000
01000000
10000000
00100000
01000000
00010000
10000000
00000000
,
10000000
01000000
00010000
01000000
10000000
00100000
01000000
00010000
,
00100000
00001000
00020000
00000000
00001000
00001000
00031000
00000000
,
00010000
00001000
00000100
00000000
00000010
00000100
00000001
00000010
,
00000100
00001000
00000100
00000001
00000100
00001000
00000010
00000000
,
00000100
00000001
00001000
00000000
00000100
00010000
00000000
00001000
,
01000000
00100000
10000000
01000000
10000000
00010000
20000000
00000000
,
30010000
00000000
00000000
00000000
;
