#TITLE:What is Love?;
#SUBTITLE:;
#ARTIST:TOMOSUKE;
#TITLETRANSLIT:;
#SUBTITLETRANSLIT:;
#ARTISTTRANSLIT:;
#GENRE:;
#CREDIT:;
#MUSIC:what_main.ogg;
#BANNER:what_th.png;
#BACKGROUND:what_bk.png;
#CDTITLE:;
#SAMPLESTART:8.244;
#SAMPLELENGTH:15.470;
#SELECTABLE:YES;
#OFFSET:-1.460;
#BPMS:0.000=131.387
,8.000=130.009
,176.000=130.435
;
#STOPS:;
#DISPLAYBPM:130.000:131.000;
#Stops:;
#BGCHANGES:;
#FGCHANGES:;

//--------------- dance-single - ----------------
#NOTES:
     dance-single:
     :
     Easy:
     4:
     0,0,0,0,0:
0000
0000
0000
0000
,
0000
0000
0000
0000
,
1000
0000
0000
0000
,
0001
0000
0010
0100
,
1000
0000
1000
0000
,
0001
0000
0001
0000
,
1000
0000
1000
0000
,
0001
0000
0001
0000
,
0100
0010
0100
0000
,
0010
0100
0010
0000
,
0100
0010
0100
0000
,
0010
0100
0010
0010
,
1001
0000
1000
0000
,
1001
0000
0001
0000
,
1001
0000
0100
0000
,
1001
0000
0010
0000
,
1000
1000
0001
0000
,
0001
0001
1000
0000
,
1000
1000
0001
0000
,
0001
0001
1000
0000
,
0010
0100
0010
0001
,
0010
0100
0010
0000
,
1000
0001
1000
0100
,
0001
1000
0001
0000
,
0100
0010
0100
1000
,
0100
0010
0100
0000
,
1000
0001
1000
0000
,
0001
1000
0001
0100
,
1001
0100
0010
0000
,
1000
0100
0010
0000
,
1001
0100
0010
0000
,
0001
0100
0010
0000
,
1000
1000
0001
0000
,
0001
0001
1000
0000
,
1000
1000
0100
0000
,
0001
0001
0010
0000
,
1000
1000
0010
0100
,
0001
0001
0010
0100
,
1000
1000
0010
0100
,
0001
0001
0010
0100
,
1000
1000
0000
0100
,
0001
0001
0000
0100
,
1000
1000
1000
1000
,
0001
0001
0000
0100
,
1001
0000
0000
0000
;

//--------------- dance-single - ----------------
#NOTES:
     dance-single:
     :
     Medium:
     7:
     0,0,0,0,0:
0000
0000
0000
0000
,
0000
0000
0000
0000
,
1000
0000
0000
0000
,
0001
0000
0010
0100
,
1000
1000
1000
0000
,
0001
0001
0001
0000
,
1000
1000
1000
0000
,
0001
0001
0001
0000
,
0100
0010
0100
0100
,
0010
0100
0010
0010
,
0100
0010
0100
0100
,
0010
0100
0010
0010
,
1001
0000
1000
0100
,
1001
0000
0001
0100
,
1001
0000
1000
0100
,
1001
0000
0001
0010
,
1000
1000
0001
0110
,
0001
0001
1000
0110
,
1000
1000
0010
1001
,
0001
0001
0010
1001
,
1010
0000
0100
1000
0010
0000
1000
0000
,
1010
0100
0010
0100
,
1001
0000
0000
0001
1000
0000
0101
0000
,
0011
1000
0001
0010
,
1100
0000
0010
1000
0100
0000
1000
0000
,
0101
0010
0100
0001
,
0001
0000
1000
0001
0100
0000
0001
0000
,
0001
0000
1000
0000
0100
0100
0100
0000
,
0010
1000
0000
0001
0010
0001
0000
1000
,
0000
0001
0100
0001
0000
1000
0100
1000
,
0010
1000
0000
0001
0010
0001
0000
1000
,
0000
0001
0100
0001
0000
1000
0100
1000
,
0001
1000
1001
0000
,
0001
0001
1001
0000
,
1000
1000
0110
0000
,
0001
0001
0110
0000
,
1000
1000
0010
0100
,
0001
0001
0010
0100
,
1000
1000
0010
0100
,
0001
0001
0010
0100
,
1000
0001
1000
0000
0010
0100
0010
0000
,
0001
1000
0001
0000
0100
0010
0100
0000
,
1000
0001
1000
0000
1001
0000
1000
0000
,
0001
0100
0001
0100
0000
0000
0100
0000
,
1001
0000
0000
0000
;

//--------------- dance-single - ----------------
#NOTES:
     dance-single:
     :
     Hard:
     10:
     0,0,0,0,0:
0000
0000
0000
0000
,
0000
0000
0000
0000
,
1000
0001
0010
0000
,
0001
1000
0100
0000
,
1000
0001
1000
0001
1000
0000
0000
0000
,
0001
1000
0001
1000
0001
0000
0000
0000
,
1000
0001
1000
0001
1000
0000
0000
0000
,
0001
1000
0001
1000
0001
0000
0100
0000
,
0100
0100
0010
0000
0100
0000
0100
0000
,
0010
0010
0100
0000
0010
0000
0010
0000
,
0100
0100
0010
0000
0100
0000
0100
0000
,
0010
0010
0100
0000
0010
0000
0010
0000
,
1001
1000
0000
0000
1000
0100
0100
0000
,
1001
0001
0000
0000
0001
0100
0100
0000
,
1001
1000
0000
0000
1000
0100
0100
0000
,
1001
0001
0000
0000
0001
0010
0010
0000
,
1000
0100
1000
0100
0010
0000
0110
0000
,
0001
0010
0001
0010
1000
0000
0110
0000
,
1000
0100
1000
0100
0010
0000
1001
0000
,
0001
0010
0001
0010
0100
0000
1001
0000
,
1010
0000
0100
1000
0010
0000
1000
0000
,
1010
0000
0100
0001
0010
0001
0100
0000
,
1001
0000
0100
0001
1000
0000
0101
0000
,
0011
0100
1000
0100
0010
0000
0001
0000
,
1100
0000
0010
1000
0100
0000
1001
0000
,
0101
1000
0010
1000
0100
0000
1000
0000
,
0101
0000
1000
0001
0100
0000
0011
0000
,
0001
0000
1000
0000
0100
0100
0100
0000
,
0010
1000
0001
1000
0010
1000
0001
1000
,
0001
1000
0010
1000
0001
1000
0010
1000
,
0100
1000
0001
1000
0010
1000
0001
1000
,
0001
1000
0010
1000
0001
1000
0010
1000
,
0001
0100
0001
0000
1001
0000
0010
0000
,
0001
0010
0001
0000
1001
0000
0100
0000
,
1000
0100
1000
0000
0110
0000
1001
0000
,
0001
1000
0001
0000
0110
0000
0100
0000
,
1000
0001
1000
0000
0110
0000
0010
0000
,
0001
1000
0001
0000
0110
0000
0100
0000
,
1000
0001
1000
0000
0110
0000
0010
0000
,
0001
0001
0010
0100
,
1000
0001
1000
0010
0100
0010
0100
0000
,
0001
1000
0001
0000
0100
0010
0100
0000
,
0001
1000
0001
0000
1001
0000
1010
0000
,
0001
0100
0001
0100
0000
0000
0100
0000
,
1001
0000
0000
0000
;

//--------------- dance-double - ----------------
#NOTES:
     dance-double:
     :
     Easy:
     4:
     0,0,0,0,0:
00000000
00000000
00000000
00000000
,
00000000
00000000
00000000
00000000
,
10000000
00000000
00000000
00000000
,
00010000
00000000
00100000
01000000
,
10000000
00000000
01000000
00000000
,
00100000
00000000
00001000
00000000
,
00010000
00000000
00000100
00000000
,
00001000
00000000
00000001
00000000
,
00000010
00000100
00010000
00000000
,
00001000
01000000
00100000
00000000
,
01000000
00001000
00010000
00000000
,
00000010
00000100
00001001
00000010
,
00010000
00000000
00001000
00000000
,
00100000
00000000
01000000
00000000
,
10010000
00000000
01000000
00000000
,
00011000
00000000
00000010
00000000
,
00001000
00000100
00010000
00000000
,
00001000
01000000
00001000
00000000
,
00010000
00000100
00000100
00000000
,
00000010
00000001
00001000
00000000
,
00000010
00000100
00000010
00010000
,
00001000
01000000
00100000
00000000
,
10000000
00010000
01000000
00001000
,
00010000
00000100
00001000
00000000
,
00000010
00000100
00000001
00001000
,
00000100
00000010
00000100
00000000
,
00010000
00001000
00100000
00000000
,
00010000
10000000
00010000
01000000
,
10010000
01000000
00100000
00001000
,
00000000
00010000
00000010
00000000
,
00001000
00001001
00000100
00000000
,
00000001
00000100
00000010
00000000
,
00010000
00001000
00100000
00000000
,
00010000
10000000
10000000
00000000
,
00010000
01000000
00001000
00000000
,
00010000
00000100
00000010
00000000
,
00000001
00000001
00000010
00000100
,
00001000
00000001
00000010
00000100
,
00001000
00001000
00000010
00000100
,
00000001
00000001
00000010
00000100
,
00001000
00000100
00000000
00010000
,
00001000
00100000
00000000
01000000
,
10000000
10000000
10000000
10000000
,
00010000
00010000
00000000
01000000
,
10010000
00000000
00000000
00000000
;

//--------------- dance-double - ----------------
#NOTES:
     dance-double:
     :
     Medium:
     7:
     0,0,0,0,0:
00000000
00000000
00000000
00000000
,
00000000
00000000
00000000
00000000
,
10000000
00000000
00000000
00000000
,
00010000
00000000
00100000
01000000
,
10000000
10000000
10000000
00000000
,
00010000
00100000
00001000
00000000
,
00010000
00000100
00001000
00000000
,
00000001
00000001
00000001
00000000
,
00000100
00000001
00001000
00000100
,
00000010
00000100
00010000
00001000
,
00100000
00010000
01000000
10010000
,
00100000
01000000
10010000
00100000
,
00001000
00000000
00010000
00000100
,
00001100
00000000
00000001
00000010
,
00001100
00000000
00011000
00100000
,
01000000
00000000
10010000
00100000
,
01000000
00001000
00010000
00000100
,
00001100
00000001
00001000
00000110
,
00001000
00001000
00000010
00010000
,
00011000
01000000
00100000
10010000
,
10100000
00000000
01000000
10000000
00100000
00000000
10000000
00000000
,
10010000
01000000
00001000
00010000
,
00000100
00000000
00000010
00001001
,
00001100
00010000
00001000
00100000
,
01010000
00000000
00010000
10000000
01000000
00000000
10000000
00000000
,
01010000
00100000
00001000
00010000
,
00000100
00000000
00001000
00000001
00000100
00000000
00000001
00000000
,
00001000
00000000
00000100
00000000
00010000
00001000
00100000
00000000
,
01000000
10000000
00000000
00010000
00100000
00010000
00000000
10000000
,
00000000
00010000
01000000
00010000
00000000
01000000
00001000
00010000
,
00000010
00001000
00000000
00000001
00000010
00000001
00000000
00001000
,
00000000
00000001
00000100
00000001
00000000
00001000
00000100
00001000
,
00000001
00001000
00000100
00000000
,
00011000
00100000
01000000
00000000
,
01100000
10000000
10010000
00000000
,
00010000
00100000
00011000
00000000
,
00001000
00010000
00000010
00000100
,
00000001
00000001
00000010
00000100
,
00010000
00001000
00100000
01000000
,
00010000
00010000
00100000
01000000
,
10000000
00010000
01000000
00000000
00001000
00010000
00000000
00000000
,
00000010
00001000
00000001
00000000
00000100
00000010
00010000
00001000
,
00000000
01000000
00100000
00000000
01000000
00000000
10010000
00000000
,
00000000
01000000
00000000
01000000
00000000
00000000
01000000
00000000
,
10000000
00000000
00000000
00000000
;

//--------------- dance-double - ----------------
#NOTES:
     dance-double:
     :
     Hard:
     10:
     0,0,0,0,0:
00000000
00000000
00000000
00000000
,
00000000
00000000
00000000
00000000
,
10000000
00010000
00100000
00000000
,
00010000
10000000
01000000
00000000
,
10000000
00010000
01000000
00001000
00010000
00000000
00000000
00000000
,
00000010
00001000
00000001
00001000
00000001
00000000
00000000
00000000
,
00001000
00000100
00010000
00001000
00100000
00000000
00000000
00000000
,
00010000
10000000
00010000
10000000
00010000
00000000
01000000
00000000
,
01000000
01000000
00001000
00000000
00010000
00000000
00000100
00000000
,
00000010
00000110
00000100
00000000
00000010
00000000
00001001
00000000
,
00000010
00001000
00000100
00000000
00010000
00000000
00001000
00000000
,
00100000
00010000
01000000
00000000
00100000
00000000
00100000
00000000
,
10010000
10000000
00000000
00000000
10000000
01000000
01000000
00000000
,
10010000
00010000
00000000
00000000
10000000
00010000
01000000
00000000
,
01010000
01000000
00000000
00000000
00001000
00010000
00000100
00000000
,
00000010
00000001
00000000
00000000
00000010
00000100
00000100
00000000
,
00010000
00000100
00010000
00001000
01000000
00000000
00100000
00000000
,
10000000
00100000
01000000
00100000
10000000
00000000
01100000
00000000
,
10000000
01000000
00100000
00001000
00010000
00000000
00011000
00000000
,
00000100
00000010
00000001
00000010
00000100
00000000
00001000
00000000
,
00001100
00000000
00000100
00010000
00011000
00000000
01000000
00000000
,
01010000
00000000
10000000
00010000
00100000
00001000
00010000
00000000
,
00000010
00000000
00001000
00000100
00010000
00000000
00001000
00000000
,
00110000
01000000
10000000
01000000
00100000
00000000
00001000
00000000
,
00011000
00000000
00000010
00001000
00000100
00000000
00011000
00000000
,
00100000
01000000
10000000
00010000
00100000
00000000
00001000
00000000
,
00010000
00000000
00000010
00001000
00000100
00000000
00010000
00000000
,
00011000
00000000
00110000
00000000
10000000
01000000
00100000
00000000
,
00001000
00010000
00000010
00001000
00000001
00001000
00000100
00010000
,
00001000
00100000
01000000
10000000
00100000
10000000
01000000
00100000
,
00001000
00010000
00000100
00001000
00000001
00001000
00000010
00001000
,
00000100
00010000
00001000
00100000
01000000
10000000
01000000
00100000
,
00001000
00010000
00000100
00000000
00001100
00000000
00000010
00000000
,
00010000
00001000
00100000
00000000
01000000
00000000
01100000
00000000
,
10000000
01000000
10000000
00000000
01100000
00000000
10010000
00000000
,
10000000
00010000
10000000
00000000
01000000
00000000
00100000
00000000
,
00001000
00010000
00000100
00000000
00000110
00000000
00000010
00000000
,
00000001
00001000
00000001
00000000
00000110
00000000
00000100
00000000
,
00001000
00000001
00001000
00000000
00000101
00000000
00000010
00000000
,
00010000
00011000
00100000
01000000
,
10010000
00010000
10000000
01000000
00100000
00000000
00001000
00000000
,
00010000
00011000
00000000
00000000
00000100
00000010
00000100
00000000
,
00000010
00000001
00001000
00000000
00001001
00000000
00001100
00000000
,
00010000
00001000
00100000
01000000
00000000
00000000
10000000
00000000
,
10010000
00000000
00000000
00000000
;
