#TITLE:THE EARTH LIGHT;
#SUBTITLE:;
#ARTIST:L.E.D. LIGHT;
#TITLETRANSLIT:;
#SUBTITLETRANSLIT:;
#ARTISTTRANSLIT:;
#GENRE:;
#CREDIT:;
#MUSIC:nazo_main.ogg;
#BANNER:nazo_th.png;
#BACKGROUND:nazo_bk.png;
#CDTITLE:;
#SAMPLESTART:1.781;
#SAMPLELENGTH:15.000;
#SELECTABLE:YES;
#OFFSET:-1.790;
#BPMS:0.000=145.161
,17.000=145.082
,76.000=144.945
,184.000=144.869
,216.000=145.161
;
#STOPS:;
#DISPLAYBPM:144.000:145.000;
#Stops:;
#BGCHANGES:;
#FGCHANGES:;

//--------------- dance-double - ----------------
#NOTES:
     dance-double:
     :
     Easy:
     9:
     0,0,0,0,0:
00000000
00000000
00000000
00000000
,
00000000
00000000
00000000
00000000
,
00000000
00000000
00000000
00000000
,
00000000
00000000
00000000
00000000
,
00000000
01000000
00000000
01000000
,
00000000
00010000
00000000
00010000
,
00000000
00001000
00001000
00001000
,
00000100
00000100
00000100
00000100
,
00000001
00000100
00001000
00010000
,
00100000
00010000
00001000
00000100
,
00001000
00010000
00100000
00001000
,
00010000
00001000
00000100
00000001
,
00000110
00001000
00010000
01100000
,
00100000
00100000
10000000
00100000
,
00010000
00001000
00000100
00001100
,
00000110
00001000
00000110
00001000
,
00000101
00000000
00000000
00000000
,
00000000
00000000
00000000
00000000
00000000
00000000
00000000
00000010
,
00000100
00000000
00000000
00000000
,
00000010
00001000
00000100
00000010
,
00001100
00000000
00000011
00000000
00001000
00010000
01000000
00000000
,
11000000
00000000
10000000
00000000
10000000
01000000
00010000
00000000
,
00010000
00000000
01010000
00000000
00010000
01000000
10000000
00000000
,
10000000
00000000
01100000
00000000
00010000
00000000
00010000
00001000
,
00010100
00000000
00001000
00000000
00000010
00001000
00010000
00000000
,
10010000
00000000
01100000
00000000
00010000
00001000
00000100
00000000
,
00000011
00000000
00000101
00000000
00000010
00000001
00000100
00000000
,
00001100
00000000
00000110
00000000
00000010
00001000
00000100
00000000
,
00000001
00000000
00000001
00000000
00000001
00000100
00001000
00000000
,
01000000
00000000
10000000
00000000
10000000
01000000
00010000
00000000
,
00100000
00000000
10000000
00000000
01000000
10000000
00010000
00000000
,
00100000
00000000
00100000
00000000
00100000
10000000
01000000
00000000
,
01010000
00000000
00001000
00000000
01000000
00010000
00001000
00000000
,
00000110
00000000
00000010
00000000
00001000
00000010
00000001
00000000
,
00000100
00000000
00000010
00000000
00000001
00001000
00010000
00000000
,
00010100
00000000
00011000
00000000
01000000
10000000
00010000
00000000
,
00100000
00000000
00000000
00100000
00000000
00000000
00100000
00000000
00000000
00000000
00000000
00000000
00000000
00000000
00000000
00000000
,
00100000
00010000
00100000
00010000
00100000
00010000
00001000
00000000
,
00000100
00000000
00000000
00000100
00000000
00000000
00000100
00000000
00000000
00000000
00000000
00000000
00000000
00000000
00000000
00000000
,
00001000
00000100
00001000
00000100
00001000
00000100
00000001
00000000
,
00000001
00000000
00000000
00000001
00000000
00000000
00000001
00000000
00000000
00000000
00000000
00000000
00000000
00000000
00000000
00000000
,
00000010
00000000
00000000
00000010
00000000
00000000
00000010
00000000
00000000
00000000
00000000
00000000
00000000
00000000
00000000
00000000
,
00001000
00000000
00000000
00001000
00000000
00000000
00001000
00000000
00000000
00000000
00000000
00000000
00000000
00000000
00000000
00000000
,
00000001
00000100
00001000
00000100
00000001
00000100
00001000
00000000
,
00001000
00000000
00000000
00001000
00000000
00000000
00001000
00000000
00000000
00000000
00000000
00000000
00000000
00000000
00000000
00000000
,
00000000
00000000
00000000
00000000
,
00000110
00000000
00000000
00000000
00000100
00001000
00010000
00000000
,
00010010
00000000
00001000
00000000
00100000
00010000
00001000
00000000
,
01010000
00000000
00100000
00000000
10000000
01000000
00010000
00000000
,
01100000
00000000
00100000
00000000
01000000
10000000
00100000
00000000
,
01100000
00000000
10000000
00000000
01000000
00010000
00001000
00000000
,
00101000
00000000
00010000
00000000
00000010
00001000
00010000
00000000
,
00001100
00000000
00000010
00000000
00000001
00000100
00001000
00000000
,
00000110
00000010
00000001
00000010
,
00000100
00000000
00000000
00000000
;

//--------------- dance-double - ----------------
#NOTES:
     dance-double:
     :
     Medium:
     11:
     0,0,0,0,0:
00000000
00000000
00000000
00000000
,
00000000
00000000
00000000
00000000
,
00000000
00000000
00000000
00000000
,
00000000
00000000
00000000
00000000
,
01000000
10000000
01000000
10000000
,
00100000
00010000
00001000
00000101
,
00001100
00000101
00001000
00000100
,
00001000
00001000
00001000
00001000
,
00000010
00000001
00000100
00000000
00000010
00000001
00000100
00001000
,
00010000
01000000
10000000
00000000
00010000
01000000
10000000
01000000
,
00010000
00001000
00010000
00000000
00010000
00001000
00010000
01000000
,
00010000
00001000
00000010
00000000
00010000
00001000
00000010
00000001
,
00000010
00001000
00000010
00000000
00000010
00001000
00000010
00001000
,
00010000
00001000
00000100
00000000
00010000
00001000
00000100
00000001
,
00001000
00000001
00000010
00000000
00001000
00000001
00000010
00000100
,
00001000
00000010
00000100
00000000
00001000
00000010
00000100
00001000
,
00010000
00000000
01001000
00011000
,
00001000
00000000
00010100
00011000
,
00010000
00000000
00101000
00011000
,
00001000
00000000
00010010
00011000
,
01000000
10000000
00010000
00000000
00010000
10000000
01000000
00010000
,
00001000
00000010
00000001
00000000
00000001
00000010
00001000
00010000
,
00001000
00000100
00000001
00000000
00000001
00000100
00001000
00000100
,
00000001
00000010
00000001
00000000
00000001
00000010
00000001
00000100
,
00000001
00001000
00000100
00000000
00000100
00001000
00000001
00000100
,
00001000
00010000
00100000
00000000
00100000
00010000
00001000
00010000
,
00000000
00010000
01001000
00000000
00001000
00010000
01000000
10000000
,
01000000
00010000
00100000
00000000
00100000
00010000
01000000
10000000
,
10000000
01000000
01000000
00010000
,
10010000
00100000
00100000
01000000
,
00010000
00001000
00001000
00000100
,
00000010
00000101
00000101
00000010
,
00001000
00010000
00010000
01000000
,
00010000
10000000
10000000
00010000
,
00001000
00000001
00000001
00000110
,
00001000
00000001
00000001
00000100
,
00000010
00000000
00000000
00000010
00000000
00000000
00000010
00000000
00000000
00000000
00000000
00000000
00000000
00000000
00000000
00000000
,
00000000
00000000
00000000
00000000
,
00000100
00000000
00000000
00000100
00000000
00000000
00000100
00000000
00000000
00000000
00000000
00000000
00000000
00000000
00000000
00000000
,
00000000
00000000
00000000
00000000
,
00001000
00000000
00000000
00001000
00000000
00000000
00001000
00000000
00000000
00000000
00000000
00000000
00000000
00000000
00000000
00000000
,
00010000
00000000
00000000
00010000
00000000
00010000
00000000
00000000
00000000
00000000
00000000
00000000
00000000
00000000
00000000
00000000
,
01000000
00000000
00000000
01000000
00000000
00000000
01000000
00000000
00000000
00000000
00000000
00000000
00000000
00000000
00000000
00000000
,
00000000
00000000
00000000
00000000
,
10000000
00000000
00000000
10000000
00000000
00000000
10000000
00000000
00000000
00000000
00000000
00000000
00000000
00000000
00000000
00000000
,
00000000
00000000
00000000
00000000
,
00010000
00001000
00000010
00000001
00000010
00001000
00010000
00000000
,
00001000
00010000
00100000
10000000
00100000
00010000
00001000
00000000
,
00010000
00001000
00000100
00000001
00000100
00001000
00010000
00000000
,
00001000
00010000
01000000
10000000
01000000
00010000
00001000
00000000
,
00001000
00010000
00001000
00000100
00001000
00000100
00000001
00000000
,
00000001
00000100
00001000
00000100
00001000
00010000
00001000
00000000
,
01000000
10000000
00100000
10000000
01000000
10000000
00010000
00000000
,
01000000
00010000
00001000
00010000
01000000
00010000
00001000
00000100
,
00000001
00000000
00000000
00000000
;

//--------------- dance-double - ----------------
#NOTES:
     dance-double:
     :
     Hard:
     11:
     0,0,0,0,0:
00000000
00000000
00000000
00000000
,
00000000
00000000
00000000
00000000
,
00000000
00000000
00000000
00000000
,
00000000
00000000
00000000
00000000
,
01000000
10000000
01000000
10000000
,
00100000
00010000
00001000
00000101
,
00001100
00000101
00001000
00000100
,
00001000
00001000
00001000
00001000
,
00000010
00000001
00000100
00000000
00000010
00000001
00000100
00001000
,
00010000
01000000
10000000
00000000
00010000
01000000
10000000
01000000
,
00010000
00001000
00010000
00000000
00010000
00001000
00010000
01000000
,
00010000
00001000
00000010
00000000
00010000
00001000
00000010
00000001
,
00000010
00001000
00000010
00000000
00000010
00001000
00000010
00001000
,
00010000
00001000
00000100
00000000
00010000
00001000
00000100
00000001
,
00001000
00000001
00000010
00000000
00001000
00000001
00000010
00000100
,
00001000
00000010
00000100
00000000
00001000
00000010
00000100
00001000
,
00010000
00000000
01001000
00011000
,
00001000
00000000
00010100
00011000
,
00010000
00000000
00101000
00011000
,
00001000
00000000
00010010
00011000
,
01000000
10000000
00010000
00000000
00010000
10000000
01000000
00010000
,
00001000
00000010
00000001
00000000
00000001
00000010
00001000
00010000
,
00001000
00000100
00000001
00000000
00000001
00000100
00001000
00000000
,
00000001
00000010
00000001
00000000
00000001
00000010
00000001
00000100
,
00000001
00001000
00000100
00000000
00000100
00001000
00000001
00000100
,
00001000
00010000
00100000
00000000
00100000
00010000
00001000
00010000
,
01000000
00010000
00001000
00000000
00001000
00010000
01000000
10000000
,
01000000
00010000
00100000
00000000
00100000
00010000
01000000
10000000
,
10000000
01000000
01000000
00010000
,
10010000
00100000
00100000
01000000
,
00010000
00001000
00001000
00000100
,
00000010
00000101
00000101
00000010
,
00001000
00010000
00010000
01000000
,
00010000
10000000
10000000
00010000
,
00001000
00000001
00000001
00000110
,
00001000
00000001
00000001
00000100
,
00000010
00000000
00000000
00000010
00000000
00000000
00000010
00000000
00000000
00000000
00000000
00000000
00000000
00000000
00000000
00000000
,
00000000
00000000
00000000
00000000
,
00000100
00000000
00000000
00000100
00000000
00000000
00000100
00000000
00000000
00000000
00000000
00000000
00000000
00000000
00000000
00000000
,
00000000
00000000
00000000
00000000
,
00001000
00000000
00000000
00001000
00000000
00000000
00001000
00000000
00000000
00000000
00000000
00000000
00000000
00000000
00000000
00000000
,
00010000
00000000
00000000
00010000
00000000
00010000
00000000
00000000
00000000
00000000
00000000
00000000
00000000
00000000
00000000
00000000
,
01000000
00000000
00000000
01000000
00000000
00000000
01000000
00000000
00000000
00000000
00000000
00000000
00000000
00000000
00000000
00000000
,
00000000
00000000
00000000
00000000
,
10000000
00000000
00000000
10000000
00000000
00000000
10000000
00000000
00000000
00000000
00000000
00000000
00000000
00000000
00000000
00000000
,
00000000
00000000
00000000
00000000
,
00010000
00001000
00000010
00000001
00000010
00001000
00010000
00000000
,
00001000
00010000
00100000
10000000
00100000
00010000
00001000
00000000
,
00010000
00001000
00000100
00000001
00000100
00001000
00010000
00000000
,
00001000
00010000
01000000
10000000
01000000
00010000
00001000
00000000
,
00001000
00010000
00001000
00000100
00001000
00000100
00000001
00000000
,
00000001
00000100
00001000
00000100
00001000
00010000
00001000
00000000
,
01000000
10000000
00100000
10000000
01000000
10000000
00010000
00000000
,
01000000
00010000
00001000
00010000
01000000
00010000
00001000
00000100
,
00000001
00000000
00000000
00000000
;
