#TITLE:Sana Mollete Ne Ente;
#SUBTITLE:BLT STYLE;
#ARTIST:Togo Project feat. Sana;
#TITLETRANSLIT:;
#SUBTITLETRANSLIT:;
#ARTISTTRANSLIT:;
#GENRE:;
#CREDIT:;
#MUSIC:san2_main.ogg;
#BANNER:san2_th.png;
#BACKGROUND:san2_bk.png;
#CDTITLE:;
#SAMPLESTART:39.753;
#SAMPLELENGTH:15.000;
#SELECTABLE:YES;
#OFFSET:-2.790;
#BPMS:0.000=90.000
,32.000=179.902
,252.000=180.905
;
#STOPS:;
#DISPLAYBPM:90.000:180.000;
#Stops:;
#BGCHANGES:;
#FGCHANGES:;

//--------------- dance-single - ----------------
#NOTES:
     dance-single:
     :
     Easy:
     3:
     0,0,0,0,0:
0000
0000
0000
0000
,
0000
0000
0000
0000
,
1000
0000
1000
0000
,
0001
0000
0001
0000
,
1000
0000
1000
0000
,
0010
0000
0010
0000
,
1000
0000
1000
0000
,
0100
0000
0001
0000
,
1000
0000
0000
0000
,
0001
0000
0000
0000
,
1000
0000
0000
0000
,
0001
0000
0000
0000
,
0100
0000
0000
0000
,
0010
0000
0000
0000
,
0100
0000
0000
0000
,
0001
0000
0000
0000
,
0100
0000
0000
0000
,
0010
0000
0000
0000
,
0100
0000
0000
0000
,
1000
0000
0000
0000
,
0001
0000
0001
0000
,
0010
0000
0100
0000
,
0001
0000
0001
0000
,
0010
0000
0000
0000
,
1000
0000
1000
0000
,
0010
0000
0100
0000
,
1000
0000
1000
0000
,
0100
0000
0000
0000
,
0010
0000
0100
0000
,
0000
0000
0001
0000
,
0010
0000
0100
0000
,
0000
0000
1000
0000
,
0010
0000
0100
0000
,
0000
0000
0001
0000
,
0010
0000
0100
0000
,
0000
0000
1000
0000
,
0001
0000
1000
0000
,
0001
0000
1000
0000
,
0010
0000
1000
0000
,
0001
0000
0000
0000
,
1000
0000
0001
0000
,
1000
0000
0001
0000
,
0100
0000
0001
0000
,
1000
0000
0000
0000
,
0001
0000
0001
0000
,
0000
0000
0000
0000
,
1000
0000
1000
0000
,
0000
0000
0000
0000
,
0001
0000
0001
0000
,
0010
0000
0100
0000
,
0010
0000
0100
0000
,
1000
0000
0000
0000
,
0100
0000
0100
0000
,
0100
0000
0000
0000
,
1000
0000
0010
0000
,
0100
0000
0000
0000
,
0100
0000
0100
0000
,
0100
0000
0000
0000
,
0001
0000
0010
0000
,
0100
0000
0000
0000
,
1000
0000
1000
0000
,
0001
0000
0100
0000
,
0001
0000
0001
0000
,
1000
0000
0000
0000
;

//--------------- dance-single - ----------------
#NOTES:
     dance-single:
     :
     Medium:
     5:
     0,0,0,0,0:
0000
0000
0000
0000
,
0000
0000
0000
0000
,
1000
0001
1000
0110
,
0001
1000
0001
0110
,
1000
1000
1000
0100
,
0010
0100
0010
0000
,
0001
0001
0001
0010
,
0100
0010
1001
0000
,
1100
0000
0010
0000
,
1001
0000
0000
0000
,
1010
0000
0100
0000
,
1001
0000
0000
0000
,
0100
0000
0001
0000
,
0010
0000
0100
0000
,
0100
0000
0001
0000
,
1001
0000
0000
0000
,
0100
0000
1000
0000
,
0010
0000
0100
0000
,
0100
0000
1000
0000
,
1001
0000
0000
0000
,
0001
0000
0001
0000
,
0010
0000
0100
0000
,
1001
0000
0001
0000
,
0110
0000
0000
0000
,
1000
0000
1000
0000
,
0010
0000
0100
0000
,
1001
0000
1000
0000
,
0101
0000
0000
0000
,
0010
0000
0100
0000
,
1001
0000
0001
0000
,
0010
0000
0100
0000
,
1100
0000
1000
0000
,
0010
0000
0100
0000
,
0101
0000
0001
0000
,
0010
0000
0100
0000
,
1000
0000
1001
0000
,
0001
0000
1000
0000
,
0001
0000
1001
0000
,
0010
0000
1000
0000
,
0110
0000
0000
0000
,
1000
0000
0001
0000
,
1000
0000
1001
0000
,
0100
0000
0001
0000
,
1100
0000
0000
0000
,
0001
1000
0001
0000
,
0010
0000
0010
0000
,
1000
0001
1000
0000
,
0000
0000
0110
0000
,
0001
0000
0001
0000
,
0010
0000
0100
0000
,
1010
0000
0100
0000
,
1000
0000
0000
0000
,
0100
0010
0100
0000
,
0100
0000
1000
0000
,
1000
0001
0010
0000
,
0100
0000
0000
0000
,
0100
0010
0100
0001
,
0100
0000
0000
0000
,
0001
1000
0010
0000
,
0100
0000
0000
0000
,
1000
0001
1000
0000
,
0001
0010
0100
0000
,
0001
1000
0001
0000
,
1100
0000
0000
0000
;

//--------------- dance-single - ----------------
#NOTES:
     dance-single:
     :
     Hard:
     7:
     0,0,0,0,0:
0000
0000
0000
0000
,
0000
0000
0000
0000
,
1001
0000
0001
1000
1000
0000
0110
0000
,
1001
0000
1000
0001
0001
0000
0110
0000
,
1000
0001
1000
0000
1000
0001
0100
0000
,
0010
1000
0100
0000
0010
0000
0000
0000
,
0001
1000
0001
0000
0001
1000
0010
0000
,
0100
0001
0010
0000
1001
0000
0000
0000
,
1100
0001
0010
0000
,
1001
0000
0010
0100
,
1010
0000
0100
0001
,
1001
0000
0000
0000
,
0100
0010
0001
0010
,
0010
0000
0100
0001
,
0100
0001
0001
0000
,
1001
0000
0000
0000
,
0100
0010
1000
0001
,
0010
0000
0100
1000
,
0100
0010
1000
0000
,
1001
0000
0000
0000
,
0001
0000
0101
1000
,
0010
0000
0100
0000
,
1001
0010
0001
0000
,
0110
0000
0000
0001
,
1000
0001
1000
0000
,
0010
1001
0100
0000
,
1001
0000
1000
0001
,
0101
0000
0000
1000
,
0010
1000
0100
0010
,
1001
0000
0001
0010
,
1000
0000
0100
0001
,
1100
0000
0000
0001
,
0010
0001
0100
0000
,
0101
0000
0001
1001
,
0010
0000
0100
1000
,
0001
0000
1001
0000
,
0001
1000
0001
1000
,
0001
0000
1001
0000
,
0010
1000
0001
0010
,
0110
0000
0000
0001
,
1000
0010
0100
0001
,
1000
0000
1001
0000
,
0100
0001
1000
0001
,
0110
0000
0000
0000
,
0001
1000
0001
0100
,
0010
0000
1010
0000
,
1000
0001
1000
0100
,
0010
0000
0110
0000
,
0001
1000
0001
0000
,
0010
0000
0100
1000
,
1010
0000
0100
0001
,
1001
0000
0000
0000
,
0100
0010
0100
0001
,
0100
0001
1000
0000
,
1001
0001
0010
0100
,
1000
0001
0100
0000
,
0100
0010
0100
0001
,
0100
0000
1001
0000
,
0001
1000
0010
1000
,
0110
0000
0000
1001
,
1000
0001
1000
0010
,
0001
0010
0100
0000
,
1001
1000
0001
0000
,
1100
0000
0000
0000
;

//--------------- dance-double - ----------------
#NOTES:
     dance-double:
     :
     Easy:
     3:
     0,0,0,0,0:
00000000
00000000
00000000
00000000
,
00000000
00000000
00000000
00000000
,
01000000
00000000
01000000
00000000
,
00001000
00000000
00001000
00000000
,
00010000
00000000
00010000
00000000
,
00000010
00000000
00000010
00000000
,
00000100
00000000
00010000
00000000
,
01000000
00000000
10000000
00000000
,
00010000
00000000
00000000
00000000
,
00100000
00000000
00000000
00000000
,
00001000
00000000
00000000
00000000
,
00010000
00000000
00000000
00000000
,
00000010
00000000
00000000
00000000
,
00000001
00000000
00000000
00000000
,
00000100
00000000
00000000
00000000
,
00001000
00000000
00000000
00000000
,
01000000
00000000
00000000
00000000
,
10000000
00000000
00000000
00000000
,
00100000
00000000
00000000
00000000
,
00010000
00000000
00000000
00000000
,
00000010
00000000
00000010
00000000
,
00000001
00000000
00000100
00000000
,
00000001
00000000
00000001
00000000
,
00001000
00000000
00000000
00000000
,
00100000
00000000
00100000
00000000
,
10000000
00000000
01000000
00000000
,
10000000
00000000
10000000
00000000
,
00010000
00000000
00000000
00000000
,
00000010
00000000
00000001
00000000
,
00000000
00000000
00000001
00000000
,
00001000
00000000
00000100
00000000
,
00000000
00000000
00010000
00000000
,
01000000
00000000
10000000
00000000
,
00000000
00000000
00010000
00000000
,
00100000
00000000
00001000
00000000
,
00000000
00000000
00000010
00000000
,
00001000
00000000
00000001
00000000
,
00001000
00000000
00000001
00000000
,
00000010
00000000
00000001
00000000
,
00001000
00000000
00000000
00000000
,
00010000
00000000
10000000
00000000
,
00010000
00000000
10000000
00000000
,
01000000
00000000
10000000
00000000
,
00010000
00000000
00000000
00000000
,
00001000
00000000
00001000
00000000
,
00000000
00000000
00000000
00000000
,
00000010
00000000
00000010
00000000
,
00000000
00000000
00000000
00000000
,
00011000
00000000
00010000
00000000
,
00100000
00000000
01000000
00000000
,
10000000
00000000
01000000
00000000
,
00010000
00000000
00000000
00000000
,
00000100
00000000
00000100
00000000
,
00000100
00000000
00000000
00000000
,
00000010
00000000
00001000
00000000
,
00010000
00000000
00000000
00000000
,
01000000
00000000
01000000
00000000
,
01000000
00000000
00000000
00000000
,
00100000
00000000
00010000
00000000
,
00000100
00000000
00000000
00000000
,
00000010
00000000
00000010
00000000
,
00000001
00000000
00000100
00000000
,
00001000
00000000
00001000
00000000
,
00010000
00000000
00000000
00000000
;

//--------------- dance-double - ----------------
#NOTES:
     dance-double:
     :
     Medium:
     5:
     0,0,0,0,0:
00000000
00000000
00000000
00000000
,
00000000
00000000
00000000
00000000
,
00100000
00010000
01000000
00001000
,
00100000
00001000
00000010
00000001
,
00000010
00000001
00001000
00000001
,
00000010
00000001
00001000
00000000
,
00000010
00000001
00001000
00000001
,
00001000
00010000
10000000
00000000
,
11000000
00000000
00100000
00000000
,
00110000
00000000
00000000
00000000
,
00100000
00000000
01000000
00000000
,
11000000
00000000
00000000
00000000
,
00010000
00000000
00000010
00000000
,
00000100
00000000
00000001
00000000
,
00000001
00000000
00000100
00000000
,
00001001
00000000
00000000
00000000
,
00010000
00000000
01000000
00000000
,
00100000
00000000
10000000
00000000
,
10000000
00000000
01000000
00000000
,
10010000
00000000
00000000
00000000
,
00001000
00000000
00001000
00000000
,
00000010
00000000
00000100
00000000
,
00000001
00000000
00001000
00000000
,
00000101
00000000
00000000
00000000
,
00001000
00000000
00010000
00000000
,
00100000
00000000
01000000
00000000
,
10000000
00000000
00010000
00000000
,
11000000
00000000
00000000
00000000
,
00100000
00000000
00001000
00000000
,
00000100
00000000
00000001
00000000
,
00000010
00000000
00000100
00000000
,
00001100
00000000
00000100
00000000
,
00010000
00000000
01000000
00000000
,
10000000
00000000
00100000
00000000
,
01000000
00000000
00010000
00000000
,
00100000
00000000
00011000
00000000
,
00000001
00000000
00000010
00000000
,
00000001
00000000
00001000
00000000
,
00000001
00000000
00000010
00000000
,
00000001
00000000
00000000
00000000
,
00001000
00000000
01000000
00000000
,
10000000
00000000
01000000
00000000
,
10000000
00000000
00010000
00000000
,
01000000
00000000
00000000
00000000
,
00001000
00010000
00000010
00000000
,
00001000
00000000
00000001
00000000
,
00001000
00000010
00001000
00000000
,
00000000
00000000
00000100
00000000
,
00010000
00001000
00100000
00000000
,
00010000
00000000
10000000
00000000
,
00010000
00000000
00100000
00000000
,
01000000
00000000
00000000
00000000
,
01000000
10000000
01000000
00000000
,
00100000
00000000
00001000
00000000
,
00000100
00000001
00000100
00000000
,
00000010
00000000
00000000
00000000
,
00001000
00000010
00001000
00010000
,
01000000
00000000
00000000
00000000
,
10000000
01000000
00010000
00000000
,
00010000
00000000
00000000
00000000
,
00001000
00010000
00001000
00000000
,
00100000
00010000
00001000
00000000
,
00000010
00010000
00000100
00000000
,
00001100
00000000
00000000
00000000
;

//--------------- dance-double - ----------------
#NOTES:
     dance-double:
     :
     Hard:
     8:
     0,0,0,0,0:
00000000
00000000
00000000
00000000
,
00000000
00000000
00000000
00000000
,
00010000
00000000
10000000
01000000
10000000
00000000
00100000
00000000
,
10000000
00000000
00010000
01000000
00010000
00000000
10000000
00000000
,
00010000
00100000
00010000
00000000
00100000
00001000
00010000
00000000
,
00000010
00001000
00000100
00000000
00001000
00000000
00000000
00000000
,
00000100
00010000
00001000
00000000
00100000
00010000
01000000
00000000
,
01000000
00100000
10000000
00000000
11000000
00000000
00000000
00000000
,
00110000
00001000
00010000
00000000
,
00110000
00000000
00001000
00010000
,
10100000
00000000
01000000
00010000
,
00011000
00000000
00000000
00000000
,
00000010
00000100
00000001
00000100
,
00000010
00000000
00001000
00000010
,
00000100
00001000
00010000
00000000
,
00011000
00000000
00000000
00000000
,
00100000
01000000
00010000
01000000
,
00100000
00000000
10000000
00100000
,
01000000
00010000
00001000
00000000
,
00011000
00000000
00000000
00000000
,
00000100
00000000
00000010
00000001
,
00000010
00000000
00000100
00000000
,
00001000
00000010
00001000
00000000
,
00000001
00000000
00000000
00000100
,
00001000
00010000
01000000
00000000
,
00100000
00010000
00001000
00000100
,
00001100
00000000
00010000
01000000
,
01010000
00000000
00000000
10000000
,
01000000
00100000
00010000
01000000
,
10010000
00000000
00100000
00010000
,
00001000
00000000
00000100
00001000
,
00001100
00000000
00000000
00000001
,
00000010
00000100
00001000
00000000
,
00011000
00000000
00010000
00100000
,
01000000
00000000
10000000
01000000
,
00010000
00000000
10010000
00000000
,
00100000
00001000
00000100
00001000
,
00000010
00000000
00001100
00000000
,
00000010
00001000
00000001
00000100
,
00000110
00000000
00000000
00000010
,
00001000
00010000
01000000
00100000
,
01000000
00000000
01100000
00000000
,
00100000
10000000
00010000
01000000
,
01010000
00000000
00000000
00000000
,
00100000
01000000
00100000
10000000
,
00010000
00000000
01010000
00000000
,
00100000
01000000
00100000
10000000
,
00010000
00000000
01010000
00000000
,
00100000
00010000
00100000
00000000
,
00001000
00000000
00010000
00000010
,
00001000
00000000
00000001
00000100
,
00001001
00000000
00000000
00000000
,
00000100
00000010
00000100
00000001
,
00000100
00000001
00001000
00000000
,
00001100
00000001
00000010
00000100
,
00001000
00000100
00010000
00000000
,
01000000
00100000
01000000
10000000
,
01000000
00000000
10010000
00000000
,
00010000
10000000
00100000
10000000
,
01010000
00000000
00000000
00011000
,
00001000
00000001
00001000
00000010
,
00001000
00000010
00000100
00000000
,
00001001
00001000
00000001
00000000
,
00001100
00000000
00000000
00000000
;
