#TITLE:Quickening;
#SUBTITLE:;
#ARTIST:dj.TAKA;
#TITLETRANSLIT:;
#SUBTITLETRANSLIT:;
#ARTISTTRANSLIT:;
#GENRE:;
#CREDIT:;
#MUSIC:quic_main.ogg;
#BANNER:quic_th.png;
#BACKGROUND:quic_bk.png;
#CDTITLE:;
#SAMPLESTART:0.511;
#SAMPLELENGTH:15.675;
#SELECTABLE:YES;
#OFFSET:-1.140;
#BPMS:0.000=149.979
,240.000=150.000
;
#STOPS:;
#DISPLAYBPM:149.000:150.000;
#Stops:;
#BGCHANGES:;
#FGCHANGES:;

//--------------- dance-single - ----------------
#NOTES:
     dance-single:
     :
     Easy:
     4:
     0,0,0,0,0:
0000
0000
0000
0000
,
0000
0000
0000
0000
,
0000
0000
0000
0000
,
0000
0000
0000
0000
,
0100
0001
1000
0000
,
1000
0000
0100
0000
,
1000
0000
0100
0000
,
1000
0000
0100
0100
,
0100
0000
0001
0000
,
0100
0000
0010
0000
,
0100
0000
1000
0000
,
1000
0000
0100
0000
,
1000
0000
0010
0000
,
1000
0000
0001
0000
,
0010
0000
0001
0000
,
0010
0000
0010
0010
,
0010
0000
0100
0000
,
0010
0000
1000
0000
,
0001
0000
1000
0000
,
0001
0000
0100
0000
,
0001
0000
0010
0000
,
0001
0000
0001
0000
,
0010
0000
1000
0000
,
1001
0000
0000
0000
,
1001
0000
0010
0000
,
0100
0000
0010
0000
,
0100
0000
1000
0000
,
0001
0000
0100
0000
,
1000
0000
0010
0000
,
0110
0000
0000
0000
,
0110
0000
0100
0000
,
0010
0000
0001
0000
,
0100
0000
1000
0000
,
0010
0000
0001
0000
,
0010
0000
1000
0000
,
0010
0000
0001
0000
,
1000
0000
0100
0000
,
0010
0000
0001
0000
,
0010
0000
1000
0000
,
1001
0000
1001
0000
,
0110
0000
0000
0000
,
0110
0000
0000
0000
,
0110
0000
0000
0000
,
1000
0000
1000
0000
,
0100
0000
0010
0000
,
0100
0000
0001
0000
,
0100
0000
1000
0000
,
0100
0000
1000
0000
,
1000
0000
0010
0000
,
1000
0000
0001
0000
,
1000
0000
0001
0000
,
0010
0000
0100
0000
,
0110
0000
0100
0000
,
0100
0000
0001
0000
,
1001
0000
1000
0000
,
0010
0000
1000
0000
,
0010
0000
0100
0000
,
1000
0000
1000
0000
,
0100
0000
0100
0000
,
0010
0000
0010
0010
,
0010
0000
0000
0000
;

//--------------- dance-single - ----------------
#NOTES:
     dance-single:
     :
     Medium:
     8:
     0,0,0,0,0:
0000
0000
0000
0000
,
0000
0000
0000
0000
,
0000
0000
0000
0000
,
0000
0000
0000
0000
,
0100
0100
1000
1000
,
0010
0010
0001
0001
,
1001
0010
1001
0100
,
1001
0010
1001
1001
,
1001
0000
0101
0000
,
1100
0000
0010
0000
,
0110
0010
0110
1000
,
0110
0001
1001
1001
,
1000
0001
1010
1000
,
0100
0000
0001
0000
,
0010
0000
0001
0000
,
0010
0000
0011
0011
,
0011
0001
0100
0100
,
0001
0010
0010
1001
,
1001
0010
1001
0100
,
1001
0010
1001
0100
,
0001
0001
0010
0010
,
1000
1000
0100
0100
,
1100
1100
1010
1010
,
1001
1001
1010
1100
,
1001
0000
0110
0000
,
1001
0000
0110
0000
,
1010
0100
1010
0100
,
0001
0100
0001
0100
,
0100
1000
0100
1000
,
0110
0110
0001
0110
,
1001
1001
0010
1001
,
0010
0001
0010
1000
,
1001
0000
1001
0000
,
0110
1100
0001
0000
,
1001
0000
1001
0000
,
0110
1100
0001
0000
,
1001
0010
1001
0000
,
0110
1100
0001
0000
,
1001
0010
1001
0000
,
0110
1100
0001
0001
,
0110
0000
0001
0000
,
0110
0000
0001
0000
,
0110
0000
0001
0001
,
1000
1100
1000
0000
,
0001
0101
0001
0000
,
1000
1100
1000
1100
,
0001
0101
1001
0000
,
0110
1001
0110
1001
,
0110
0001
1000
0110
,
0110
1001
0110
1001
,
0110
1000
0100
0001
,
1001
0000
0110
0000
0001
0000
1000
1000
,
1001
1100
1001
0100
,
1100
0000
0101
0000
1010
0000
1100
1000
,
1100
1001
0010
1001
,
1100
0000
1010
0000
0010
0000
1001
1001
,
1100
0000
1001
0000
0010
0000
1001
1001
,
1100
1010
0010
1001
,
0100
0010
0100
0010
,
1010
0000
1000
0000
0110
0000
0010
0010
,
0010
0000
0000
0000
;

//--------------- dance-single - ----------------
#NOTES:
     dance-single:
     :
     Hard:
     11:
     0,0,0,0,0:
0000
0000
0000
0000
,
0000
0000
0000
0000
,
0000
0000
0000
0000
,
0000
0000
0000
0000
,
0100
0100
0100
0000
1000
1000
1000
0000
,
0010
0010
0010
0000
0001
0001
0001
0000
,
1001
1001
0010
0000
1001
1001
0100
0000
,
1001
1001
0010
0000
1001
1001
0010
0100
,
1001
0000
0100
0000
0010
0000
0100
0001
,
1001
0000
0100
0000
0010
0000
0100
0001
,
0110
0000
0010
0000
0110
0000
1000
0001
,
0110
0000
0010
0000
0110
0001
1000
0001
,
1000
0000
0001
0000
1000
0000
1001
0010
,
1000
0000
0001
0000
1000
0000
1001
0100
,
0010
1001
1010
0100
,
0010
1001
0011
0100
,
0010
0000
1000
0000
0110
0110
0100
0000
,
0001
0000
0110
0000
1000
0110
0001
0000
,
0010
0000
1000
0000
0110
0110
0100
0000
,
1001
0000
0110
0000
1000
0110
0001
0000
,
0010
0100
1001
1001
,
0010
0000
0100
0010
0100
0000
1001
0000
,
0010
0100
0010
1001
,
0010
0000
0100
0010
0100
0010
1001
0000
,
1001
0000
0110
0000
,
1001
0100
0110
0000
,
1010
0000
0101
0000
,
1010
0000
0100
0001
0001
0000
0000
0000
,
1000
0010
0100
0000
0001
0010
0100
0000
,
0110
0110
0001
0110
,
1001
0100
1001
0000
0010
0000
1001
0000
,
0010
0001
0010
0001
,
1001
0000
1001
0010
0010
0000
1001
0000
,
1001
0000
1001
0010
0010
0000
0001
0000
,
1001
0000
1001
1000
0010
0000
0100
0000
,
1001
0000
1001
0001
0100
0000
0010
0000
,
1001
0010
1001
0010
,
1001
0100
1001
0100
,
1001
1000
0100
0000
1001
0001
0010
0000
,
1001
1000
0100
0000
1001
0001
0010
0000
,
0110
0000
0001
0000
,
0110
0000
0001
0000
,
0110
0000
0001
0001
,
1000
0000
1100
0001
1000
0000
0001
0000
,
0001
0000
0101
1000
0001
0000
1000
0000
,
1000
1100
0001
1100
,
0001
0000
0101
0101
1001
0000
0000
0000
,
0110
1001
0110
1001
,
0110
0001
1000
0110
,
0110
1001
0110
1001
,
0110
0000
1000
0000
0100
0000
0001
0001
,
1001
0000
0110
0000
0001
0000
1000
1000
,
1001
1100
1001
0100
,
1100
0000
0101
0000
1010
0000
1100
1000
,
1100
0000
1001
0000
0010
0000
1001
1001
,
1100
0000
1010
0000
0010
0000
1001
1001
,
1100
0000
1001
0000
0010
0000
1001
1001
,
1100
0000
1010
0000
0010
0000
1001
0010
,
0100
0000
0010
0000
0100
0010
0100
0010
,
1010
0000
1000
0000
0110
0000
0010
0010
,
0010
0000
0000
0000
;

//--------------- dance-double - ----------------
#NOTES:
     dance-double:
     :
     Easy:
     4:
     0,0,0,0,0:
00000000
00000000
00000000
00000000
,
00000000
00000000
00000000
00000000
,
00000000
00000000
00000000
00000000
,
00000000
00000000
00000000
00000000
,
00100000
00000000
10000000
00000000
,
00010000
00000000
01000000
00000000
,
00001000
00000000
00010000
00000000
,
00000010
00000000
00000100
00000100
,
00000010
00000000
00010000
00001000
,
01000000
00000000
00100000
00000000
,
01000000
00000000
00010000
00000000
,
00010000
00000000
01000000
00000000
,
00001000
00000000
00010000
00000000
,
00000010
00000000
00001000
00000000
,
00000010
00000000
00000100
00000000
,
00000010
00000000
00010000
00000000
,
00001000
00000000
00100000
00000000
,
01000000
00000000
00011000
00000000
,
00010000
00000000
00000100
00000000
,
00001001
00000010
00010000
00000000
,
00011000
00000000
00100000
00000000
,
00001000
00010000
00001000
00000000
,
00100000
00000000
00010000
00000000
,
10010000
00000000
01000000
00000000
,
00001000
00010000
00000010
00000000
,
00001001
00000000
00000100
00000000
,
00010000
00000000
00001000
00000000
,
00100000
00000000
01000000
00000000
,
10000000
00000000
00100000
00000000
,
01100000
00000000
00010000
00000000
,
00011000
00000000
00000010
00001000
,
00000010
00000000
00010000
00000000
,
00001000
00100000
00001000
00000000
,
00100000
00000000
00010000
00000000
,
10000000
00000000
00100000
00000000
,
01000000
00000000
00001000
00000000
,
00010000
00000000
00000100
00000000
,
00000010
00000000
00000001
00000000
,
00001000
00000000
00000100
00000000
,
00010000
00000000
00001000
00000000
,
00100000
00000000
00000000
00000000
,
10010000
00000000
00000000
00000000
,
01100000
00000000
00000000
00000000
,
10010000
00000000
00010000
00000000
,
01000000
00000000
00011000
00000000
,
00000100
00000000
00000000
00000000
,
00000100
00000000
00001000
00000000
,
00000100
00000000
00010000
00000000
,
00001000
00000000
00110000
00000000
,
10000000
00000000
00010000
00000000
,
01000000
00000000
00011000
00000000
,
00000010
00000000
00000100
00000000
,
00000110
00000000
00000100
00000000
,
00000100
00000000
00010000
00000000
,
10010000
00000000
10000000
00000000
,
00100000
00000000
10000000
00000000
,
00100000
00000000
01000000
00000000
,
00011000
00000000
00000010
00000000
,
00000100
00000000
00011000
00000000
,
00100000
00000000
00100000
00100000
,
00100000
00000000
00000000
00000000
;

//--------------- dance-double - ----------------
#NOTES:
     dance-double:
     :
     Medium:
     8:
     0,0,0,0,0:
00000000
00000000
00000000
00000000
,
00000000
00000000
00000000
00000000
,
00000000
00000000
00000000
00000000
,
00000000
00000000
00000000
00000000
,
01000000
01000000
00010000
00010000
,
00100000
00010000
00100000
01000000
,
10010000
00100000
10010000
01000000
,
10010000
00100000
10010000
01000000
,
00001000
00011000
00000100
00000000
,
00001100
00000000
00000010
00000000
,
00000110
00000010
00011000
00010000
,
00001000
00100000
00110000
10010000
,
10000000
00010000
01010000
00100000
,
00001000
00000000
00010000
00000000
,
00000010
00000000
00001000
00000000
,
00000001
00000000
00000010
00000011
,
00000100
00001001
00000100
00010000
,
00011000
00100000
01000000
10010000
,
10010000
00100000
10010000
01000000
,
10010000
00100000
10010000
01000000
,
00001000
00010000
00001100
00000010
,
00000100
00000001
00000010
00000100
,
00000110
00001100
00000100
00010000
,
00011000
00100000
01000000
11000000
,
10010000
00000000
01100000
00000000
,
10010000
00000000
01100000
00000000
,
10100000
01000000
00001000
00010000
,
00000100
00000010
00000001
00001000
,
00000100
00010000
00000100
00001000
,
00000010
00010000
00001000
01000000
,
00100000
10010000
00100000
10010000
,
10000000
01000000
00100000
00001000
,
00100000
00000000
00010000
00000000
,
00100000
00110000
00001000
00000000
,
00010000
00000000
00000100
00000000
,
00000110
00001100
00000001
00000000
,
00001001
00000010
00001100
00000000
,
00010000
00001000
00100000
00000000
,
01000000
00100000
10010000
00000000
,
01100000
01010000
10000000
00010000
,
01100000
00110000
00100000
00001000
,
00010000
00000000
00000100
00000000
,
00000110
00000000
00000001
00000000
,
00000010
00001100
00010000
00000000
,
00001000
01010000
00010000
00000000
,
10000000
11000000
00100000
10010000
,
00010000
01010000
00001000
00010000
,
00000100
00000110
00000110
00001001
,
00000110
00000001
00001000
00001100
,
00010000
00011000
01000000
00100000
,
01100000
10000000
01010000
00011000
,
00000100
00000000
00000010
00000000
00000110
00000000
00000010
00000100
,
00001000
00001100
00000001
00000110
,
00001000
00000000
00000101
00000000
00001000
00000000
00001100
00001000
,
00001100
00011000
00100000
10010000
,
11000000
00000000
10000000
00000000
00100000
00000000
10010000
10010000
,
11000000
00000000
00110000
00000000
00011000
00000000
00001010
00001000
,
00001100
00000010
00001000
00001001
,
00000100
00000010
00000100
00000010
,
00001010
00000000
00001000
00000000
00000110
00000000
00000010
00000010
,
00000010
00000000
00000000
00000000
;

//--------------- dance-double - ----------------
#NOTES:
     dance-double:
     :
     Hard:
     10:
     0,0,0,0,0:
00000000
00000000
00000000
00000000
,
00000000
00000000
00000000
00000000
,
00000000
00000000
00000000
00000000
,
00000000
00000000
00000000
00000000
,
01000000
01000000
01000000
00000000
10000000
10000000
10000000
00000000
,
00100000
00100000
00100000
00000000
01000000
00001000
00010000
00000000
,
00010100
00001000
00000010
00000000
00001001
00001001
00000010
00000000
,
00001001
00001001
00000010
00000000
00001001
00001001
00000001
00000100
,
00000101
00000000
00000010
00000000
00010000
00000000
00001000
00100000
,
01000000
00000000
10000000
00000000
10010000
00000000
00100000
00010000
,
01000000
00000000
00001000
00000000
00010000
00000000
00000010
00000100
,
00000110
00000000
00000000
00000000
00001001
00000100
00000010
00010000
,
00001000
00000000
00100000
00000000
00010000
00000000
01000000
00100000
,
10000000
00000000
00010000
00000000
10000000
00000000
10010000
01000000
,
00100000
10010000
01010000
01000000
,
01001000
00010000
00000100
00001100
,
00000010
00000000
00010000
00000000
00001000
00100000
01000000
00000000
,
10000000
00000000
01100000
00000000
10000000
00010000
10000000
00000000
,
11000000
00000000
00010000
00000000
10000000
01000000
00100000
00000000
,
00001000
00010000
00000100
00000000
00001000
00000110
00000001
00000000
,
00000010
00000100
00001000
00001001
,
00000010
00000000
00010000
00001000
00000000
00000000
00100000
00000000
,
00110000
01000000
00100000
10010000
,
00100000
00000000
01000000
00100000
01000000
00100000
10010000
00000000
,
11000000
00000000
00100000
00101000
,
00011000
00000100
00001100
00000000
,
00000101
00000000
00001001
00000000
,
00001100
00000000
00000100
00010000
00001000
00000000
00000000
00000000
,
01000000
00100000
10000000
00000000
00010000
00100000
01000000
00000000
,
01100000
01100000
00010000
01100000
,
10010000
01000000
10010000
00000000
00000000
00000000
01000000
00000000
,
00001000
00010000
00000100
00001000
,
00001001
00000000
00000001
00000010
00000100
00000000
00010000
00000000
,
00001000
00000000
01000000
00100000
00100000
00000000
10000000
00000000
,
10010000
00000000
10010000
10000000
00100000
00000000
01000000
00000000
,
01000000
00000000
10010000
00010000
01000000
00000000
00100000
00000000
,
10010000
00100000
00001000
00010000
,
00000100
00000010
00001001
00000100
,
00001001
00001000
00000100
00000000
00001001
00001000
00000100
00000000
,
00010000
00000000
00001000
00000000
01000000
00100000
01000000
00000000
,
01100000
00000000
00010000
00000000
,
01100000
00000000
00010000
00000000
,
10010000
00000000
01000000
01001000
,
00010000
00000000
00000100
00000010
00001001
00000000
00000001
00000000
,
00001000
00000000
00000100
00010000
00001000
00000000
01000000
00000000
,
00100000
01100000
10000000
11000000
,
00010000
00000000
01010000
01010000
01000000
00000000
00000000
00000000
,
00001000
00010000
00000100
00010000
,
00000100
00011000
00100000
00010000
,
01000000
01010000
00100000
00001000
,
00010000
00000000
00000100
00000000
00000000
00000000
00001000
00001000
,
00001001
00000000
00000110
00000000
00010000
00000000
00001000
00100000
,
00010000
01000000
00100000
10000000
,
11000000
00000000
00100000
00000000
00001000
00000000
00010000
00011000
,
00000100
00000000
00000010
00000000
00000011
00000000
00001001
00001001
,
00000100
00000000
00001010
00000000
00000010
00000000
00001001
00001001
,
00001100
00000000
00010000
00000000
00000010
00000000
00001000
00001001
,
00001100
00000000
00010000
00000000
00001000
00000000
00100000
01000000
,
10010000
00000000
00100000
00000000
01000000
00100000
01000000
00100000
,
11000000
00000000
10000000
00000000
01100000
00000000
00100000
01000000
,
00100000
00000000
00000000
00000000
;
