#TITLE:PUT YOUR FAITH IN ME;
#SUBTITLE:SATURDAY NIGHT MIX;
#ARTIST:UZI-LAY;
#TITLETRANSLIT:;
#SUBTITLETRANSLIT:;
#ARTISTTRANSLIT:;
#GENRE:;
#CREDIT:;
#MUSIC:put3_main.ogg;
#BANNER:put3_th.png;
#BACKGROUND:put3_bk.png;
#CDTITLE:;
#SAMPLESTART:15.775;
#SAMPLELENGTH:15.000;
#SELECTABLE:YES;
#OFFSET:-8.390;
#BPMS:0.000=120.000;
#STOPS:;
#DISPLAYBPM:119.000:120.000;
#Stops:;
#BGCHANGES:;
#FGCHANGES:;

//--------------- dance-single - ----------------
#NOTES:
     dance-single:
     :
     Easy:
     5:
     0,0,0,0,0:
0000
0001
0000
0000
,
0000
0001
0000
0000
,
0000
1000
0000
0000
,
1000
1000
0000
0000
,
0000
0001
0000
0001
,
0000
0100
0000
0100
,
0010
0100
1000
0001
,
0010
0010
0010
0010
,
0000
1000
0000
1000
,
0000
0010
0000
0010
,
0100
0010
0001
1000
,
0100
0100
0100
0100
,
0001
0100
0001
0100
,
1000
0100
0001
0100
,
0010
0100
0010
0100
,
0010
0001
0100
1000
,
0001
1000
0100
0100
,
0001
0010
1000
0100
,
0001
0100
0010
0100
,
1000
0001
1000
0001
,
0000
1000
0000
1000
,
0010
0100
0001
1000
,
0000
0010
0000
0010
,
0100
0010
1001
0000
,
0101
0000
1000
0100
,
0000
1000
0100
0100
,
1010
0000
0001
0010
,
0001
0010
0100
1000
,
1000
0010
0100
0001
,
0010
0100
0001
1000
,
0010
0100
1000
0001
,
1000
0100
0100
0001
,
0010
0001
0100
0100
,
0010
0001
0100
1000
,
0010
0100
1000
0001
,
1000
0100
0100
0001
,
0010
0001
0100
0100
,
0010
0001
0100
1000
,
0010
0001
0100
1000
,
0010
0001
0100
1000
,
0010
0000
0000
0000
;

//--------------- dance-single - ----------------
#NOTES:
     dance-single:
     :
     Medium:
     6:
     0,0,0,0,0:
0000
0001
0000
0000
,
0000
0001
0000
0000
,
0000
1000
0000
0000
,
1000
0000
1000
0000
0010
1000
0001
0000
,
0000
0010
0000
0001
,
0000
1000
0001
1000
,
0100
0000
1000
0001
,
0010
0010
0010
0000
,
0000
0100
0000
1000
,
0000
0001
1000
0001
,
0010
0000
0001
1000
,
0100
0100
0100
0000
,
0010
0100
1000
0001
,
0100
0010
0001
1000
,
0000
1010
0000
0101
,
0010
0001
0100
1001
,
0010
1000
0001
0000
0100
0001
1000
0000
,
0001
0010
1000
0100
,
0100
0001
0100
0000
0010
1000
0010
0000
,
1000
0000
0100
0000
0010
0001
1000
0100
,
0000
1000
0000
1000
,
0010
0100
0001
1000
,
0000
0010
0000
0010
,
0100
0010
1001
0000
,
0101
0000
0010
0000
1000
0001
0100
0000
,
0010
1000
0100
0001
,
1010
0000
0100
0000
0001
1000
0010
0100
,
0001
0010
0100
1000
,
0010
1000
0001
0000
0100
0001
1000
0000
,
0000
0000
0011
0000
0100
0010
1100
0000
,
0100
0001
0100
0000
0010
1000
0010
0000
,
0000
0000
1001
0000
0100
0010
1001
0000
,
0000
0010
0100
0001
,
1000
0100
0010
0101
,
0000
0100
0010
1000
,
0001
0010
0100
1010
,
0100
0001
0100
0000
0010
1000
0010
0000
,
1000
0001
1100
0011
,
0100
1000
0010
1001
,
0100
0010
1000
0001
,
0010
0000
0000
0000
;

//--------------- dance-single - ----------------
#NOTES:
     dance-single:
     :
     Hard:
     9:
     0,0,0,0,0:
0000
0001
0000
0001
,
0000
1000
0000
1000
,
0000
0010
0100
0001
,
1000
0000
0100
0000
0010
1000
0001
0000
,
0100
0001
0010
1000
,
0100
0000
0001
0000
0010
0100
1001
0000
,
0010
1000
0010
0100
,
0010
0000
0010
0000
0010
1000
0101
0000
,
0010
1000
0100
0001
,
0010
0000
1000
0000
0100
0010
1001
0000
,
0100
0001
0100
0010
,
0100
0000
0100
0000
0100
0001
1010
0000
,
0100
1000
0100
0000
0010
0001
1000
0000
,
0010
0000
0010
0000
0001
0100
1001
0000
,
0010
0001
0010
0000
0100
1000
0001
0000
,
0100
0001
1000
0010
1000
0100
1001
0000
,
0010
0001
0010
0000
0100
1000
0100
0000
,
1000
0100
0010
0001
1000
0100
0010
0001
,
0100
1000
0100
0000
0010
0001
0010
0000
,
0001
0010
0100
1000
0001
0010
0100
1000
,
0001
0010
1000
0000
1000
0000
0001
0000
,
0001
1000
1000
0110
,
1000
1000
0100
0010
,
1001
0000
0000
0000
0010
0100
1001
0000
,
0010
1000
0010
0000
0100
0001
0100
0000
,
0010
1000
0100
0010
0001
1000
0001
0000
,
0010
1000
0010
0000
0100
0001
0100
0000
,
0100
0001
0010
0100
1000
0001
1000
0000
,
0100
1000
0100
0000
0010
0001
0010
0000
,
1001
0000
0100
0001
1000
0010
1100
0000
,
0001
0010
0001
0000
1000
0100
1000
0001
,
0110
0000
1000
0001
0100
0010
1001
0000
,
0010
0010
0100
0100
,
1000
0001
0100
0010
1000
0010
1001
0000
,
0100
0100
0010
0010
,
0001
1000
0001
1000
0010
0100
0011
0000
,
0100
0001
0010
0000
0100
1000
0110
0000
,
1000
0100
0010
0001
0010
0100
1001
0000
,
0010
0000
1100
0000
0001
0100
0010
0000
,
1001
0010
0100
0001
0100
1000
0001
0000
,
0010
0000
0000
0000
;

//--------------- dance-double - ----------------
#NOTES:
     dance-double:
     :
     Easy:
     5:
     0,0,0,0,0:
00000000
10000000
00000000
00000000
,
00000000
00010000
00000000
00000000
,
00000000
00001000
00000000
00000000
,
00000001
00000000
00000000
00000000
,
00000000
00000010
00000000
00010000
,
00000000
00001000
00000000
01000000
,
00000000
00100000
00000000
10000000
,
00000000
00010000
00000000
00100000
,
00000000
00001000
00000000
00000010
,
00000000
00000001
00000000
00001000
,
00000000
00000100
00000000
00010000
,
00000000
01000000
00000000
10010000
,
00100000
00000000
00100000
00000000
,
10000000
00100000
01000000
00000000
,
00010000
00000000
00001000
00000000
,
00100000
00010000
00001000
00000000
,
00000010
00000000
00000010
00000000
,
00000001
00000010
00000100
00000000
,
00001000
00000000
00010000
00000000
,
00100000
00001000
01000000
00100000
,
10010000
00000000
00100000
01000000
,
00010000
10000000
01000000
00000000
,
00010000
00001000
00000010
00000001
,
00001000
00000100
00000000
00100000
,
10000000
01000000
00010000
00001000
,
00000010
00000001
00000100
00000000
,
00010000
10000000
01000000
00100000
,
00010000
00100000
10000000
00000000
,
00001000
00000000
00000001
00000100
,
00000010
00000100
00000010
00001000
,
00000001
00000000
00000010
00000100
,
00000010
00010000
00001000
01000000
,
10010000
00000000
01000000
00100000
,
10000000
01000000
00100000
00001000
,
00010000
00000100
00000010
00000001
,
00001000
00000010
00000100
00000000
,
00001001
00000000
00000010
00000001
,
00001000
00000100
00010000
00000000
,
00001000
00000010
00000001
00000100
,
00000010
00001000
00010000
01000000
,
10010000
00000000
00000000
00000000
;

//--------------- dance-double - ----------------
#NOTES:
     dance-double:
     :
     Medium:
     6:
     0,0,0,0,0:
00000000
10000000
00000000
00000000
,
00000000
00010000
00000000
00000000
,
00100000
00000000
00000000
00000000
,
00010000
01000000
00100000
10000000
,
01000000
00100000
00010000
00000000
,
00001000
00000100
00001001
00000000
,
00000010
00000100
00000010
00000100
,
00001000
00000000
00010000
00000000
,
01000000
10000000
00100000
00000000
,
01000000
00100000
01000000
00000000
,
00010000
00000000
00001000
00000000
,
00000010
00000001
00001000
00000100
,
00000010
00000000
00000001
00000000
,
00000001
00000010
00000100
00001000
,
00000100
00000000
00001000
00000000
,
00001000
00010000
00100000
10000000
,
01000000
00010000
00000000
00000000
01000000
00000000
00000000
00000000
,
01000000
00010000
01000000
00010000
,
00001000
00000000
00001000
00000000
,
00000100
00001000
00010000
00100000
,
10010000
00000000
00100000
01000000
,
00010000
10000000
01000000
00000000
,
00010000
00001000
00000010
00000001
,
00000110
00000000
00000000
00000000
00000010
00000100
00001001
00000000
,
00000110
00001000
00010000
00100000
,
10000000
01000000
00100000
00010000
,
10000000
01100000
10010000
01000000
,
00010000
00001000
00000010
00000001
,
00000100
00000001
00000010
00000000
00000100
00000000
00001001
00000000
,
00000010
00001000
00010000
01000000
,
10000000
00010000
10000000
01100000
,
00010000
00001000
00000100
00000010
,
00001001
00000010
00000100
00001001
,
00000100
00000010
00001000
00010000
,
00010000
01000000
10000000
00100000
,
01000000
00010000
00001000
00000010
,
00000000
00001001
00000000
00000000
00000010
00000000
00000100
00000000
,
00000001
00000100
00001000
00000010
,
00001000
00000010
00000001
00000100
,
00000010
00000000
00001000
00000000
00010000
00100000
01000000
00000000
,
10010000
00000000
00000000
00000000
;

//--------------- dance-double - ----------------
#NOTES:
     dance-double:
     :
     Hard:
     8:
     0,0,0,0,0:
00000000
10000000
00000000
10000000
,
00000000
00010000
00000000
00010000
,
00100000
00000000
00100000
00000000
,
00010000
01000000
00100000
10000000
,
01000000
00100000
00010000
00000000
,
00001000
00000100
00001001
00000000
,
00000010
00000100
00000010
00000100
,
00001000
00000001
00010100
00000000
,
01000000
00010000
10000000
00000000
00100000
10000000
00010000
00000000
,
01000000
00100000
01000000
10100000
,
00010000
00000010
00001000
00000001
,
00000010
00000001
00001000
00000100
,
00000010
00000100
00000001
00000100
,
00000001
00000000
00000010
00000000
00000100
00000001
00001000
00000000
,
00000100
00000010
00001000
00000001
,
00001000
00000000
00010000
00000000
00100000
00010000
10000000
00000000
,
01000000
00010000
00000000
00000000
01100000
00000000
10010000
00000000
,
01000000
00000000
00010000
00000000
01000000
10000000
00010000
00000000
,
00001000
00000100
00001000
00000001
,
00000100
00001000
00010000
00100000
,
10010000
00000000
00100000
01000000
,
00010000
10000000
01000000
00100000
,
00010000
00001000
00000010
00000001
,
00000110
00000000
00000000
00000000
00000010
00000100
00001001
00000000
,
00000110
00001000
00010000
00100000
,
10000000
01000000
00100000
00010000
,
10000000
00010000
01100000
00000000
10010000
00100000
01000000
00000000
,
00010000
00000000
00001000
00000000
00000010
00001000
00000001
00000000
,
00000100
00000001
00000010
00000000
00000100
00000000
00001001
00000000
,
00000010
00001000
00010000
01000000
,
10000000
00100000
00010000
00000000
10000000
00010000
01100000
00000000
,
00010000
00001000
00000100
00000010
,
00001001
00000010
00000100
00001001
,
00000100
00000010
00001000
00010000
,
00010000
01000000
10000000
00100000
,
01000000
00010000
00001000
00000010
,
00000000
00001001
00000100
00000000
00000010
00000000
00000100
00000000
,
00000001
00000100
00001000
00000010
,
00001010
00000100
00001001
00000100
,
00000010
00000100
00001000
00000010
00000100
00001000
00000001
00000010
,
00001001
00000000
00000000
00000000
;
