#TITLE:MGS2 mission R;
#SUBTITLE:;
#ARTIST:L.E.D.;
#TITLETRANSLIT:;
#SUBTITLETRANSLIT:;
#ARTISTTRANSLIT:;
#GENRE:;
#CREDIT:;
#MUSIC:mgs2_main.ogg;
#BANNER:mgs2_th.png;
#BACKGROUND:mgs2_bk.png;
#CDTITLE:;
#SAMPLESTART:0.459;
#SAMPLELENGTH:14.396;
#SELECTABLE:YES;
#OFFSET:-0.535;
#BPMS:0.000=150.000;
#STOPS:;
#DISPLAYBPM:150.000;
#Stops:;
#BGCHANGES:;
#FGCHANGES:;

//--------------- dance-single - ----------------
#NOTES:
     dance-single:
     :
     Easy:
     6:
     0,0,0,0,0:
0000
0000
0000
0000
,
0000
0000
0000
0000
,
1010
0000
0000
0000
,
0000
0000
0000
0000
,
1000
0000
0001
0000
,
0100
0000
1000
0000
,
0010
0000
0001
0000
,
1000
0000
0001
1000
,
0010
0001
0000
1000
,
0000
0010
0000
0100
,
0000
0010
0000
0100
,
0110
0000
0000
0000
,
1000
0000
1001
0000
,
0001
0000
1000
0000
,
1001
0100
0000
0100
,
0000
1000
0000
1000
,
1001
0000
0010
0001
,
0100
0000
0010
0000
,
1000
0000
0010
0000
,
1000
0001
0010
0100
,
1001
0000
0000
0000
,
0000
0000
0000
0000
0000
0000
0000
1000
,
0001
0110
0000
0000
,
0000
0000
0000
0000
0000
0000
0000
1000
,
0001
0000
0000
0000
,
0110
0000
0000
0000
,
0110
0000
0110
0000
,
1000
0010
0100
0001
,
1000
0000
0010
0100
,
0000
0001
0010
1000
,
0000
1000
0000
0100
,
0010
0100
0010
0100
,
0100
0010
0001
0100
,
1000
0000
0010
0000
,
1001
0000
1000
0000
,
0010
0000
0010
0000
,
1001
0000
0100
0000
,
0100
1001
0000
0100
,
0010
0100
0010
0100
,
0010
0100
0010
1000
,
0010
1000
0110
1000
,
0100
0010
0001
1000
,
0100
0010
0001
1000
,
0100
0010
0001
1001
,
0001
1000
0001
0100
,
0010
0100
0010
0100
,
0010
0100
0100
0100
,
0010
0001
0100
1000
,
0101
0011
1000
0100
,
0010
0001
0000
1000
,
0010
0100
1000
0100
,
1000
0000
0000
0000
,
1000
0100
0010
0100
,
0010
0001
0010
1000
,
0000
1000
0000
0100
,
0010
0100
0010
0100
,
0100
0010
0001
0100
,
1000
0100
0010
0001
,
1001
0110
1000
0100
,
0010
0001
0010
0100
,
1001
0000
0000
0000
;

//--------------- dance-single - ----------------
#NOTES:
     dance-single:
     :
     Medium:
     9:
     0,0,0,0,0:
0000
0000
0000
0000
,
0000
0000
0000
0000
,
1010
0000
0000
0000
,
0000
0000
0000
0000
,
1000
0000
0001
0000
,
0100
0000
1000
0000
,
0010
0000
0001
0000
,
1000
0000
0001
1000
,
0010
0001
0000
1000
,
0000
0010
0000
0100
,
0000
0010
0000
0100
,
0110
0000
0000
0000
,
1000
0001
1001
1000
,
0001
0001
1000
1000
,
1001
0100
0010
0100
,
0001
0000
0000
0000
1000
0000
0000
0000
0100
0000
0000
0000
1000
0000
0000
0010
,
1000
0000
0010
0001
,
0101
0001
0011
1000
,
1000
1000
1010
0000
,
0100
1000
0100
1000
0001
0100
0001
0100
,
1000
0000
0000
0000
,
0000
0000
0000
0000
0000
0000
0000
1000
,
0001
0110
0000
0000
,
0000
0000
0000
0000
0000
0000
0000
1000
,
0001
0000
0000
0000
,
0110
0000
0000
0000
,
0110
0000
0110
0000
,
0100
1000
0100
1000
0001
0100
0001
0100
,
1000
0100
0010
0100
,
0010
0001
0010
1000
,
0000
1000
0000
0100
,
0010
0000
0000
0000
0100
0000
0000
0000
0010
0000
0000
0000
0100
0000
0000
0010
,
0100
0010
0001
0100
,
1000
0100
0010
0001
,
1001
0110
1000
0100
,
0010
0000
0000
0000
0001
0000
0000
0000
0010
0000
0000
0000
0100
0000
0000
0010
,
1000
0010
0100
0110
,
0010
1001
1001
0100
,
0010
0100
0010
0000
,
0010
0000
0000
0000
0100
0000
0000
0000
0001
0000
0000
0000
1000
0000
0000
0100
,
0010
1000
0110
1000
,
0100
0010
0001
1000
,
0100
0010
0001
1000
,
0100
0010
0001
1000
,
1001
0000
0000
0000
1000
0100
0010
0000
,
0010
0000
0100
0000
1000
0100
0010
0000
,
1001
0100
0100
0100
,
0010
0001
0100
1000
,
0101
0011
1000
0100
,
0010
0001
0000
1000
,
0010
0100
1000
0100
,
0100
1000
0100
1000
0001
0100
0001
0100
,
1000
0100
0010
0100
,
0010
0001
0010
1000
,
0000
1000
0000
0100
,
0010
0000
0000
0000
0100
0000
0000
0000
0010
0000
0000
0000
0100
0000
0000
0010
,
0100
0010
0001
0100
,
1000
0100
0010
0001
,
1001
0110
1000
0100
,
0010
0000
0000
0000
0001
0000
0000
0000
0010
0000
0000
0000
0000
0000
0000
0010
,
1010
0000
0000
0000
;

//--------------- dance-single - ----------------
#NOTES:
     dance-single:
     :
     Hard:
     12:
     0,0,0,0,0:
0000
0000
0000
0000
,
0000
0000
0000
0000
0000
0000
0000
0000
1000
0100
1000
0100
1000
0100
1000
0100
,
1000
0000
0000
0000
0000
0000
0000
0100
,
1000
0000
0000
1000
0000
0000
1000
0000
0000
1000
0100
1000
0100
1000
0100
1000
,
0100
1100
0010
0110
,
1000
0110
1000
0101
,
0010
0011
0001
0110
,
1000
0000
0000
0000
1100
0000
0000
0000
0001
0000
0000
0000
1000
0000
0000
0010
,
0010
0010
0100
1100
,
0100
0000
0110
0000
0010
0001
0100
0000
,
1000
0100
0100
0000
0010
0010
0100
0000
,
0001
0000
0000
0000
0000
0000
0000
0000
0000
0000
0000
0000
1000
0100
1000
0100
,
1000
0001
0001
1100
,
0001
0000
0001
0000
1000
0010
1000
0000
,
1001
0100
0010
0100
,
0001
0000
0000
0000
1000
0000
0000
0000
0100
0000
0000
0000
1000
0000
0000
0010
,
1000
0000
0010
0001
,
0101
0001
0011
1000
,
1000
1000
1010
0000
,
1000
0100
1000
0100
0010
0001
0010
0001
0010
0001
0010
0001
0010
0001
0010
0001
,
0100
0000
0000
0000
,
0000
0000
0000
0000
0000
0000
0000
1000
,
0001
0110
0000
1100
,
0011
0000
1100
0000
0011
0000
0000
1000
,
0001
0000
0000
0000
,
0110
0000
1100
0011
,
1100
0011
0100
0000
,
1000
0100
0010
0001
0010
0100
1000
0010
,
1010
1100
0010
0110
,
0010
0101
0010
1100
,
0010
0000
1000
0000
0100
0100
0100
0000
,
0010
0010
0100
0010
0100
0010
0100
0010
,
0100
1010
0001
0110
,
1000
0000
1100
0000
0010
0100
0001
0000
,
1000
0000
0110
0000
1000
0010
0100
0000
,
0010
0000
0100
0000
0001
0000
0000
0000
0010
0000
1000
0000
0100
0000
0000
0010
,
1000
1100
0010
0100
,
0010
0000
1000
0000
0100
0010
0100
0000
,
0010
0000
0110
0000
0010
0100
0001
0000
,
0010
0000
0000
0000
0100
0000
0000
0000
0001
0000
0000
0000
1000
0000
0000
0100
,
0010
1000
0110
1000
,
0100
0000
1010
0000
0100
0100
1000
0000
,
0100
0000
0100
0100
0010
0000
1001
0000
,
0010
0000
0100
0001
0001
0010
0001
0000
,
0110
0000
0110
0000
1000
0100
0010
0000
,
0110
0000
0010
0000
1001
0100
0010
0000
,
1000
0110
0100
0110
,
1010
0100
0110
1000
,
0001
0011
1100
0101
,
0010
0000
0010
0000
1000
0000
0100
0100
,
0110
0110
0010
0000
1000
0000
0100
0000
,
1000
0100
0010
0001
0010
0100
1000
0100
,
0001
0110
0010
0110
,
1000
0000
0101
0000
0010
0000
1000
0010
,
0100
0000
1010
0000
0100
0010
0100
0000
,
0010
0000
0000
0000
0101
0000
0001
0000
0010
0000
0000
0000
0100
0000
0000
0010
,
0100
0000
1000
0000
0001
0010
0001
0000
,
1000
0000
0100
0010
0001
0010
0100
0000
,
1000
1000
0010
0001
1000
0000
0010
0000
,
0100
0000
0001
0000
0010
0000
0001
0000
0010
0100
0010
0100
0010
0100
0010
0100
,
1000
0000
0000
0000
;

//--------------- dance-double - ----------------
#NOTES:
     dance-double:
     :
     Easy:
     7:
     0,0,0,0,0:
00000000
00000000
00000000
00000000
,
00000000
00000000
00000000
00000000
,
00011000
00000000
00000000
00000000
,
00000000
00000000
00000000
00000000
,
00001000
00000000
00000001
00000000
,
00000100
00000000
00010000
00000000
,
00001000
00000000
00100000
00000000
,
00010000
00000000
10000000
01000000
,
00010000
00001000
00000000
00010000
,
00000000
00000100
00001000
00000010
,
00000000
00001000
00000100
00011000
,
00110000
00000000
10000000
00000000
,
10000000
00100000
00011000
00000000
,
00011000
00000000
00000100
00000000
,
00001001
00000100
00000000
00010000
,
00000000
00001000
00100000
00010000
,
10010000
00000000
00100000
00001000
,
00010000
00000000
00000100
00000000
,
00001000
00000001
00000100
00010000
,
00001000
00100000
00001000
00010000
,
00001100
00000000
00000000
00000000
,
00000000
00000000
00000000
00000000
00000000
00000000
00000000
10000000
,
00010000
01100000
00000000
00000000
,
00000000
00000000
00000000
00000000
00000000
00000000
00000000
00001000
,
00000001
00000000
00000000
00000000
,
00000110
00000000
00000000
00000000
,
00000110
00000000
00000110
00000000
,
00001000
00100000
01000000
10000000
,
00010000
00000000
00100000
01000000
,
00000000
00010000
00100000
10000000
,
00000000
10000000
00000000
01000000
,
00011000
00000100
00000010
00000100
,
00000100
00000010
00000001
00000100
,
00010000
00000000
00001000
00000000
,
00110000
00000000
10000000
00000000
,
00100000
00000000
00100000
00000000
,
10010000
00000000
01000000
00000000
,
01000000
00011000
00000000
00000010
,
00000010
00000100
00000010
00001000
,
00100000
01000000
00100000
10000000
,
00100000
10000000
01100000
10000000
,
01000000
00100000
00010000
00001000
,
00000100
00000010
00000001
00001000
,
00000100
00000010
00000001
00001100
,
00010000
10000000
00010000
00100000
,
00001000
00010000
00000010
00000100
,
00000010
00000100
00000100
00000100
,
00000010
00000001
00000100
00001000
,
00011000
00110000
10000000
01000000
,
00100000
00010000
00000000
10000000
,
00100000
01000000
10000000
01000000
,
10000000
00000000
00000000
00000000
,
10000000
01000000
00100000
01000000
,
00100000
00010000
00000010
00001000
,
00000000
00001000
00000000
01000000
,
00100000
01000000
00100000
01000000
,
01000000
00100000
00010000
01000000
,
10000000
01000000
00100000
00010000
,
00001100
00000110
00001000
00000100
,
00000010
00000001
00000010
00000100
,
00001001
00000000
00000000
00000000
;

//--------------- dance-double - ----------------
#NOTES:
     dance-double:
     :
     Medium:
     9:
     0,0,0,0,0:
00000000
00000000
00000000
00000000
,
00000000
00000000
00000000
00000000
,
10100000
00000000
00000000
00000000
,
00000000
00000000
00000000
00000000
,
10000000
00000000
00010000
00000000
,
01000000
00000000
10000000
00000000
,
00100000
00000000
00001000
00000000
,
00010000
00000000
00000100
00001000
,
00000010
00000001
00000000
00001000
,
00000000
00000010
00000000
00000100
,
00000000
00000010
00000000
00000100
,
00000110
00000000
00000000
00000000
,
00010000
00001000
00110000
10000000
,
00010000
00010000
10000000
10000000
,
10010000
01000000
00100000
01000000
,
00010000
00000000
00000000
00000000
10000000
00000000
00000000
00000000
01000000
00000000
00000000
00000000
10000000
00000000
00000000
00010000
,
10000000
00000000
00100000
00010000
,
01010000
00010000
00110000
00001000
,
00001000
00001000
00011000
00000000
,
00000100
00001000
00000100
00001000
00000001
00000100
00000001
00000100
,
00001000
00000000
00000000
00000000
,
00000000
00000000
00000000
00000000
00000000
00000000
00000000
00001000
,
00000001
00000110
00000000
00000000
,
00000000
00000000
00000000
00000000
00000000
00000000
00000000
00001000
,
00010000
00000000
00000000
00000000
,
01100000
00000000
00000000
00000000
,
01100000
00000000
01100000
00000000
,
01000000
10000000
01000000
10000000
00010000
01000000
00010000
01000000
,
10000000
01000000
00100000
01000000
,
00100000
00010000
00100000
00001000
,
00000000
00010000
00000000
00000100
,
00000010
00000000
00000000
00000000
00000100
00000000
00000000
00000000
00000010
00000000
00000000
00000000
00000100
00000000
00000000
00000010
,
00000100
00000010
00000001
00000100
,
00001000
00000100
00000010
00000001
,
00001001
00000110
00001000
00000100
,
00000010
00000000
00000000
00000000
00000001
00000000
00000000
00000000
00000010
00000000
00000000
00000000
00000100
00000000
00000000
00000010
,
00001001
00000100
00001000
00010000
,
00100000
10010000
10010000
01000000
,
00100000
01000000
00100000
00000000
,
00100000
00000000
00000000
00000000
01000000
00000000
00000000
00000000
00010000
00000000
00000000
00000000
10000000
00000000
00000000
01000000
,
00100000
10000000
01100000
10000000
,
01000000
00100000
00010000
00001000
,
00000100
00000010
00000001
00001000
,
00000100
00000010
00000001
00001000
,
00001001
00000000
00000000
00000000
00001000
00000100
00000010
00000000
,
00000010
00000000
00000100
00000000
00001000
00000100
00000010
00000000
,
00001001
00000100
00000100
00000100
,
00010000
00001000
01000000
00010000
,
01010000
00110000
10000000
01000000
,
00100000
00001000
00000000
00010000
,
00000010
00000100
00001000
00000100
,
00000100
00001000
00000100
00001000
00000001
00000100
00000001
00000100
,
00001000
00000100
00000010
00000100
,
00000010
00000001
00000010
00001000
,
00000000
00001000
00000000
00000100
,
00000010
00000000
00000000
00000000
00000100
00000000
00000000
00000000
00000010
00000000
00000000
00000000
00000100
00000000
00000000
00000010
,
00000100
00010000
00010000
01000000
,
10000000
01000000
00100000
00010000
,
10010000
01100000
10000000
01000000
,
00100000
00000000
00000000
00000000
00010000
00000000
00000000
00000000
00100000
00000000
00000000
00000000
00000000
00000000
00000000
00100000
,
10000000
00000000
00000000
00000000
;

//--------------- dance-double - ----------------
#NOTES:
     dance-double:
     :
     Hard:
     12:
     0,0,0,0,0:
00000000
00000000
00000000
00000000
,
00000000
00000000
00000000
00000000
00000000
00000000
00000000
00000000
10000000
01000000
10000000
01000000
10000000
01000000
10000000
01000000
,
10000000
00000000
00000000
00000000
00000000
00000000
00000000
00000100
,
00001000
00000000
00000000
00001000
00000000
00000000
00001000
00000000
00000000
00001000
00000100
00001000
00000100
00001000
00000100
00001000
,
00000100
00001100
00000010
00000110
,
00001000
00110000
01000000
01010000
,
00100000
00110000
00010000
01100000
,
10000000
00000000
00000000
00000000
11000000
00000000
00000000
00000000
00010000
00000000
00000000
00000000
10000000
00000000
00000000
00100000
,
00100000
00100000
01000000
11000000
,
01000000
00000000
01100000
00000000
00100000
00010000
00000100
00000000
,
00001000
00000100
00000100
00000000
00000010
00000010
00000100
00000000
,
00000001
00000000
00000000
00000000
00000000
00000000
00000000
00000000
00000000
00000000
00000000
00000000
10000000
01000000
10000000
01000000
,
10000000
00010000
00010000
11000000
,
00010000
00000000
00010000
00000000
10000000
00100000
10000000
00000000
,
10010000
00001000
00100000
00001000
,
00010000
00000000
00000000
00000000
00000010
00000000
00000000
00000000
00000100
00000000
00000000
00000000
00001000
00000000
00000000
00000010
,
00001000
00000000
00100000
00010000
,
01010000
00010000
00110000
10000000
,
10000000
10000000
10100000
00000000
,
10000000
01000000
10000000
01000000
00100000
00010000
00100000
00010000
00100000
00010000
00100000
00010000
00100000
00010000
00100000
00010000
,
01000000
00000000
00000000
00000000
,
00000000
00000000
00000000
00000000
00000000
00000000
00000000
00001000
,
00000001
00000110
00000000
00000011
,
00001100
00000000
00000011
00000000
00001100
00000000
00000000
00001000
,
00010000
00000000
00000000
00000000
,
01100000
00000000
11000000
00110000
,
11000000
00110000
01000000
00000000
,
10000000
01000000
00100000
00010000
00100000
01000000
10000000
00100000
,
10100000
11000000
00100000
01100000
,
00100000
01010000
00100000
00110000
,
00001000
00000000
00010000
00000000
00000100
00000100
00000100
00000000
,
00000010
00000010
00000100
00000010
00000100
00000010
00000100
00000010
,
00000100
00110000
00010000
01100000
,
10000000
00000000
11000000
00000000
00100000
01000000
00010000
00000000
,
10000000
00000000
01100000
00000000
10000000
00100000
01000000
00000000
,
00100000
00000000
01000000
00000000
00001000
00000000
00000000
00000000
00010000
00000000
00000010
00000000
00000100
00000000
00000000
00000010
,
00001000
00001100
00000010
00000100
,
00000010
00000000
00001000
00000000
00010000
00001000
00010000
00000000
,
00100000
00000000
01100000
00000000
00100000
01000000
00010000
00000000
,
00100000
00000000
00000000
00000000
01000000
00000000
00000000
00000000
00001000
00000000
00000000
00000000
00010000
00000000
00000000
00000100
,
00000010
00001000
00000110
00001000
,
00000100
00000000
00001010
00000000
00000100
00000100
00010000
00000000
,
00001000
00000000
01000000
01000000
00100000
00000000
10010000
00000000
,
00100000
00000000
01000000
00010000
00010000
00100000
00010000
00000000
,
01100000
00000000
01100000
00000000
10000000
01000000
00100000
00000000
,
01100000
00000000
00100000
00000000
10010000
01000000
00100000
00000000
,
10000000
01100000
01000000
01100000
,
10100000
01000000
00110000
00001000
,
00010000
00001100
00000011
00001100
,
00000010
00000000
00010000
00000000
00001000
00000000
01000000
01000000
,
01100000
01100000
00100000
00000000
10000000
00000000
01000000
00000000
,
10000000
01000000
00100000
00010000
00100000
01000000
10000000
01000000
,
00010000
01100000
00100000
01100000
,
10000000
00000000
01010000
00000000
00100000
00000000
10000000
00100000
,
01000000
00000000
10100000
00000000
01000000
00100000
00001000
00000000
,
00010000
00000000
00000000
00000000
00000100
00000000
00001000
00000000
00000010
00000000
00000000
00000000
00000100
00000000
00000000
00000010
,
00000100
00000000
00010000
00000000
00001000
00100000
00010000
00000000
,
10000000
00000000
01000000
00100000
00010000
00100000
01000000
00000000
,
10000000
10000000
00100000
00010000
10000000
00000000
00100000
00000000
,
01000000
00000000
00010000
00000000
00100000
00000000
00010000
00000000
00100000
01000000
00100000
01000000
00100000
01000000
00100000
01000000
,
10000000
00000000
00000000
00000000
;
