#TITLE:Keep Ya Body Movin';
#SUBTITLE:;
#ARTIST:Thuggie D.;
#TITLETRANSLIT:;
#SUBTITLETRANSLIT:;
#ARTISTTRANSLIT:;
#GENRE:;
#CREDIT:;
#MUSIC:kybm_main.ogg;
#BANNER:kybm_th.png;
#BACKGROUND:kybm_bk.png;
#CDTITLE:;
#SAMPLESTART:33.904;
#SAMPLELENGTH:15.000;
#SELECTABLE:YES;
#OFFSET:-3.600;
#BPMS:0.000=94.985
,141.000=96.280
;
#STOPS:;
#DISPLAYBPM:90.000:96.000;
#Stops:;
#BGCHANGES:;
#FGCHANGES:;

//--------------- dance-single - ----------------
#NOTES:
     dance-single:
     :
     Easy:
     3:
     0,0,0,0,0:
0010
1000
0001
0001
,
0000
0100
0000
0010
,
0000
0100
1000
0001
,
0000
0010
0100
1001
,
0000
1000
0000
1000
,
0000
0010
0000
0010
,
0100
0001
1000
0001
,
1000
0000
0001
0000
,
0010
0100
0000
1000
,
0000
0100
0000
1000
,
0000
0100
0000
0010
,
0000
1000
0000
0001
,
0000
0001
0000
1000
,
0000
0010
0000
0010
,
0000
0100
1000
0001
,
0000
0010
0100
0110
,
0000
0001
0000
1000
,
0000
0010
0000
0010
,
0000
0100
1000
0001
,
0000
0010
0100
0110
,
0000
0001
1000
0001
,
1000
0010
0000
1000
,
0000
0010
0100
0001
,
1000
0000
0000
1000
,
0000
1000
0000
0100
,
0000
1000
0000
0001
,
0000
0001
0000
0100
,
0000
1000
0001
0001
,
0001
1000
0000
0001
,
0000
0001
0000
0010
,
0000
0001
1000
0001
,
0000
0010
0100
0110
,
0000
0001
0000
1000
,
0000
0001
0000
0010
,
0000
0001
1000
0001
,
0000
0010
0100
1000
,
1000
0001
0001
0000
;

//--------------- dance-single - ----------------
#NOTES:
     dance-single:
     :
     Medium:
     5:
     0,0,0,0,0:
1000
0001
0001
1000
,
0100
0010
0010
0100
,
0100
1000
1000
0001
,
0010
0010
0100
0100
,
1000
0001
1001
0000
,
0010
0001
0010
0001
,
0100
0001
1000
0001
,
0000
0110
0000
1001
,
0010
1000
0001
0010
,
0100
0001
1000
0100
,
0000
0100
0000
0010
,
0000
1001
0000
0110
,
0001
0001
1000
1000
,
0010
0100
0010
0010
,
0000
0100
0000
1001
,
0010
0010
0100
0100
,
0001
0001
1000
1000
,
0010
0100
0010
0010
,
0000
0100
1000
0001
,
0010
0010
0100
0100
,
0001
1000
0001
0001
,
1000
0001
1000
1000
,
0010
0100
0001
0001
,
0000
0100
0010
1000
,
1001
0010
0110
1000
,
0000
0110
0010
1000
,
1001
0010
0110
1000
,
0000
0110
1001
1001
,
0001
0010
1000
1000
,
0010
0010
0100
0010
,
0001
1000
1000
0001
,
0010
0010
0100
0100
,
0001
0010
1000
1000
,
0010
0010
0100
0010
,
0001
1000
1000
0001
,
0010
0010
0100
0100
,
0110
1001
1001
0000
;

//--------------- dance-single - ----------------
#NOTES:
     dance-single:
     :
     Hard:
     7:
     0,0,0,0,0:
1000
0000
1001
0000
0001
0000
1001
1001
,
0100
0000
0010
0001
0010
0000
0100
0000
,
0100
0000
1000
0000
1000
0100
0001
0000
,
0010
0000
0010
0001
0100
0000
0100
0000
,
1000
0010
0001
0000
1001
0000
1001
0001
,
0010
0000
0001
0000
0010
0000
0001
1000
,
0100
0001
1000
1001
,
0110
0000
0001
1000
0001
0000
0001
0000
,
0010
0000
0001
1000
0001
0000
0010
1000
,
0100
0000
0001
0110
1000
0000
0100
0001
,
0100
0000
0001
0000
0010
0000
0100
1000
,
0001
0000
0000
0000
0110
0001
1000
0000
,
0001
0100
0001
0000
1000
0100
1000
0000
,
0010
1000
0100
0000
0010
1000
0010
0000
,
1001
0000
0000
0000
1000
0100
0001
0000
,
0010
0000
0010
0001
0100
0000
0100
0000
,
0001
0100
0001
0000
1000
0100
1000
0000
,
0010
1001
0100
0000
0010
1000
0010
0000
,
1001
0000
0000
0000
1000
0100
0001
0000
,
0010
0000
0010
1000
0100
0000
0100
0000
,
0001
0010
1000
0000
0001
1000
0001
0000
,
1000
0010
0001
0000
1000
0010
1000
0000
,
0010
0000
0100
0000
0001
1000
0010
0000
,
0100
0000
0000
0000
0010
0000
1000
0010
,
1000
0100
0010
0000
1001
0010
1000
0000
,
0110
0000
1000
0000
0010
0000
1000
0010
,
1001
0000
0010
1000
0110
0000
1000
0001
,
0110
0000
1001
1001
,
0001
0100
0001
0000
1000
0100
1000
0000
,
0010
0001
0100
0000
0010
1000
0010
0000
,
1001
0000
0000
0000
1000
0100
0001
0000
,
0010
0000
0010
0001
0100
0000
0100
0000
,
0001
0100
0001
0000
1000
0100
1000
0000
,
0010
1000
0100
0000
0010
1000
0010
0000
,
1001
0000
0000
0000
1000
0100
0001
0000
,
0010
0000
0010
1000
0100
0000
0100
0000
,
0110
0000
0000
0001
1001
0000
0000
0000
;

//--------------- dance-double - ----------------
#NOTES:
     dance-double:
     :
     Easy:
     2:
     0,0,0,0,0:
10000000
00000000
00010000
00000000
,
01000000
00000000
00001000
00000000
,
00010000
00000000
00000010
00001000
,
00000000
00000001
00000100
00000000
,
00000010
00000000
00010000
00000000
,
00001000
00000000
00100000
00000000
,
01000000
10000000
00010000
00000000
,
01000000
00000000
00001000
00000000
,
00010000
00000000
00000010
00000000
,
00000100
00000000
00000001
00000000
,
00000100
00000000
00000010
00000000
,
00010000
00000000
00001000
00000000
,
00100000
00000000
01000000
00000000
,
00100000
00000000
00001000
00000000
,
00010000
00000000
00000010
00000100
,
00000000
00000001
00000100
00000000
,
00000001
00000000
00001000
00000000
,
00000100
00000000
00010000
00000000
,
00001000
00100000
00000000
00010000
,
00000000
00100000
00001000
00000000
,
00010000
00000000
00000010
00001000
,
00000000
00000100
00010000
00001000
,
00100000
00000000
00010000
00010000
,
01000000
00000000
00001000
00010000
,
00000010
00000000
00000100
00000000
,
00000001
00000000
00001000
00000000
,
00000100
00000000
00010000
00000000
,
00001000
00000000
00100000
01000000
,
10000000
00000000
00010000
00000000
,
00010000
00000000
00100000
00000000
,
00001000
00000000
00010000
00000100
,
00000000
00000010
00000100
00000000
,
00010000
00000000
00001000
00000000
,
01000000
00000000
00100000
00000000
,
10000000
00000000
00010000
00010000
,
00000000
00100000
00001000
00000000
,
00010000
00000100
00000010
00000000
;

//--------------- dance-double - ----------------
#NOTES:
     dance-double:
     :
     Medium:
     5:
     0,0,0,0,0:
10000000
00010000
00010000
10000000
,
01000000
00100000
00100000
00001000
,
00010000
00000010
00000100
00000001
,
00000010
00000010
00000100
00010000
,
00001000
00100000
00010000
00000000
,
10000000
00010000
00100000
00010000
,
01000000
00001000
00010000
00000100
,
00000000
00001100
00000000
00001001
,
00000010
00001000
00000001
00000010
,
00000100
00010000
00001000
01000000
,
00000000
00010000
00000000
00100000
,
00000000
10010000
00000000
01000000
,
00001000
00000000
00010000
00011000
,
00000010
00000100
00000010
00000010
,
00000000
00000100
00000001
00001001
,
00000001
00000010
00000100
00010000
,
00001000
00100000
01000000
10000000
,
00100000
01000000
00100000
00100000
,
00000000
01000000
00000000
10010000
,
00100000
00100000
01000000
01000000
,
00001000
00010000
00000010
00001000
,
00000100
00000000
00010000
00001000
,
00100000
01000000
00100000
00001000
,
00000000
00010000
00000010
00001010
,
00001001
00000010
00000110
00001000
,
00000100
00011000
00100000
01000000
,
10010000
00100000
01100000
10000000
,
00000000
01100000
01000000
00001000
,
00010000
00000010
00001000
00001001
,
00000010
00000010
00010000
00001000
,
00100000
00010000
10000000
00010000
,
00100000
00100000
01000000
01000000
,
00010000
00100000
10000000
10000000
,
00100000
00100000
01000000
00001000
,
00010000
00000010
00000100
00000001
,
00000010
00000010
00000100
00000100
,
00010000
00001000
00011000
00000000
;

//--------------- dance-double - ----------------
#NOTES:
     dance-double:
     :
     Hard:
     7:
     0,0,0,0,0:
10000000
00000000
10010000
00000000
00010000
00000000
10010000
00010000
,
01000000
00000000
00100000
01000000
00100000
00000000
01000000
00001000
,
00010000
00000000
00000010
00000000
00000100
00000100
00000001
00000000
,
00000010
00000000
00000010
00000001
00001000
00000000
00000100
00000000
,
00010000
00001000
00100000
00000000
01000000
00000000
10010000
00010000
,
00100000
00000000
00010000
00000000
00100000
00000000
00010000
10000000
,
01000000
00100000
00001000
00011000
,
00001100
00000000
00000001
00001000
00001001
00000000
00000001
00000000
,
00000100
00000000
00000001
00001000
00000001
00000000
00000010
00000100
,
00010000
00000000
00010000
00001000
00100000
00000000
01000000
10000000
,
01000000
00000000
00100000
00000000
00010000
00000000
01000000
00010000
,
10010000
00000000
00000000
00000000
01100000
01000000
00001000
00000000
,
00010000
00001000
00010000
00000000
00000100
00000010
00000001
00000000
,
00000010
00000001
00000100
00000000
00000010
00001000
00000010
00000000
,
00001001
00000000
00000000
00000000
00001000
00000100
00000010
00000000
,
00000001
00000000
00000010
00000100
00010000
00000000
00001000
00000000
,
00100000
01000000
10000000
00000000
10000000
01000000
10000000
00000000
,
00100000
10000000
01000000
00000000
00100000
00001000
00010000
00000000
,
00011000
00000000
00000000
00000000
00000100
00000010
00000001
00000000
,
00000010
00000000
00000001
00001000
00000100
00000000
00000100
00000000
,
00001000
00000010
00000010
00000000
00010000
00001000
00100000
00000000
,
00010000
10000000
01000000
00000000
10000000
00100000
10000000
00000000
,
00100000
00000000
01000000
00000000
00010000
10000000
00100000
00000000
,
01000000
00000000
00001000
00000000
00010000
00000000
00000100
00000010
,
00000001
00000100
00000010
00000000
00001000
00000100
00010000
00000000
,
00011000
00000000
00100000
00000000
00010000
00000000
01000000
00100000
,
10010000
00000000
00010000
10000000
01000000
00000000
10000000
00010000
,
01000000
00000000
00001000
00010000
,
00000010
00000100
00000001
00000000
00001000
00000100
00001000
00000000
,
00000010
00001001
00000100
00000000
00000010
00001000
00000010
00000000
,
00001001
00000000
00000000
00000000
00001000
00000100
00010000
00000000
,
00001000
00000000
00100000
00010000
10000000
00000000
10000000
00000000
,
00010000
01000000
00010000
00000000
10000000
01000000
00100000
00000000
,
00001000
00010000
00000100
00000000
00000010
00000001
00000010
00000000
,
00001001
00000000
00000000
00000000
00001000
00000100
00000010
00000000
,
00000001
00000000
00001001
00001000
00000100
00000000
00010000
00000000
,
00001000
00100000
00110000
00000000
;
